#TITLE:Wild Thing;
#ARTIST:Tone Loc;
#BANNER:Wild Thing-bn.png;
#BACKGROUND:Wild Thing-bg.png;
#JACKET:Wild Thing-jacket.png;
#MUSIC:Wild Thing.ogg;
#OFFSET:0.556;
#SAMPLESTART:31.875;
#SAMPLELENGTH:20;
#DISPLAYBPM:126;
#BPMS:0=125.66;
#BGCHANGES:;

//---------------dance-single - ----------------
#NOTES:
     dance-single:
     :
     Beginner:
     4:
     :
0000
0000
0000
0000
,
0000
0000
0000
0000
,
0000
0000
0000
0000
,
0000
0000
0000
0000
,
0000
0000
0000
0000
,
0010
0000
0010
0000
,
0010
0000
0010
0000
,
0100
0000
0100
0000
,
0100
0000
0100
0000
,
0001
0000
1000
0000
,
0000
0000
1001
0000
,
0010
0000
0100
0000
,
0000
0000
0001
0001
,
0001
0000
1000
0000
,
0000
0000
0110
0000
,
0010
0000
0100
0000
,
0000
0000
0010
0010
,
0010
0000
1000
0000
,
0100
0000
0010
0000
,
0000
0001
0001
0000
,
1000
0000
1001
0000
,
0010
0000
0100
0000
,
0001
0001
0001
0000
,
0010
0000
0001
0000
,
0100
0000
0110
0000
,
1000
1000
1000
1000
,
1000
0000
0010
0000
,
0100
0000
0001
0001
,
0000
0010
0010
0000
,
0001
0000
1000
0000
,
0001
0000
0100
0000
,
0010
0010
0010
0000
,
1000
0000
1001
0000
,
0010
0000
0100
0000
,
0000
0000
0110
0000
,
0001
0000
1000
0000
,
0000
0000
0100
0100
,
0100
0000
0010
0000
,
0000
0000
1001
0000
,
0010
0000
0001
0000
,
0000
0000
0110
0000
,
0010
0000
1000
0000
,
0001
0000
0100
0000
,
0001
0000
0010
0000
,
0100
0100
0100
0000
,
1000
0000
0001
0000
,
0110
0000
1001
0000
,
0010
0000
1000
0000
,
0001
0001
0001
0000
,
0010
0000
0001
0000
,
0100
0100
0100
0000
,
0001
0000
1000
0000
,
0010
0010
0010
0000
,
0100
0000
0110
0000
,
1000
0000
1001
0000
,
0001
0001
0001
0000
,
1000
1000
1000
0000
,
0010
0000
0100
0000
,
0001
0000
0110
0000
,
0001
0000
0100
0000
,
0010
0000
1001
0000
,
1000
0000
0001
0000
,
0010
0000
0110
0000
,
0001
0000
0100
0000
,
1000
1000
1000
0000
,
1001
0000
0000
0000
;

//---------------dance-single - ----------------
#NOTES:
     dance-single:
     :
     Easy:
     7:
     :
0000
0000
0000
0000
,
0000
0000
0000
0000
,
0000
0000
0000
0000
,
0000
0000
0000
0000
,
0000
0000
0000
0000
,
0010
0001
0100
0010
,
1000
0100
1000
0001
,
0010
0001
0010
0100
,
1000
0001
0100
1000
,
1010
0000
0000
1010
0000
1010
0000
0000
,
0000
0000
0002
1003
,
0101
0000
0000
0101
0000
0101
0000
0000
,
0000
0000
0010
0100
,
1100
0000
0000
1100
0000
1100
0000
0000
,
0000
0000
0200
0310
,
0011
0000
0000
0011
0000
0011
0000
0000
,
0000
0000
1000
0001
,
0010
0001
0100
0000
,
0001
0010
1000
0000
,
0000
0100
1000
0010
,
0001
0100
0110
0000
,
1001
0100
1000
0000
,
0010
0001
1000
0000
,
0010
1000
0100
0001
,
0010
0100
0110
0000
,
1001
0010
0001
0100
,
1000
1100
0101
0000
,
0010
0001
1010
0101
,
0000
1000
0001
1000
0001
0000
0000
0000
,
0010
0001
0100
0000
,
0001
0010
1000
0000
,
1010
0100
0011
0100
,
1000
0001
1001
1001
,
0101
0000
0000
0101
0000
0101
0000
0000
,
0000
0000
2000
3001
,
1010
0000
0000
1010
0000
1010
0000
0000
,
0000
0000
0100
0010
,
0011
0000
0000
0011
0000
0011
0000
0000
,
0000
0000
0020
0130
,
1100
0000
0000
1100
0000
1100
0000
0000
,
0000
0000
0001
1000
,
0010
1000
0100
0000
,
1000
0001
0010
0000
,
0001
0101
1000
1100
,
0010
0100
1001
0000
,
1000
0100
0001
0010
,
0011
1100
0011
0000
,
0100
0001
0010
0100
,
1100
0101
1100
0000
,
0001
0100
1000
0000
,
0010
1000
1100
0000
,
0001
1000
0001
0100
,
0010
0010
0010
0000
,
0110
0010
0100
0000
,
0110
0100
0010
0000
,
1000
1000
0001
0001
,
0100
0010
1001
1001
,
0011
0000
0000
0011
0000
0011
0000
0000
,
0000
0000
2000
3010
,
1100
0000
0000
1100
0000
1100
0000
0000
,
0002
1003
0020
0130
,
0101
0000
0000
0101
0000
0101
0000
0000
,
0000
0000
0200
0310
,
1010
0000
0000
1010
0000
1010
0000
0000
,
0010
0000
0110
0000
0001
1000
0000
0000
,
1001
0000
0000
0000
;

//---------------dance-single - ----------------
#NOTES:
     dance-single:
     :
     Medium:
     10:
     :
0000
0000
0000
0000
,
0000
0000
0000
0000
,
0000
0000
0000
0000
,
0000
0000
0000
0000
,
0000
0000
0000
0000
,
0010
0000
0000
0001
0000
0001
0000
1000
,
0001
0000
0000
0100
0100
0000
0000
0000
,
0010
0000
0000
1000
0000
1000
0000
0001
,
1000
0000
0000
0100
0100
0010
0001
0100
,
0001
0000
0000
1100
0000
1100
0000
0001
,
0100
0000
0000
0000
0010
1000
0002
0000
,
0103
0000
0000
0101
0000
0101
0000
1000
,
0001
0000
0000
0010
0010
0001
1000
0010
,
0100
0000
0000
1010
0000
1010
0000
1000
,
0001
0000
0000
0000
0010
0001
2000
0000
,
3001
0000
0000
0011
0000
0011
0000
0100
,
0010
0000
0000
1000
1000
0001
1000
0100
,
0010
0000
0001
0000
0100
0000
0000
0110
0000
0000
0000
0000
0000
0000
1000
0000
,
0001
0000
0001
0100
0010
1000
0000
0000
,
0000
0100
1000
0001
1000
0010
0100
0001
,
0010
0000
0010
0001
1000
0001
0000
0000
,
0010
0001
0100
0001
0010
0000
0000
0100
,
1000
0010
1000
0001
0010
0010
0000
0000
,
0001
0000
0000
0100
0000
0000
0010
0000
1000
0000
0000
0100
0000
0000
0001
0000
,
0010
0001
0100
0010
0110
0110
0000
0000
,
0001
1000
0100
0000
1000
0010
0100
0001
,
1000
0000
0100
1000
0001
0000
0000
0010
,
0001
0000
0100
0000
0010
0000
0000
1000
0000
0000
0100
0000
0200
0000
0000
0000
,
0300
1000
0001
1000
0001
0100
0000
0000
,
0010
0000
1000
0000
0100
0000
0000
1100
0000
0000
0000
0000
0000
0000
0001
0000
,
0001
0000
0010
0001
0200
0000
0300
0010
,
1000
0100
1000
0001
0010
0001
0100
0010
,
1000
0001
0000
0000
0100
0000
0010
0000
1001
0000
0000
0000
1001
0000
0000
0000
,
0100
0000
0000
0101
0000
0101
0000
1000
,
0001
0000
0000
0000
0010
0001
0200
0000
,
0310
0000
0000
1010
0000
1010
0000
1000
,
0100
0000
0000
0010
0010
0001
1000
0001
,
0100
0000
0000
0011
0000
0011
0000
0010
,
0100
0000
0000
0000
1000
0001
0020
0000
,
0130
0000
0000
1100
0000
1100
0000
1000
,
0010
0000
0000
0100
0100
0010
1000
0001
,
0010
0001
0100
0001
1000
0000
0000
0100
,
1000
0010
1000
0001
1000
0000
0000
0000
,
0010
0000
0000
1000
0000
0000
0001
0000
0010
0000
0000
0001
0000
0000
0100
0000
,
0010
1000
0100
1000
0002
0000
0003
0000
,
0010
0001
0100
0001
1000
0100
0010
0000
,
0012
0000
0103
0001
1000
0000
0000
0010
,
1000
0100
1000
0010
0100
0001
1000
0100
,
0010
0001
1000
0001
0100
0000
0000
0010
,
1000
0100
0001
0100
1000
0000
0000
0010
,
0100
0001
0100
0001
0100
0001
0000
0000
,
0010
0000
0000
0001
0000
0000
1000
0000
0100
0000
0000
1000
0000
0000
0001
0000
,
0010
0100
1000
0010
1000
0001
0000
0000
,
1001
0010
0001
1000
0001
0000
0000
0100
,
0010
0100
0001
1000
0100
0000
0000
0010
,
0001
0100
1000
0010
1000
0100
0001
0010
,
0001
1000
0001
1000
1001
0000
1001
0000
,
0010
0000
0000
1100
0000
0101
0000
1000
,
0002
0000
0013
0000
0001
0100
2000
0000
,
3010
0000
0000
1010
0000
0011
0000
0010
,
0001
1000
0001
1000
0001
0100
0100
0000
,
0010
0000
0000
0101
0000
1010
0000
0100
,
2000
0000
3001
0000
0010
0001
0200
0000
,
0301
0000
0000
0011
0000
1100
0000
0000
,
0110
0000
1000
0100
1000
0001
0100
0000
,
1001
0000
0000
0000
;

//---------------dance-single - ----------------
#NOTES:
     dance-single:
     :
     Hard:
     13:
     :
0000
0000
0000
0000
,
0000
0000
0000
0000
,
0000
0000
0000
0000
,
0000
0000
0000
0000
,
0000
0000
0000
0000
,
0010
0000
0000
0001
0000
0001
0000
1000
,
0001
0000
0000
0100
0100
0010
1000
0000
,
0100
0000
0000
0010
0000
0010
0000
0001
,
0100
0000
0000
0000
0000
0000
0001
1000
0001
0000
1000
0000
1000
0000
0100
0000
,
0110
0000
0001
0101
0000
0101
1000
0001
,
0001
0000
0000
0000
0100
0000
0000
0000
0010
0000
1000
0001
1000
0000
0000
0000
,
0110
0000
1000
1100
0000
1100
0001
0100
,
0100
0000
0000
0000
0010
0000
1000
0100
1000
0000
0001
0000
0010
0000
0001
0000
,
1001
0000
0010
1010
0000
1010
0001
1000
,
1000
0000
0000
0000
0100
0000
0000
0000
0010
0000
0001
1000
0001
0000
0000
0000
,
1001
0000
0001
0011
0000
0011
0100
0010
,
0010
0000
0000
0000
1000
0000
0001
0100
0001
0000
0010
0000
0100
0000
1000
0000
,
0010
0000
1000
0000
0001
0000
1000
0000
0010
0000
0000
0000
0000
0000
0100
0001
,
0200
0000
0310
1000
0001
0001
0000
0000
,
0000
0000
0010
0001
0010
0000
0100
0000
1000
0000
0010
0000
1000
0000
0001
0000
,
0020
0000
0000
0000
0031
0000
1000
0100
1000
0000
0010
0000
0100
0000
0001
0000
,
0010
0000
0001
0000
0100
0000
0010
0000
1000
0000
0000
0000
0000
0100
1000
0100
,
1000
0000
0010
0000
0100
0000
0001
0000
0010
0000
0010
0000
0000
0000
0000
0001
,
1000
0000
0010
0100
0000
0010
0100
0000
0001
0000
1000
0100
0000
1000
0100
0000
,
0010
0001
0100
0010
0110
0110
0000
0000
,
1000
0001
0100
0010
0001
0010
1000
0100
,
0010
0000
0000
0000
0001
0000
1000
0000
0100
0000
0010
0000
0000
0001
1000
0001
,
1000
0000
0010
0000
0100
0000
0001
2000
0000
0000
3010
0100
0020
0000
0000
0000
,
1030
0000
0001
0000
0001
0000
0010
0100
0010
0000
0001
0000
1000
0000
0100
0000
,
1000
0010
1000
0010
1000
0000
0000
0101
0000
0000
0000
0000
0000
0000
0001
1000
,
0000
0000
0000
0000
0010
0000
0100
0000
1010
0000
0000
0000
0000
0001
0100
0001
,
0100
0000
0010
0000
1000
0000
0100
0000
0010
0001
0010
0001
0000
0000
1000
0001
,
1000
0001
0000
0000
0100
0000
0010
0000
1001
0000
0000
0000
1001
0000
0000
0000
,
0110
0000
0001
0011
0000
0011
1000
0100
,
0100
0000
0000
0000
0010
0000
0000
0000
0001
0000
1000
0010
0100
0000
0000
0000
,
0110
0000
0010
1010
0000
1010
0100
1000
,
1000
0000
0000
0000
0001
0000
0100
0010
0100
0000
0001
0000
1000
0000
0010
0000
,
1001
0000
0100
0101
0000
0101
0001
0010
,
0010
0000
0000
0000
0100
0000
0000
0000
1000
0000
0001
0100
0010
0000
0000
0000
,
1001
0000
1000
1100
0000
1100
0001
0100
,
0100
0000
0000
0000
0010
0000
1000
0001
1000
0000
0100
0000
0010
0000
0001
0000
,
0100
0000
0010
0000
1000
0000
0001
0000
0100
0000
0000
0000
0000
0000
0001
0010
,
0001
0000
0100
0000
0010
0000
1000
0000
0001
0000
0000
0000
0000
0000
0000
1000
,
0100
0000
0010
0001
0000
0010
0001
0000
0100
0000
0010
1000
0000
0010
1000
0000
,
0100
0000
0010
0001
1000
0000
1100
0000
1100
0000
0000
0000
0000
0000
0000
0001
,
1000
0000
0010
0000
0100
0000
1000
0000
0100
0000
0001
0010
0000
0001
0010
0000
,
0012
0000
0000
0000
0103
0000
0010
0000
1000
0000
0000
0000
0000
0100
0010
0100
,
1000
0000
0010
0000
0100
0001
0000
0001
0010
0000
0100
0000
1000
0000
0010
0000
,
1000
0000
0001
0000
0110
0000
0001
0100
0010
0000
1000
0000
0100
0000
0010
0000
,
0001
0100
1000
0100
0001
0000
0000
0010
,
0010
0000
0001
0000
0100
0000
0001
0000
1000
0000
1000
0000
0000
0000
0000
0010
,
1000
0000
0100
1000
0000
1000
0001
0000
0010
0000
0001
0100
0000
0100
0010
0000
,
0010
0000
1000
0100
1000
0000
0001
0000
0101
0000
0101
0000
0000
0000
0000
0010
,
0001
1000
0001
0000
0100
0000
0010
1000
0000
0000
0000
0000
0000
0000
0100
0010
,
0001
0000
0100
0000
0001
0000
1000
0000
0020
0000
0000
0000
0030
1000
0001
0000
,
0010
0000
0001
0100
0000
0000
0010
1000
0100
0000
0110
0000
0110
0000
0001
0000
,
1000
1000
0001
0100
1001
0000
1001
0000
,
0110
0000
1000
1010
0000
0101
0001
0010
,
0010
0000
0000
0000
0001
0000
0000
0000
0100
0000
0010
1000
0001
0000
0000
0000
,
0110
0000
0001
0011
0000
1100
0100
0010
,
0010
0001
0100
0001
1000
0100
0100
0010
,
1001
0000
0100
0101
0000
1100
0001
1000
,
1000
0000
0000
0000
0010
0000
0000
0000
0100
0000
0001
1000
0100
0000
0000
0000
,
1001
0000
0001
0011
0000
1010
0010
0100
,
0110
0000
0000
0000
0001
0000
1000
0100
0000
1000
0001
0000
0100
0000
0010
0000
,
1001
0000
0000
0000
;
