#TITLE:Who's Cheatin' Who;
#ARTIST:Charly McClain;
#BANNER:Who's Cheatin' Who-bn.png;
#BACKGROUND:Who's Cheatin' Who-bg.png;
#JACKET:Who's Cheatin' Who-jacket.png;
#MUSIC:Who's Cheatin' Who.ogg;
#SAMPLESTART:20.625;
#SAMPLELENGTH:20;
#DISPLAYBPM:132:138;
#BPMS:0=133.333,16=133,24=133.5,32=132.3,36=133.573,40=134.421,44=137,52=135,56=133.75,64=132,72=136.667,84=134.5,92=132.889,96=133.375,100=138,108=136.7,120=135,124=133,136=136,144=134.125,156=137.1,168=135.01,176=132.999,200=134.568,204=137.8,208=136.7,212=134.556,216=133.133,228=135.432,248=133.975,252=132.4,256=135.6,260=134.78;
#BGCHANGES:;

//---------------dance-single - ----------------
#NOTES:
     dance-single:
     :
     Beginner:
     3:
     :
0000
0000
0000
0000
,
0000
0000
0000
0000
,
0000
0000
0000
0000
,
0000
0000
0000
0000
,
0001
0000
0001
0000
,
1000
0000
1000
0000
,
0010
0000
1000
0000
,
0100
0000
0000
0000
,
0010
0000
0001
0000
,
0010
0000
0100
0000
,
1000
0000
1000
0000
,
1000
0000
1001
0000
,
0001
0000
0001
0000
,
1000
0000
1000
0000
,
0010
0000
0100
0000
,
0010
0000
0110
0000
,
0001
0000
0001
0000
,
0100
0000
0100
0000
,
0010
0000
1000
0000
,
0100
0000
0000
0000
,
1000
0000
1000
0000
,
0010
0000
0100
0000
,
0001
0000
0010
0000
,
0001
0000
0000
0000
,
0001
0001
0000
0000
,
1000
1000
0000
0000
,
0010
0000
1000
0000
,
0100
0000
0110
0000
,
0100
0000
0100
0000
,
0010
0000
0010
0000
,
0001
0000
1000
0000
,
0001
0000
1001
0000
,
0100
0000
0001
0000
,
0100
0000
0010
0000
,
1000
0000
1000
0000
,
1000
0000
0000
0000
,
0001
0000
0100
0000
,
0010
0000
1000
0000
,
0100
0000
0010
0000
,
0001
0000
0001
0000
,
0100
0000
0010
0000
,
0100
0000
0001
0000
,
0010
0000
0010
0000
,
0010
0000
0000
0000
,
0001
0000
1000
0000
,
0010
0000
0010
0000
,
1000
0000
0100
0000
,
0001
0000
0000
0000
,
1000
0000
1000
0000
,
0001
0000
0010
0000
,
0001
0000
0100
0000
,
0100
0000
0110
0000
,
0010
0000
1000
0000
,
1000
0000
0001
0000
,
0010
0000
0001
0000
,
0100
0000
0110
0000
,
0100
0000
0001
0000
,
0010
0000
0100
0000
,
1000
0000
0001
0000
,
1000
0000
1001
0000
,
0010
0000
0010
0000
,
0100
0000
0100
0000
,
0001
0000
0010
0000
,
0100
0000
0110
0000
,
1000
0000
0001
0000
,
0001
0000
0010
0000
,
0001
0000
0100
0000
,
0010
0000
0000
0000
;

//---------------dance-single - ----------------
#NOTES:
     dance-single:
     :
     Easy:
     6:
     :
0000
0000
0000
0000
,
0000
0000
0000
0000
,
0000
0000
0000
0000
,
0000
0000
0000
0000
,
0001
0100
2000
3000
,
0010
0010
1000
0001
,
1000
0100
0001
0100
,
2000
3000
1001
0000
,
0010
0100
0002
0003
,
0010
0001
0100
0100
,
0001
0010
1000
0010
,
0002
0003
0101
0101
,
1000
0100
0020
0030
,
0001
0100
2000
3000
,
0010
0010
1000
0001
,
0100
0000
0110
0110
,
0010
1000
0002
0003
,
1000
0010
0200
0300
,
0001
0010
1000
0100
,
1001
0000
0010
0000
,
1000
0100
0002
0003
,
0010
0001
0100
0100
,
0001
0001
1000
1000
,
0020
0030
0110
0000
,
0100
0001
0001
0000
,
0010
0100
1000
0000
,
1100
0000
0001
0100
,
1000
0000
1100
1100
,
0010
1000
0200
0300
,
0010
0001
2000
3000
,
0001
0001
0010
0100
,
1000
0000
1001
1001
,
0010
1000
0002
0003
,
1000
0100
0020
0030
,
0001
0010
1000
0100
,
0110
0000
1001
0000
,
0001
0001
1000
1000
,
0001
0100
2000
3000
,
0010
0010
1000
0100
,
0001
0010
0010
0010
,
0001
0100
1000
0010
,
0100
0010
2000
3000
,
1100
0101
2000
0002
,
0000
0000
0000
3003
,
0010
0001
2000
3000
,
0010
0010
0100
0010
,
1000
0100
0010
0001
,
0200
0300
0101
0000
,
0001
0001
0010
0001
,
0100
0100
0200
0300
,
0010
1000
0001
1000
,
0200
0300
0011
0011
,
0100
0010
2000
3000
,
0100
1000
0002
0003
,
0010
0001
0100
1000
,
0010
0000
1001
1001
,
0100
1000
0002
0003
,
1000
0010
0200
0300
,
0010
1000
0100
0010
,
0001
0000
1010
1010
,
0010
0100
0020
0030
,
1000
0100
0002
0003
,
0010
0001
0010
0001
,
0100
0000
0110
0110
,
0100
0010
0002
0003
,
0010
0001
0200
0300
,
1000
0010
0001
0100
,
1001
0000
0000
0000
;

//---------------dance-single - ----------------
#NOTES:
     dance-single:
     :
     Medium:
     9:
     :
0000
0000
0000
0000
,
0000
0000
0000
0000
,
0000
0000
0000
0000
,
0000
0000
0000
0000
,
0001
1000
0010
1000
0002
0000
0003
0000
,
0100
0010
1000
0010
0200
0000
0302
0000
,
0023
0000
0031
1000
0020
0000
1030
0001
,
0200
0300
0110
1001
,
0001
0010
0000
0100
2000
0000
3000
0000
,
1010
0101
1100
0011
,
0200
0000
0301
0010
0200
0000
1300
0001
,
2000
0000
3000
0000
0001
1000
0100
0000
,
1000
0001
0000
0100
0020
0000
0030
0000
,
1000
0100
0000
0010
0002
0000
0003
0000
,
0020
0000
0031
0100
0002
0000
0013
0100
,
2000
3000
1100
1100
,
0010
1000
0000
0100
0002
0000
0003
0000
,
1000
0010
0000
0001
0200
0000
0300
0000
,
0001
1000
0000
0010
2000
0000
3002
0000
,
0203
0010
1000
0301
,
0010
0001
0100
0010
2000
0000
3000
0000
,
0100
1000
0001
1000
0020
0000
0230
0000
,
0301
0010
0001
0000
1000
0010
1000
0000
,
0200
0300
1100
0101
,
2000
0000
3001
0002
0000
0000
0103
0010
,
2000
0000
3010
0200
0000
0002
0303
0000
,
0010
0100
0000
0001
2000
0000
3020
0000
,
2030
0000
3000
0000
0010
0100
0001
0000
,
0010
0001
0000
1000
0200
0000
0300
0000
,
0001
1000
0000
0100
0020
0000
0030
0000
,
0002
0000
0013
0100
2000
0000
3010
1000
,
0200
0300
0011
0011
,
0100
0010
0000
1000
0002
0000
0003
0000
,
1000
0001
0000
0100
0020
0000
0030
0000
,
1000
0100
0000
1000
0020
0000
0230
0000
,
0302
0000
0003
0100
0010
0000
0000
0000
,
1000
0100
2000
0000
3001
0100
0002
0000
,
0013
0001
0100
0000
1010
0000
0011
0000
,
1000
0010
2000
0000
3001
0010
0002
0000
,
0203
0000
0310
1000
0001
1000
0100
0000
,
1001
0000
0010
1000
0200
0000
0310
0001
,
2000
0000
3002
0000
0013
0100
0000
0110
,
0000
0001
1000
0001
0100
0010
2000
0002
,
0000
0000
0000
3003
,
0010
0100
0010
1000
0200
0000
0300
0000
,
1000
0001
0010
0001
2000
0000
3200
0000
,
0310
0001
1000
0000
0010
1000
0001
0000
,
0200
0300
0011
1100
,
0002
0000
0013
0001
0200
0000
0310
2000
,
0000
3002
0000
0103
0020
0000
0030
0000
,
0020
0000
1030
0100
2000
0000
3100
0010
,
0002
0000
0003
0000
0010
0001
0100
0000
,
0001
1000
0000
0010
0200
0000
0300
0000
,
0010
0100
0000
0001
2000
0000
3000
0000
,
0200
0000
0310
0001
0200
0000
0301
1000
,
0200
0300
1010
1010
,
0100
1000
0000
0010
0002
0000
0003
0000
,
0100
0001
0000
1000
0020
0000
0030
0000
,
1000
0100
0000
0010
0002
0000
0203
0000
,
0302
0000
0003
0000
1000
0010
0100
0000
,
0001
1000
0000
0010
2000
0000
3000
0000
,
0100
0010
0000
0001
0200
0000
0300
0000
,
0002
0000
1003
0001
0020
0000
0031
0100
,
2000
3000
0101
0101
,
0010
1000
0000
1000
0002
0000
0003
0000
,
0010
0001
0000
0100
0020
0000
0030
0000
,
1000
0001
0000
0010
0002
0000
0203
0000
,
0320
0030
0000
0000
;

//---------------dance-single - ----------------
#NOTES:
     dance-single:
     :
     Hard:
     11:
     :
0000
0000
0000
0000
,
0000
0000
0000
0000
,
0000
0000
0000
0000
,
0000
0000
0000
0000
,
0001
1000
0010
0100
0002
1000
1003
0000
,
0010
1000
0100
1000
0002
0000
0103
0010
,
1000
0100
0001
0100
1000
0010
0001
0010
,
1000
1100
0000
0001
0101
0000
0100
0010
,
1000
2000
0000
3001
0200
0010
0310
0000
,
2010
0000
3001
0100
0102
0000
0013
0100
,
1000
0010
0100
1000
0100
0001
0010
0100
,
2000
0001
3001
0000
0010
0001
1000
0100
,
1001
0001
0000
0100
0020
1000
1030
0000
,
1100
0010
0000
0100
0002
1000
1003
0000
,
1000
0010
0001
0010
1000
0100
0001
0100
,
1000
0010
0000
0100
0101
0000
1100
0000
,
0101
0010
0000
1000
0002
0100
0103
0000
,
0110
0010
0000
0100
0002
1000
1003
0000
,
0011
1000
0000
0001
0200
0010
0310
0000
,
1001
0010
1000
0001
0010
0100
1000
0000
,
0010
1000
0100
0001
0200
1000
1300
0000
,
0001
0010
0001
0100
2000
0000
3010
0100
,
0001
0010
1000
0010
0001
0100
1000
0100
,
0001
0011
0000
1000
1100
0000
0010
0100
,
0002
0000
1003
0001
0000
0010
0100
1000
,
0020
0000
1030
0001
2000
0100
3100
0000
,
0110
1001
0000
0001
1000
0100
0010
0000
,
0002
0100
0103
0000
0010
0001
1000
0100
,
1001
0010
0000
1000
0200
0001
0301
0000
,
1100
1000
0000
0010
0200
0001
0301
0000
,
1000
0100
0001
0100
1000
0010
0001
0010
,
1000
0001
0000
0100
1010
0000
0011
0000
,
1010
1000
0000
0100
0002
0010
0013
0000
,
0101
0010
0000
1000
0002
0100
0103
0000
,
1001
0100
0000
0001
2000
0010
3010
0000
,
0110
0000
0000
0001
2000
0000
3000
0000
,
0001
0100
0010
0100
0001
0100
0010
0100
,
0001
0100
0010
1000
0200
0000
2300
0000
,
3001
0100
0010
0100
0001
0100
0010
1000
,
0100
0010
0100
0001
0100
1000
0010
0100
,
0001
0000
0001
1000
0010
1000
0100
0010
,
0001
0001
0001
1000
0200
1300
0000
0022
,
0030
1000
1000
1003
0010
0100
0001
1001
,
0010
1000
0100
0000
0010
0001
0100
0000
,
0001
0010
1000
0010
0002
0100
0103
0000
,
0010
0100
0001
1000
0200
0000
1300
0010
,
0001
0010
1000
0100
0001
0100
1000
0010
,
0100
1001
0000
0010
0110
0000
0001
1000
,
0200
0000
0310
0001
0200
0000
0310
2000
,
0000
3002
0000
1003
0020
0100
0130
0000
,
0002
0000
0013
0100
1000
0010
1000
0001
,
0200
0010
0310
0000
1000
0100
0010
0001
,
0101
1000
0000
0001
0020
0100
0130
0000
,
1100
0010
0000
1000
0002
0100
0103
0000
,
0001
0010
1000
0010
0001
0100
1000
0100
,
0001
1000
0000
0100
0011
0000
1100
0000
,
0011
0001
0000
1000
0002
0100
0103
0000
,
1001
0100
0000
0001
0020
1000
1030
0000
,
1100
0100
0000
1000
0002
0010
0013
0000
,
0110
0000
0000
0000
0001
0010
0100
1000
,
1010
0001
0000
1000
0200
0010
0310
0000
,
0011
0100
0000
0001
2000
0010
3010
0000
,
1000
0100
0001
0100
1000
0010
0001
0010
,
1000
0100
0000
0001
0101
0000
1010
0000
,
0101
1000
0000
0010
0002
0100
0103
0000
,
0110
0010
0000
0100
0002
1000
1003
0000
,
1100
1000
0000
0001
2000
0100
3100
0000
,
1001
0000
0000
0000
;
