#TITLE:Who Said We Were Friends;
#ARTIST:Mercy Bell;
#BANNER:Who Said We Were Friends-bn.png;
#BACKGROUND:Who Said We Were Friends-bg.png;
#JACKET:Who Said We Were Friends-jacket.png;
#MUSIC:Who Said We Were Friends.ogg;
#SAMPLESTART:27.871;
#SAMPLELENGTH:20;
#DISPLAYBPM:155;
#BPMS:0=155;
#BGCHANGES:;

//---------------dance-single - ----------------
#NOTES:
     dance-single:
     :
     Beginner:
     3:
     :
0000
0000
0000
0000
,
0000
0000
0000
0000
,
0000
0000
0000
0000
,
0000
0000
0000
0000
,
0000
0000
0000
0000
,
0000
0000
0000
0000
,
0000
0000
0000
0000
,
0000
0000
0000
0000
,
0000
0000
0000
0000
,
0010
0000
0100
0000
,
0001
0000
1000
0000
,
0100
0000
0100
0000
,
0100
0000
0000
0000
,
1001
0000
0010
0000
,
1001
0000
0100
0000
,
0001
0000
1000
0000
,
0010
0000
0010
0000
,
0010
0000
1000
0000
,
0001
0001
0001
0000
,
0200
0000
0300
0000
,
0010
0000
1000
0000
,
0002
0000
0003
0000
,
1000
0000
0100
0000
,
1000
0000
0010
0000
,
0100
0000
0001
0000
,
1000
0000
0010
0000
,
0100
0100
0100
0000
,
0010
0000
1000
0000
,
0001
0000
0100
0000
,
0010
0000
1000
0000
,
0110
0000
0001
0000
,
0110
0000
1000
0000
,
0010
0000
0100
0000
,
0001
0000
0001
0000
,
0001
0000
1000
0000
,
0010
0000
1000
0000
,
0200
0000
0300
0000
,
1000
0000
0001
0000
,
0200
0000
0300
0000
,
0010
0000
0100
0000
,
0010
0000
1000
0000
,
0100
0000
0010
0000
,
0001
0000
1000
0000
,
0010
0000
1000
0000
,
0010
0000
0100
0000
,
0001
0000
0010
0000
,
0100
0000
1000
0000
,
1001
0000
0010
0000
,
0110
0000
0001
0000
,
1000
0000
0100
0000
,
1000
0000
1000
0000
,
1000
0000
0010
0000
,
1000
1000
1000
0000
,
0002
0000
0003
0000
,
0010
0000
0001
0000
,
2000
0000
3000
0000
,
0010
0000
0100
0000
,
0010
0000
0100
0000
,
0001
0000
0010
0000
,
0001
0000
1000
0000
,
0010
0010
0010
0000
,
1000
0000
0001
0000
,
1000
0000
0100
0000
,
1000
0000
0001
0000
,
1001
0000
0100
0000
,
1001
0000
0010
0000
,
1000
0000
0100
0000
,
0001
0000
0000
0000
,
0110
0000
0010
0000
,
0110
0000
0100
0000
,
0001
0000
1000
0000
,
0001
0000
1000
0000
,
0010
0000
0100
0000
,
0110
0000
1000
0000
,
1001
0000
0000
0000
;

//---------------dance-single - ----------------
#NOTES:
     dance-single:
     :
     Easy:
     6:
     :
0000
0000
0000
0000
,
0000
0000
0000
0000
,
0000
0000
0000
0000
,
0000
0000
0000
0000
,
0000
0000
0000
0000
,
0000
0000
0000
0000
,
0000
0000
0000
0000
,
0000
0000
0000
0000
,
0000
0000
0000
0000
,
0010
0001
0100
0010
,
1000
0100
1000
0001
,
0100
0100
0010
0010
,
2000
0001
0002
3003
,
1001
0010
1000
0100
,
0110
0001
0100
0010
,
1000
1000
0001
0001
,
0200
0300
0020
0030
,
1000
0001
1000
0001
,
0100
0100
0010
0010
,
2000
0001
0002
3003
,
0010
0001
0100
0001
,
2000
0100
0200
3300
,
0010
1000
0100
0001
,
1000
0010
0001
0100
,
1000
0001
1000
0001
,
0200
0300
0010
0100
,
0001
1001
0110
1000
,
0010
1000
0200
0300
,
1000
0010
1000
0100
,
0002
0010
0020
0033
,
1001
0100
0010
0100
,
0110
1000
0001
1000
,
0010
0010
1000
0001
,
2000
3000
0200
0300
,
1000
0010
0100
0001
,
0010
0010
0001
0001
,
0100
0010
1000
0100
,
1001
0000
0010
0001
,
0200
0010
0002
0303
,
1000
1000
0010
0010
,
1000
0100
0001
0100
,
0110
0000
1000
0001
,
0100
0000
0010
0100
,
0010
1000
1000
0001
,
0001
0100
1000
0000
,
0020
0000
1030
0001
,
0200
0001
0310
0000
,
1001
0100
0001
0010
,
0110
1000
0010
0100
,
0001
0000
0010
0100
,
2000
3000
0002
0003
,
0010
0001
0100
1000
,
0010
0010
1000
0001
,
2000
0100
0002
3003
,
1000
0010
1000
0001
,
0200
0010
0020
0330
,
0001
0001
0001
1000
,
0010
1000
0100
0100
,
1000
0010
0001
0100
,
2000
3010
0002
0103
,
0010
1001
0110
1000
,
0010
0100
0001
0000
,
0010
0010
0001
0100
,
2000
0100
0020
3030
,
1001
0100
0010
0100
,
0110
0001
1000
0001
,
2000
3000
0100
1000
,
0002
0000
0000
0003
,
1001
0010
1000
1000
,
0110
0001
0100
0100
,
0001
0010
0001
1000
,
0002
0003
2000
3000
,
0020
0030
0200
0300
,
0110
0000
1001
0110
,
1001
0000
0000
0000
;

//---------------dance-single - ----------------
#NOTES:
     dance-single:
     :
     Medium:
     9:
     :
0000
0000
0000
0000
,
0000
0000
0000
0000
,
0000
0000
0000
0000
,
0000
0000
0000
0000
,
0000
0000
0000
0000
,
0000
0000
0000
0000
,
0000
0000
0000
0000
,
0000
0000
0000
0000
,
0000
0000
0000
0000
,
0001
1100
0101
1100
,
0101
0000
0010
1000
0000
0001
0100
0000
,
0010
0000
1000
0000
0100
0000
1000
0001
,
0100
0010
2000
3000
,
0001
0000
0010
0100
0000
0100
1000
0000
,
0010
1000
0000
0001
0000
0100
0010
0000
,
1000
0000
0002
0000
2003
0000
3010
0100
,
0002
0003
2000
3000
,
0001
1000
0200
0000
0320
0000
0032
0000
,
0103
0000
0100
0000
0010
1000
0000
0002
,
0000
0000
0013
0100
0010
0000
0001
0000
,
1000
0002
0000
0000
0103
0010
0000
1000
,
0001
0000
0110
0000
1000
0100
0010
0000
,
0011
1100
0011
1100
,
0010
1000
0000
0100
0000
0000
1001
0000
,
0110
0000
1001
0000
1000
0010
0000
0200
,
0002
0000
0303
0000
1000
0010
0000
0100
,
0001
0000
0011
0000
2000
0200
3000
0000
,
0310
0001
0000
0100
1000
0000
0000
0000
,
0110
0000
0010
0001
0010
0100
0000
2000
,
0001
0100
0020
3030
,
1000
0000
0001
0100
0000
0101
0000
0000
,
0010
0000
1000
0001
0000
1010
0000
0000
,
1000
0100
0010
0000
0001
1000
0010
0000
,
0200
0300
0020
0030
,
1000
0001
0100
0000
0010
0000
0100
0000
,
0001
0000
0010
0000
0001
0000
1000
0100
,
0000
0010
0200
0000
0300
1000
0001
0000
,
0020
0000
0030
0001
1000
0100
0000
1000
,
0010
0000
0100
0001
2000
0000
3000
0000
,
0020
2030
3002
0103
,
0001
0010
0000
1100
0000
0000
0101
0000
,
0010
1000
0000
0000
1000
0001
0000
0200
,
0010
0000
0310
0000
0001
1000
0000
0020
,
1000
0000
0100
0000
1030
0001
0000
0011
,
0000
1020
0000
0000
0200
0000
0330
0000
,
0001
0010
0000
0001
1000
0000
0001
0100
,
0010
0000
1000
0100
0001
0000
0000
0000
,
0011
0000
0001
0100
0010
0000
1000
0000
,
1100
0000
0010
0100
0001
0000
1000
0000
,
0020
0000
0030
0000
1000
0002
0000
1003
,
0200
0300
0020
0030
,
0001
0100
0010
0000
1000
0000
0010
0000
,
1000
0000
1000
0000
0001
0100
0000
0020
,
1000
0001
0100
1030
,
0010
0200
0000
0000
0301
1000
0000
0001
,
0100
0010
2000
0002
3000
0000
0013
0001
,
0100
0101
1010
0101
,
1000
0100
0000
0011
0000
1000
0100
0000
,
1001
0000
0110
0000
1000
0001
0100
0010
,
1000
0100
1000
0000
0001
0200
0000
0020
,
0300
0000
1000
0000
1030
0200
0000
0000
,
1300
0002
0000
0103
0010
0000
0000
0000
,
1001
0000
0010
1000
0100
0010
0000
0001
,
0100
0010
0110
0000
,
1000
0000
0001
0200
0000
0320
0000
0000
,
1030
0000
0001
0020
0000
0230
0000
0000
,
1300
0010
0000
0000
0100
0001
0000
0000
,
0011
0000
0001
0100
1000
0000
0101
0000
,
0010
0000
0100
0002
0000
2003
0000
0000
,
3100
0000
0010
0002
0000
2003
0000
0000
,
3010
0100
0000
0000
0001
1000
0000
0000
,
0002
0003
2000
3000
,
0020
0030
0200
0300
,
0110
0000
1010
0101
,
1100
0000
0000
0000
;

//---------------dance-single - ----------------
#NOTES:
     dance-single:
     :
     Hard:
     11:
     :
0000
0000
0000
0000
,
0000
0000
0000
0000
,
0000
0000
0000
0000
,
0000
0000
0000
0000
,
0000
0000
0000
0000
,
0000
0000
0000
0000
,
0000
0000
0000
0000
,
0000
0000
0000
0000
,
0000
0000
0000
0000
,
0010
0001
0100
1000
,
0010
0100
0001
1000
0000
0100
0010
0000
,
0001
0000
0100
0000
0010
1000
0001
0100
,
0010
0001
0010
1000
0200
0000
0300
0000
,
0001
0100
0000
0010
0000
0100
0001
1000
,
0100
0010
0000
0001
0000
1000
0001
0100
,
0010
0000
1010
0000
0101
0000
0001
0100
,
0020
0030
2000
3000
,
0001
0100
0010
0000
0110
0000
1001
0000
,
1100
0000
0101
0000
1000
0010
0100
0001
,
0010
0100
1000
0000
0010
0100
0001
0000
,
0010
0001
0000
0100
0010
1000
0000
0001
,
1000
0100
0010
0001
0010
0100
1000
0000
,
0002
0203
0302
1003
,
0010
1000
0000
0001
0000
1000
0100
0000
,
0011
0000
1100
0000
0010
1000
0001
0100
,
1000
0100
0001
0000
0010
0100
1000
0001
,
0100
0000
1010
0000
0001
0010
1000
0000
,
0100
1000
0010
1000
0001
1000
0100
0000
,
0110
0000
0001
0100
0001
1000
0010
0100
,
0001
0010
0100
0000
2000
0001
3001
0000
,
0010
1000
0000
0001
0000
0200
0010
0000
,
0310
0000
1000
0100
0000
0020
0001
0000
,
0031
0100
1000
0000
0010
0200
0000
0301
,
2000
3100
0002
0103
,
1000
0001
0100
0000
0110
0000
1001
0000
,
0010
0000
1000
0000
0100
0000
0010
0001
,
0100
0010
1000
0000
0001
0100
1000
0000
,
0101
0000
0010
1000
0100
0010
0000
0001
,
1000
0001
0100
0010
2000
0000
3000
0000
,
1100
0110
0011
0100
,
0010
1000
0000
0001
0000
1000
0100
0000
,
0010
0002
0000
0103
0010
1000
0000
0001
,
1000
0100
1000
0010
0100
0001
0010
0001
,
1000
0010
0100
0000
0001
0010
0001
1000
,
0100
0010
0001
0000
0100
0001
1000
0000
,
2010
0000
3001
0100
1000
0000
0001
0010
,
0100
0010
0001
0000
2001
0000
3100
0010
,
0001
0000
1000
0001
0100
0010
0100
0001
,
1000
0100
0010
0000
0001
0100
0001
0010
,
1000
0000
0100
0010
0001
0100
0010
1000
,
0002
0003
0200
0300
,
0010
1000
0001
0000
0110
0000
1001
0000
,
1010
0000
0011
0000
0100
0010
1000
0001
,
0010
1000
0010
0001
0100
0010
1000
0000
,
0100
1000
0000
0010
1000
0100
0000
0010
,
0001
0100
0010
0100
0001
1000
0100
0000
,
0020
0032
2003
3020
,
0130
0001
0010
0001
0000
1000
0100
0000
,
1001
0000
0110
0000
1000
0010
0100
0001
,
0010
0100
0010
0001
0100
0010
1000
0001
,
0100
0000
0011
0000
1000
0001
0010
0000
,
0100
1000
0010
0100
0001
0010
0001
0000
,
0101
0000
0010
0001
0010
0100
1000
0010
,
1000
0100
0001
0000
1100
0000
0000
0000
,
0010
0100
0000
1001
0000
0010
0100
0000
,
0002
0000
0013
0200
0000
1300
0010
0000
,
1000
0100
0010
0000
0001
0100
0010
0000
,
1000
0000
0001
0100
0001
0000
1010
0000
,
1100
0000
0010
0002
0000
2003
0010
0000
,
3100
0000
1000
0020
0000
0230
0001
0000
,
0310
0100
0010
1000
0001
0010
0001
0100
,
0002
0003
2000
3000
,
0020
0030
0200
0300
,
0110
0000
1010
0101
,
1100
0000
0000
0000
;
