#TITLE:Wherever You Will Go;
#ARTIST:The Calling;
#BANNER:Wherever You Will Go-bn.png;
#BACKGROUND:Wherever You Will Go-bg.png;
#JACKET:Wherever You Will Go-jacket.png;
#MUSIC:Wherever You Will Go.ogg;
#SAMPLESTART:42.911;
#SAMPLELENGTH:20;
#DISPLAYBPM:110:115;
#BPMS:0=111,20=110,24=112,28=115,33=112.07,44=111.4,58=112.25,64=111.345,66=110.2,70=113,88=112.15,96=112.5,108=112.147,120=114,124=113.015,128=111.875,132=111.111,156=113.04,162=112.164,164=110.975,168=112.135,180=111.54,182=112.6,190=112.039,202=111.46;
#BGCHANGES:;

//---------------dance-single - ----------------
#NOTES:
     dance-single:
     :
     Beginner:
     2:
     :
0000
0000
0000
0000
,
0000
0000
0000
0000
,
0000
0000
0000
0000
,
0000
0000
0000
0000
,
0001
0000
0000
0000
,
1000
0000
0000
0000
,
0010
0000
1000
0000
,
0001
0000
1000
0000
,
0100
0000
0000
0000
,
0010
0000
0000
0000
,
0100
0000
1000
0000
,
0001
0000
1000
0000
,
1001
0000
0000
0000
,
0001
0000
0100
0000
,
1000
0000
0000
0000
,
0100
0000
0010
0000
,
0110
0000
0000
0000
,
1000
0000
0001
0000
,
0010
0000
0001
0000
,
0100
0000
0010
0000
,
1000
0000
0001
0000
,
0010
0000
0001
0000
,
0100
0000
0010
0000
,
1000
0000
1000
0000
,
1000
0000
0010
0000
,
1000
0000
0100
0000
,
0001
0000
0010
0000
,
0001
0000
0100
0000
,
1001
0000
0000
0000
,
0010
0000
1000
0000
,
0110
0000
0000
0000
,
0100
0000
0001
0000
,
1001
0000
0000
0000
,
0010
0000
0010
0000
,
0110
0000
0000
0000
,
0001
0000
0000
0000
,
1000
0000
0010
0000
,
1000
0000
0001
0000
,
0010
0000
0001
0000
,
0100
0000
0100
0000
,
0001
0000
0010
0000
,
0001
0000
0100
0000
,
1000
0000
0010
0000
,
1000
0000
0001
0000
,
0010
0000
0001
0000
,
0100
0000
0100
0000
,
0100
0000
0000
0000
,
0010
0000
1000
0000
,
0001
0000
1000
0000
,
0010
0000
0010
0000
,
0010
0000
0000
0000
,
1000
0000
0001
0000
,
0100
0000
0000
0000
;

//---------------dance-single - ----------------
#NOTES:
     dance-single:
     :
     Easy:
     7:
     :
0000
0000
0000
0000
,
0000
0000
0000
0000
,
0000
0000
0000
0000
,
0000
0000
0000
0000
,
0000
0000
0000
0001
0000
0100
0000
0000
,
0000
0000
0000
0010
0000
1000
0000
0000
,
0000
0000
0000
0100
0000
0010
0000
0001
,
0000
0000
0000
1000
0000
0001
0000
1000
,
0000
0000
0000
0010
0000
0100
0000
0000
,
0000
0000
0000
0001
0000
1000
0000
0000
,
0000
0000
0000
0100
0000
1000
0000
0000
,
0010
0000
0000
0100
0000
0001
0000
0000
,
1001
0000
0000
0010
,
2000
0000
0000
3001
0000
0100
0000
0001
,
0000
1000
0000
0000
0000
0000
0010
0000
,
1000
0100
1000
0001
,
0110
0000
0000
0010
,
0002
0000
0000
0103
0000
0010
0000
1000
,
0000
0000
1000
0010
,
1000
0100
0010
0001
,
0100
0001
0010
0001
,
0100
0010
1000
0100
,
1000
0010
0100
0001
,
0010
0000
0000
0001
0000
1000
0000
0001
,
0000
0000
0000
0010
0000
1000
0000
0000
,
0001
0000
0000
0100
0000
0010
0000
0000
,
1000
0001
0010
0100
,
1000
0000
0000
0010
0000
0100
0000
0000
,
0102
0000
0000
1000
0000
0000
0103
0000
,
1000
0010
1000
0001
,
1020
0000
0000
0100
0000
0000
1030
0000
,
0001
0010
0001
0100
,
1200
0000
0000
0001
0000
0000
1300
0000
,
0001
0100
0001
1000
,
0012
0000
0000
0100
0000
0000
0013
0000
,
0001
0010
0001
1000
,
0100
1001
0010
1000
,
0100
1000
0010
0100
,
0001
0010
0001
0100
,
1000
0000
0000
0100
0000
1000
0000
0001
,
0000
0000
0000
0010
0000
1000
0000
0000
,
0001
0000
0000
0100
0000
0010
0000
0000
,
0100
0001
0010
0100
,
1000
0010
1000
0001
,
0110
0001
0100
1000
,
2020
3030
0202
0303
,
2000
0000
0000
0010
0000
0000
3001
0000
,
0010
0001
0100
1000
,
1001
0010
1000
0100
,
0022
0033
2200
3300
,
0002
0000
0000
0010
0000
0000
0103
0000
,
0010
1000
0100
0001
,
1001
0000
0000
0000
;

//---------------dance-single - ----------------
#NOTES:
     dance-single:
     :
     Medium:
     9:
     :
0000
0000
0000
0000
,
0000
0000
0000
0000
,
0000
0000
0000
0000
,
0000
0000
0000
0000
,
0000
0000
0001
2000
0000
3020
0000
0000
,
0030
0000
1000
0002
0000
0203
0000
0000
,
0300
0000
0001
0020
0000
0032
0000
2003
,
0000
0000
3100
2000
0000
3020
0000
0230
,
0000
0000
0301
0020
0000
0230
0000
0000
,
0300
0000
1000
0002
0000
2003
0000
0000
,
3000
0000
0010
2000
0000
3200
0000
0000
,
1300
0002
0000
0023
0000
0032
0000
0103
,
2002
0000
0000
3000
0000
1003
0010
0200
,
0000
0000
0301
2000
0000
3020
0000
0130
,
0001
1000
0001
0000
0000
0010
0001
0200
,
0000
0320
0000
2030
0000
3002
0000
0013
,
0220
0000
0000
0300
0000
0031
1000
0200
,
0000
0000
1300
0002
0000
0023
0000
0031
,
1000
0200
0000
0000
1300
0020
0000
0230
,
0000
0302
0000
2003
0000
3100
0010
0001
,
0100
0000
0001
0010
0000
0001
1000
0000
,
0010
0000
1000
0100
0000
1000
0001
0000
,
0010
0000
0001
0100
0000
0010
2000
0000
,
3100
0020
0000
0032
0000
2003
0000
3001
,
0100
0000
0100
0010
0000
1000
0001
0000
,
0010
0000
0001
0100
0000
0010
1000
0000
,
0100
0000
1000
0001
0000
0010
0002
0000
,
0103
0020
0000
2030
0000
3100
1000
0001
,
0200
0000
0010
0010
0000
0000
0301
0000
,
1000
0001
0100
0000
0001
0010
0000
0200
,
0010
0000
0001
0001
0000
0000
1300
0000
,
0100
1000
0002
0000
1003
0010
0000
0100
,
0001
1000
0010
0200
0000
0000
0320
0000
,
1030
0100
1000
0000
0001
0100
0000
0010
,
1000
0001
0010
0100
0000
1000
0001
0000
,
0100
0010
1000
0010
1000
0001
0100
0001
,
0010
0000
1001
0100
0000
0001
2000
0000
,
3010
0000
1000
0001
0000
0010
0200
0000
,
0310
0000
0001
0100
0000
0010
2000
0000
,
3100
2000
0000
3002
0000
0203
0000
0310
,
1000
0000
1000
0010
0000
0100
0002
0000
,
0013
0000
0001
0100
0000
0001
2000
0000
,
3010
0000
0100
0010
0000
1000
0002
0000
,
0013
0002
0000
0203
0000
0320
0000
1030
,
0001
0000
0010
0001
0000
1000
0100
0000
,
2100
0000
3001
0000
2100
0000
3001
1000
,
0010
0100
0010
1000
0000
0001
0100
0001
,
0100
0000
0010
2000
0000
3200
0000
1300
,
0001
0000
1000
0001
0000
0010
0100
0000
,
0012
0000
1003
0000
0012
0000
1003
0010
,
0100
0010
1000
0001
0000
0010
0001
1000
,
0001
0000
0100
0020
0000
2030
0000
3001
,
0220
0000
0000
0000
,
0300
0000
0000
0000
,
0030
0000
0000
0000
;

//---------------dance-single - ----------------
#NOTES:
     dance-single:
     :
     Hard:
     11:
     :
0000
0000
0000
0000
,
0000
0000
0000
0000
,
0000
0000
0000
0000
,
0000
0000
0000
0000
,
0001
0000
1000
0100
0000
0010
0001
0100
,
0001
0000
0010
0100
0000
1000
0010
1000
,
0100
0000
1000
0020
0000
0230
0000
0302
,
0000
0000
0013
0002
0000
1003
0010
0100
,
0010
0000
1000
0001
0000
1000
0100
0010
,
0001
0100
0010
1000
0000
1000
0100
0010
,
0100
0000
0010
0001
0000
0100
0020
0000
,
1030
0001
0010
0200
0000
1300
1000
0010
,
1001
0000
0100
0001
0000
1000
0001
0010
,
0100
0000
1000
0020
0000
0230
0000
0301
,
0010
0100
1000
0010
0000
0100
0001
1000
,
0000
0010
1000
0100
0000
0010
0001
0100
,
0001
0010
0001
1000
0000
0100
1000
0010
,
0110
0000
0100
0001
0000
0010
0001
1000
,
0100
1000
0010
0100
0001
1000
0000
1010
,
0000
0000
0101
0000
0000
0000
0010
0000
0001
0000
0100
0000
1000
0000
0001
0100
,
0001
0010
0100
1000
0010
1000
0100
0000
,
0010
0001
1000
0001
0010
0100
1000
0000
,
0001
0100
0010
1000
0100
0010
0001
1000
,
0010
1000
0100
0010
0001
0100
0001
1000
,
0100
0000
0100
0010
0001
0100
0001
0000
,
0010
0001
0010
0100
1000
0001
0100
0010
,
1000
0000
1000
0001
0010
0100
1000
0000
,
0001
0100
1000
0010
0000
1000
0100
0010
,
0002
0100
0010
0103
,
0001
0010
1000
0010
0100
0010
0001
1000
,
0020
0100
1000
0130
,
1000
0100
0001
0100
0010
0100
1000
0001
,
0100
0010
1000
0002
0000
0013
0200
0000
,
1300
0000
0010
0000
0100
0000
1000
0000
0100
0000
0001
0000
0010
0000
0001
1000
,
0001
0100
0001
0010
0001
0100
1000
0000
,
0010
0000
1000
0000
0100
0000
0010
0000
0001
0000
0000
0000
0001
0100
0001
0100
,
0001
0000
1001
0010
1000
0100
0001
0000
,
0010
0001
0010
0100
1000
0010
1000
0100
,
0001
0000
0010
0001
0100
0010
1000
0000
,
1100
1000
0010
0100
0010
1000
0100
0010
,
0001
0000
1000
0010
0100
1000
0100
0001
,
0010
0001
1000
0100
0010
0100
1000
0001
,
0101
0000
0010
0001
0010
0100
1000
0000
,
0010
0000
1000
0000
0100
0000
0010
0000
0001
0000
0100
0000
0010
1000
0010
1000
,
0010
0000
0110
0001
0010
0100
1000
0001
,
2000
0010
0010
3010
0200
0001
0301
0010
,
0001
0100
0010
1000
0000
0100
1000
0001
,
0010
0000
0001
0000
0100
0000
0010
0000
0000
0000
1000
0000
0001
0000
1000
0100
,
1000
0000
1010
0010
1000
0100
0010
0001
,
0200
0010
0010
0310
2000
0001
3001
0010
,
0001
0100
0010
0101
0000
1000
0100
0001
,
0010
0000
0100
0000
0010
0000
0001
0000
1000
0100
1000
0100
1000
0000
0002
0000
,
0020
0000
0000
0000
,
0003
0000
0000
0000
,
0030
0000
0000
0000
;
