#TITLE:What is Love?;
#ARTIST:TOMOSUKE;
#BANNER:What is Love.png;
#BACKGROUND:What is Love-bg.png;
#JACKET:What is Love-jacket.png;
#MUSIC:What is Love.ogg;
#SAMPLESTART:38.79;
#SAMPLELENGTH:20;
#DISPLAYBPM:130;
#BPMS:0=130;
#BGCHANGES:;

//---------------dance-single - ----------------
#NOTES:
     dance-single:
     :
     Beginner:
     2:
     :
0000
0000
0000
0000
,
0000
0000
0000
0000
,
0000
0000
0000
0000
,
1000
0000
0000
0000
,
0001
0000
0010
0000
,
1000
0000
1000
0000
,
0001
0000
0001
0000
,
1000
0000
1000
0000
,
0001
0000
0001
0000
,
0100
0000
0010
0000
,
0010
0000
0100
0000
,
0100
0000
0010
0000
,
0010
0000
0100
0000
,
1001
0000
0010
0000
,
1001
0000
0100
0000
,
1001
0000
0010
0000
,
1001
0000
0010
0000
,
1000
0000
0001
0000
,
0001
0000
1000
0000
,
1000
0000
0001
0000
,
0001
0000
1000
0000
,
0010
0000
0100
0000
,
0010
0000
0100
0000
,
1000
0000
0001
0000
,
0010
0000
1000
0000
,
0100
0000
0010
0000
,
0100
0000
0010
0000
,
1000
0000
0001
0000
,
0001
0000
1000
0000
,
1001
0000
0010
0000
,
1000
0000
0010
0000
,
1001
0000
0010
0000
,
0001
0000
0010
0000
,
0010
0000
1000
0000
,
0100
0000
1000
0000
,
0010
0000
0100
0000
,
0100
0000
0010
0000
,
1000
0000
0010
0000
,
0001
0000
0010
0000
,
1000
0000
0010
0000
,
0001
0000
0010
0000
,
1000
0000
0000
0100
,
0000
1000
0000
0100
,
0000
1000
0000
1000
,
0000
0001
0000
0100
;

//---------------dance-single - ----------------
#NOTES:
     dance-single:
     :
     Easy:
     5:
     :
0000
0000
0000
0000
,
0000
0000
0000
0000
,
0000
0000
0000
0000
,
1000
0000
0000
0000
,
0001
0000
0010
0100
,
1000
0000
1000
0000
,
0001
0000
0001
0000
,
1000
0000
1000
0000
,
0001
0000
0001
0000
,
0200
0010
0310
0000
,
0020
0100
0130
0000
,
0200
0010
0310
0000
,
0020
0100
0130
0010
,
1001
0000
0010
0000
,
1001
0000
0100
0000
,
1001
0000
0010
0000
,
1001
0000
0010
0000
,
1000
1000
0001
0000
,
0001
0001
1000
0000
,
1000
1000
0001
0000
,
0001
0001
1000
0000
,
0020
0100
0130
0001
,
0020
0100
0130
0000
,
2000
0001
3001
0100
,
0020
1000
1030
0000
,
0200
0010
0310
0001
,
0200
0010
0310
0000
,
2000
0001
3001
0000
,
0002
1000
1003
0100
,
1001
0100
0010
0000
,
1000
0100
0010
0000
,
1001
0100
0010
0000
,
0001
0100
0010
0000
,
0010
0010
1000
0000
,
0100
0100
1000
0000
,
0010
0010
0100
0000
,
0100
0100
0010
0000
,
1000
1000
0010
0100
,
0001
0001
0010
0100
,
1000
1000
0010
0100
,
0001
0001
0010
0100
,
1000
1000
0000
0100
,
1000
1000
0000
0100
,
1002
1000
1000
1003
,
2001
0001
0000
3100
,
1001
0000
0000
0000
;

//---------------dance-single - ----------------
#NOTES:
     dance-single:
     :
     Medium:
     9:
     :
0000
0000
0000
0000
,
0000
0000
0000
0000
,
0000
0000
0000
0000
,
1000
0000
0000
0001
0100
0000
0000
0000
1000
0000
0000
0000
1000
0000
0000
0000
,
0001
0000
0000
1000
0010
0000
0000
0000
0100
0000
0000
0000
0000
0000
0000
0000
,
0100
0000
0001
0000
0100
0010
0100
0000
,
1000
0000
0010
0000
0100
0001
0100
0000
,
0010
0100
0010
0100
0001
1000
0100
0000
,
1000
0001
1000
0001
0010
0100
1000
0000
,
0001
0000
1000
0000
0100
0010
0001
0000
,
0100
0000
0010
0000
1000
0100
0001
0000
,
0010
0100
0010
0100
1000
0001
0100
0000
,
1000
0010
1000
0010
0100
0001
0101
0000
,
0100
0000
1000
0000
0100
0010
0100
0000
,
0001
0000
0010
0000
0100
1000
0100
0000
,
0010
0100
0010
0100
1000
0001
0100
0000
,
0001
1000
0001
1000
0010
0100
0001
0000
,
1000
0000
0001
0000
0100
0010
1000
0000
,
0100
0000
0010
0000
0001
0100
1000
0000
,
0010
0100
0010
0100
0001
1000
0100
0000
,
0001
0010
0001
0010
0100
1000
1100
0000
,
0001
0010
0100
0002
0003
0010
0200
0000
,
0010
1000
0010
1300
,
1000
0100
0010
0002
0003
0100
0020
0000
,
1000
0100
1000
0130
,
0001
1000
0100
0020
0030
0001
2000
0000
,
0001
0010
0001
3010
,
0100
0001
1000
0020
0030
0100
2002
0000
,
0000
0000
0000
3003
0000
0000
0010
0100
0010
0100
0000
0000
,
0010
0000
0001
0000
1000
0100
0000
0000
,
0100
0000
1000
0000
0001
0100
0000
0000
,
1010
0000
0001
0000
0100
0010
0000
0000
,
0101
0000
1000
0000
0010
0100
0000
0000
,
0002
0000
0000
0000
0100
0000
0000
0000
0003
0000
1000
0000
0000
0100
0000
0000
,
0200
0000
0000
0000
0010
0000
0000
0000
0300
0000
0001
0000
0000
0010
0000
0000
,
0020
0000
0000
0000
0100
0000
0000
0000
0030
0000
1000
0000
0000
0001
0000
0000
,
2000
0000
0000
0000
0010
0000
0000
0000
3000
0000
0100
0000
0000
0001
0000
0000
,
1000
0000
0100
0000
0010
0000
0000
0000
0001
0000
0000
0001
0000
0000
0001
0000
,
1000
0000
0010
0000
0100
0000
0000
0000
0010
0000
0000
0010
0000
0000
0010
0000
,
1000
0000
0001
0000
0100
0000
0000
0000
0101
0000
0000
0001
0000
0000
0001
0000
,
1000
0000
0010
0000
0100
0000
0000
0000
0101
0000
0000
0100
0000
0000
0100
0000
,
0010
0000
1000
0000
0100
0000
0000
0000
1001
0000
0000
1000
0000
0000
1000
0000
,
0001
0000
0100
0000
0010
0000
0000
0000
1010
0000
0000
0010
0000
0000
0010
0000
,
1000
0000
0001
0000
0100
0000
0000
0000
0101
0000
0000
0100
0000
0000
0100
0000
,
0010
0000
1000
0000
0110
0000
0000
0000
1001
0000
0000
1100
0000
0000
0101
0000
;

//---------------dance-single - ----------------
#NOTES:
     dance-single:
     :
     Hard:
     11:
     :
0000
0000
0000
0000
,
0000
0000
0000
0000
,
0000
0000
0000
0000
,
0001
0000
0000
0010
0100
0000
0000
0000
1000
0000
0001
0000
0100
0000
0010
0000
,
1000
0000
0000
0100
0010
0000
0000
0000
1001
0000
0000
1000
0001
0000
1000
0000
,
0001
0000
0010
0100
1000
0001
0100
0000
,
1000
0000
0100
0010
0001
0100
1000
0000
,
0010
1000
0100
1000
0100
0010
0001
0100
,
0010
0000
1000
0000
0010
0000
0100
0000
0001
0000
0000
1000
0100
0000
1000
0000
,
0001
0000
0010
0100
1000
0001
0101
0000
,
1000
0000
0001
1000
0010
1000
1100
0000
,
0010
0001
0100
0010
1000
0001
1000
0100
,
0010
0000
0001
0000
0010
0000
0100
0000
1000
0000
0000
0001
1000
0000
0010
0000
,
2000
0000
3010
0100
0001
1000
0100
0000
,
0002
0000
0103
0010
1000
0100
0001
0000
,
0010
0001
0100
0001
0100
0010
1000
0100
,
0010
0000
0001
0000
0010
0000
0100
0000
1000
0000
0000
0001
0100
0000
0001
0000
,
2000
0000
3010
0100
0001
1000
1100
0000
,
0020
0000
1030
0001
0010
0001
0101
0000
,
0010
1000
0100
0010
0001
1000
0001
0100
,
0010
1000
0010
0100
0001
1000
0101
0000
,
0001
0100
0001
0101
0000
1000
1100
0000
,
1000
0000
0000
0100
1000
0000
0000
0000
0001
0000
0000
1000
0100
0000
0000
0000
,
0101
0010
1000
1100
0000
0010
0101
0000
,
0001
0000
0000
0100
0001
0000
0000
0000
1000
0000
0000
0100
0010
0000
0000
0000
,
1000
0100
1000
1100
0000
0001
0101
0000
,
0001
0000
0000
0100
0001
0000
0000
0000
1000
0000
0000
0001
0100
0000
0000
0000
,
1100
0010
0001
0101
0000
0010
1100
0000
,
1000
0000
0000
0000
0000
0000
0000
0000
0000
0100
0000
0000
1000
0000
0000
0000
0000
0000
0000
0000
0000
0000
0000
0000
0001
0000
0000
0000
1000
0000
0000
0000
0001
0000
0000
0000
1000
0000
0000
0000
0000
0000
0000
0000
0000
0000
0000
0000
,
0001
0000
0101
0100
0010
1000
0000
0100
,
1000
0000
1010
0001
0010
0100
0000
0010
,
0011
0000
1001
0100
0101
0010
0000
1000
,
0101
0000
1001
0010
1010
0100
0000
0001
,
0000
0000
0010
0000
1000
0000
0000
0000
0001
0000
1000
0000
0000
0100
0000
0000
,
0000
0000
0010
0000
0100
0000
0000
0000
1000
0000
0001
0000
0000
0100
0000
0000
,
0000
0000
0010
0000
0001
0000
0000
0000
0010
0000
0100
0000
0000
1000
0000
0000
,
0000
0000
0100
0000
0010
0000
0000
0000
0001
0000
0100
0000
0000
0001
0000
0000
,
1000
0100
1000
0000
0001
0000
0000
0000
0010
0000
0000
0100
0000
0000
1000
0000
,
0001
0100
0001
0000
1000
0000
0000
0000
0010
0000
0000
0100
0000
0000
0001
0000
,
1000
0010
1000
0000
0001
0000
0000
0000
1000
0000
0000
1001
0000
0000
0010
0000
,
0001
0100
0001
0000
0100
0000
0000
0000
0010
0000
0000
1010
0000
0000
0001
0000
,
0100
0001
1000
0000
0100
0000
0000
0000
1001
0000
0000
0001
0000
0000
0100
0000
,
0010
1000
0100
0000
1000
0000
0000
0000
0110
0000
0000
0100
0000
0000
0001
0000
,
0010
0001
1000
0000
0010
0000
0000
0000
1100
0000
0000
0101
0000
0000
1100
0000
,
0010
0001
1000
0000
0010
0000
0000
0000
0101
0000
0000
0011
0000
0000
1001
0000
;

//---------------dance-single - ----------------
#NOTES:
     dance-single:
     :
     Challenge:
     13:
     :
0000
0000
0000
0000
,
0000
0000
0000
0000
,
0000
0000
0000
0000
,
0001
0000
0000
0010
0100
0000
2000
0001
0000
0000
3100
0010
0000
0001
1000
0000
,
0010
0000
0000
1000
0001
0000
0100
0010
0100
0000
0000
0001
1000
0000
1100
0000
,
0101
0000
0000
0010
1000
0000
0100
0020
0000
0000
0031
0100
0000
0001
1000
0000
,
0100
0000
0000
0010
0001
0000
1000
0002
0000
0000
1003
0100
0000
0010
0001
0000
,
0100
0000
0000
0010
0100
0000
0001
2000
0000
0000
3100
1000
0000
0001
0010
0000
,
0001
0000
0000
0100
0010
0000
1000
0100
1000
0000
0000
0001
0010
0000
0011
0000
,
1010
0000
0000
0100
0010
0000
0001
1000
0001
0000
1000
0100
0000
0010
0001
0000
,
0100
0000
0000
0001
1000
0000
0010
0100
0010
0000
1000
0100
0000
0010
0001
0000
,
1000
0000
0000
0010
0100
0000
0001
1000
0001
0000
0100
0010
0000
0010
1000
0000
,
0100
0000
0000
0010
0001
0000
1000
0001
1000
0000
0000
0010
0100
0000
0110
0000
,
1002
0000
0000
0000
1003
0010
0000
0100
0000
0010
0000
1000
0001
0000
0100
0000
,
0020
0000
0000
0000
1030
0001
0000
0100
0000
0010
0000
0100
0001
0000
1000
0000
,
0002
0000
0000
0000
1003
0100
0000
1000
0000
0010
0000
0100
0001
0000
0010
0000
,
0200
0000
0000
0000
1300
0010
0000
1000
0000
0001
0000
0010
0100
0000
1100
0000
,
0011
0000
0000
1000
0010
0100
0000
0001
0000
0010
0000
0001
1000
0000
0100
0000
,
0010
0000
0000
0001
0100
0001
0000
1000
0000
0010
0000
0100
0001
0000
1000
0000
,
0100
0000
0000
0010
0001
0010
0000
0100
0000
1000
0000
0100
1000
0000
0001
0000
,
0010
0000
0000
0001
1000
0001
0000
0010
0000
1000
0000
0100
1000
0000
0100
0000
,
1000
0010
0100
0002
0000
1003
0002
0000
,
1003
0010
0000
0000
1000
0010
0000
0000
0100
0001
0000
0000
0100
0001
0000
0000
,
0010
0001
1000
0200
0000
0310
0200
0000
,
1300
0010
1000
0010
1000
0000
0000
0000
0001
0010
0001
0010
0001
0000
0000
0000
,
0100
0001
0010
2000
0000
3100
2000
0000
,
3001
0100
0001
0100
0001
0000
0000
0000
1000
0100
1000
0100
1000
0000
0000
0000
,
0100
1000
0001
0020
0000
1030
0020
0000
,
0031
0000
0000
0100
0000
0000
0010
0000
0000
0000
0000
0000
1000
0000
0100
0000
0010
0000
0001
0000
0000
1000
0000
0000
,
1000
0000
0010
0100
0000
0101
0000
0101
0000
0000
0010
0100
0000
0100
0000
1000
,
0001
0100
0001
0100
0001
0100
0000
0000
0010
1000
0010
1000
0000
1000
0000
0000
,
0101
0000
0000
0010
0001
1000
0000
0001
0000
0000
0100
0010
0000
0010
0001
0000
,
0011
0000
0000
0110
0000
0000
1100
0000
0000
0110
0000
0000
0011
0000
0000
0000
,
1001
0000
0000
0100
0010
0000
0000
1000
0000
1000
0001
0000
1000
0001
0000
0000
,
0200
0000
0000
0310
0100
0000
0001
1000
0000
1000
0010
0000
1000
0010
0000
0100
,
0002
0000
0000
1003
0001
0000
1000
0100
0000
0100
0010
0000
0010
0001
0000
0100
,
0001
0000
0000
0000
0001
0100
0000
0010
0000
1000
0001
0000
0100
0010
0000
0000
,
0110
0000
0100
0000
0001
0000
0010
0001
0000
0001
1000
0000
1000
0010
0000
0000
,
1000
0100
1000
0000
0001
0000
0000
0000
0020
0000
0000
0032
0000
0000
2003
0000
,
0000
3010
1000
0000
0100
0000
0000
0000
2000
0000
0000
3002
0000
0000
0023
0000
,
0000
0031
0100
0000
0010
0000
0000
0000
1000
0000
0100
1000
0000
0001
0010
0000
,
0001
0100
0010
0000
0010
0000
0000
0000
1000
0000
0100
1000
0000
1000
0001
0000
,
0010
0001
1000
0000
1000
0000
0000
0000
0010
0000
0100
0001
0000
0001
1000
0000
,
0100
1000
0010
0000
0010
0000
0000
0000
0100
0000
0001
0010
0000
0001
1000
0000
,
0001
1000
0100
0000
0100
0000
0000
0000
0010
0000
0100
1000
0000
0010
0100
0000
,
0001
0000
0000
0000
;

//---------------dance-double - ----------------
#NOTES:
     dance-double:
     :
     Easy:
     5:
     :
00000000
00000000
00000000
00000000
,
00000000
00000000
00000000
00000000
,
00000000
00000000
00000000
00000000
,
10000000
00000000
00000000
00000000
,
00010000
00000000
00100000
01000000
,
20000000
00000000
31000000
00000000
,
00100000
00000000
00001000
00000000
,
00010000
00000000
00000100
00000000
,
00001000
00000000
00000001
00000000
,
00000020
00000100
00000031
00000000
,
00001000
00000100
00010000
00000000
,
00001000
00010000
00000100
00000000
,
00000010
00000100
00001001
00000010
,
00020000
00000000
00031000
00000000
,
00100000
00000000
01000000
00000000
,
10010000
00000000
01000000
00000000
,
00011000
00000000
00000010
00000000
,
00002000
00000001
00003100
00000000
,
00001000
00000100
00000010
00000000
,
00000010
00000001
00000100
00000000
,
00000010
00001000
00000001
00000000
,
00000010
00000100
00010000
00001000
,
00100000
01000000
00100000
00000000
,
00010000
10000000
01000000
00100000
,
00001000
00010000
00000100
00000000
,
00000010
00000100
00001000
00000001
,
00000100
00000010
00010000
00000000
,
00001000
01000000
00100000
00000000
,
10000000
00010000
10000000
01000000
,
10010000
01000000
00100000
00001000
,
00000000
00010000
00000010
00000000
,
00001000
00001001
00000100
00000000
,
00010000
00001000
01000000
00000000
,
00020000
10000000
00100000
00000000
,
01030000
00010000
00010000
00000000
,
10000000
01000000
00100000
00000000
,
00001000
00010000
00000010
00000000
,
00001000
00001000
00000010
00000100
,
00000001
00001000
00000010
00000100
,
00000001
00000001
00000010
00000100
,
00001000
00001000
00000010
00000100
,
00001020
00000100
00000000
00000100
,
00010030
00001000
00000000
01000000
,
00010000
00010000
00010000
00010000
,
10000000
10000000
00000000
01000000
,
10010000
00000000
00000000
00000000
;

//---------------dance-double - ----------------
#NOTES:
     dance-double:
     :
     Medium:
     8:
     :
00000000
00000000
00000000
00000000
,
00000000
00000000
00000000
00000000
,
00000000
00000000
00000000
00000000
,
10000000
00000000
00000000
00000000
,
00010000
00000000
00100000
01000000
,
10000000
10000000
10000000
00000000
,
00010000
00100000
00001000
00000000
,
00010000
00000100
00001000
00000000
,
00000001
00000001
00000001
00000000
,
00000100
00000001
00001000
00000100
,
00000010
00000100
00010000
00001000
,
00100000
00010000
01000000
10010000
,
00100000
01000000
10010000
00100000
,
00001000
00000000
00010000
00000100
,
00001100
00000000
00000001
00000010
,
00001100
00000000
00011000
00100000
,
01000000
00000000
10010000
00100000
,
01000000
00001000
00010000
00000100
,
00001100
00000001
00001000
00000110
,
00001000
00001000
00000010
00010000
,
00011000
01000000
00100000
10010000
,
10100000
00000000
01000000
10000000
00100000
00000000
10000000
00000000
,
10020000
01000000
00100000
01030000
,
00001000
00000000
00010000
00001010
,
00000102
00001000
00000100
00001003
,
00001100
00000000
00010000
00001000
01000000
00000000
00010000
00000000
,
21000000
00010000
00100000
30010000
,
01000000
00000000
00001000
00010000
00000100
00000000
00001000
00000000
,
00000012
00000000
00000100
00000000
00001000
00001000
00001003
00000000
,
00000010
00001000
00000000
00001000
00000100
00001000
00000000
00000010
,
00000000
00010000
00001000
00010000
00000000
00000100
00001000
00000100
,
00000010
00000001
00000000
00001000
00000010
00001000
00000000
00000001
,
00000000
00001000
00000100
00001000
00000000
00000001
00000100
00000001
,
00001000
00000100
00010000
00000000
,
00011000
00100000
01000000
00000000
,
01100000
10000000
10010000
00000000
,
00010000
00100000
00011000
00000000
,
00000020
00001000
00001000
00000130
,
00000001
00000001
00000010
00000100
,
00010000
00001000
00100000
01000000
,
10000000
00010000
00100000
01000000
,
20000000
01000000
01000000
00000000
00010000
00010000
30000000
00000000
,
01000000
00010000
01000000
00000000
00001000
00010000
00001000
00010000
,
00000000
00000100
00001000
00000000
00000010
00000000
00001001
00000000
,
00000000
00000100
00000000
00000100
00000000
00000000
00000100
00000000
,
00000001
00000000
00000000
00000000
;

//---------------dance-double - ----------------
#NOTES:
     dance-double:
     :
     Hard:
     10:
     :
00000000
00000000
00000000
00000000
,
00000000
00000000
00000000
00000000
,
00000000
00000000
00000000
00000000
,
10000000
00010000
00100000
00000000
,
00010000
10000000
01000000
00000000
,
20000000
01000000
01000000
01000000
01000000
00000000
30000000
00000000
,
00010000
00100000
00001000
00010000
00000100
00000000
00000000
00000000
,
00001000
00000010
00010000
00001000
00100000
00000000
00000000
00000000
,
00010000
10000000
00010000
10000000
00010000
00000000
01000000
00000000
,
01200000
01000000
01000000
00000000
10000000
00000000
10300000
00000000
,
00010000
01010000
01000000
00000000
00001000
00000000
00011000
00000000
,
00000010
00001000
00000100
00000000
00010000
00000000
00001000
00000000
,
00100000
00010000
01000000
00000000
00100000
00000000
00100000
00000000
,
10020000
10000000
00000000
00000000
01000000
01000000
01030000
00000000
,
10010000
00010000
00000000
00000000
10000000
00010000
01000000
00000000
,
01010000
01000000
00000000
00000000
00001000
00010000
00000100
00000000
,
00000010
00000001
00000000
00000000
00001000
00000100
00000100
00000000
,
00021000
00001000
00001000
00001000
00001000
00000000
00031000
00000000
,
01000000
00010000
01000000
00100000
10000000
00000000
01100000
00000000
,
10000000
01000000
00100000
00010000
00100000
00000000
00011000
00000000
,
00000100
00000010
00000001
00000010
00000100
00000000
00001000
00000000
,
00001100
00000000
00000100
00010000
00011000
00000000
01000000
00000000
,
01010000
00000000
10000000
00010000
00100000
00001000
00010000
00000000
,
00000010
00000000
00001000
00000100
00010000
00000000
00001000
00000000
,
00110000
01000000
10000000
01000000
00100000
00000000
00001000
00000000
,
00011000
00000000
00000010
00001000
00000100
00000000
00011000
00000000
,
00100000
01000000
10000000
00010000
00100000
00000000
00001000
00000000
,
00010000
00000000
00000010
00001000
00000100
00000000
00010000
00000000
,
00011000
00000000
00110000
00000000
10000000
01000000
00100000
00000000
,
00001000
00010000
00000010
00001000
00000001
00001000
00000100
00010000
,
00001000
00100000
01000000
10000000
00100000
10000000
01000000
00100000
,
00001000
00010000
00000100
00001000
00000001
00001000
00000010
00001000
,
00000100
00010000
00001000
00100000
01000000
10000000
01000000
00100000
,
00001000
00010000
00000100
00000000
00001100
00000000
00000010
00000000
,
00010000
00001000
00100000
00000000
01000000
00000000
01100000
00000000
,
10000000
01000000
10000000
00000000
01100000
00000000
10010000
00000000
,
10000000
00010000
10000000
00000000
01000000
00000000
00100000
00000000
,
00002000
00010000
00010000
00000000
00010000
00000000
00013000
00000000
,
00000010
00001000
00000010
00000000
00001001
00000000
00000100
00000000
,
00001000
00000001
00001000
00000000
00000101
00000000
00000010
00000000
,
00010000
00011000
00100000
01000000
,
10010000
00010000
10000000
01000000
00100000
00000000
00001000
00000000
,
00010000
00011000
00000000
00000000
00000100
00000010
00000100
00000000
,
00000010
00000001
00001000
00000000
00001001
00000000
00001100
00000000
,
00010000
00001000
00100000
01000000
00000000
00000000
10000000
00000000
,
10010000
00000000
00000000
00000000
;
