#TITLE:What Will Come of Me;
#ARTIST:Black Rose Garden;
#BANNER:What Will come of Me.png;
#BACKGROUND:What Will Come of Me-bg.png;
#JACKET:What Will Come of Me-jacket.png;
#MUSIC:What Will Come of Me.ogg;
#SAMPLESTART:44.58;
#SAMPLELENGTH:20;
#DISPLAYBPM:140;
#BPMS:0=138.9,4=140;
#BGCHANGES:;

//---------------dance-single - ----------------
#NOTES:
     dance-single:
     :
     Beginner:
     2:
     :
0000
0000
0000
0000
,
0000
0000
0000
0000
,
0000
0000
0000
0000
,
0000
0000
0000
0000
,
0000
0000
0000
0000
,
0000
0000
0000
0000
,
0000
0000
0000
0000
,
0000
0000
0000
0000
,
0000
0000
0000
0000
,
0000
0000
0000
0000
,
0001
0000
0000
0000
,
1000
0000
0000
0000
,
0001
0000
0000
0000
,
1000
0000
0000
0000
,
0010
0000
0000
0000
,
0010
0000
0000
0000
,
0001
0000
0000
0000
,
0010
0000
0000
0000
,
0001
0000
0001
0000
,
1000
0000
0000
0000
,
0001
0000
0001
0000
,
1000
0000
0000
0000
,
0001
0000
0000
0000
,
0010
0000
0000
0000
,
1000
0000
0000
0000
,
0100
0000
0000
0000
,
0001
0000
0001
0000
,
0001
0000
0000
0000
,
1000
0000
1000
0000
,
0001
0000
0000
0000
,
0010
0000
0000
0000
,
0100
0000
0000
0000
,
0010
0000
0000
0000
,
0000
0000
0000
0000
,
1000
1000
0000
0000
,
1000
1000
0000
0000
,
0010
0000
0000
0000
,
0001
0000
0000
0000
,
1000
1000
0000
0000
,
1000
1000
0000
0000
,
0010
0000
0000
0000
,
0010
0000
0000
0000
,
0001
0001
0000
0000
,
0001
0001
0000
0000
,
0010
0000
0000
0000
,
1000
0000
0000
0000
,
0001
0001
0000
0000
,
1000
1000
0000
0000
,
0010
0000
0000
0000
,
0000
0000
0000
0000
,
1000
1000
1000
0000
,
0000
0000
0000
0000
,
0001
0001
0001
0000
,
0000
0000
0000
0000
,
1000
0000
0010
0000
,
0001
0000
0010
0000
,
1000
0000
0010
0000
,
0001
0000
0010
0000
,
1000
0000
0000
0000
,
0001
0000
0000
0000
,
0100
0000
0000
0000
,
0000
0000
0000
0000
,
1001
0000
0000
0000
,
0000
0000
0000
0000
;

//---------------dance-single - ----------------
#NOTES:
     dance-single:
     :
     Easy:
     4:
     :
0000
0000
0000
0000
,
0000
0000
0000
0000
,
0000
0000
0000
0000
,
0000
0000
0000
0000
,
0000
0000
0000
0000
,
0000
0000
0000
0000
,
0000
0000
0000
0000
,
0000
0000
0000
0000
,
0000
0000
0000
0000
,
0000
0000
0000
0000
,
0001
0000
0001
0000
,
1000
0000
1000
0000
,
0001
0000
0001
0000
,
1000
0000
1000
0000
,
0010
0000
0001
0000
,
1000
0000
0000
0000
,
1000
0000
0001
0000
,
0010
0000
1000
0000
,
1000
0000
1000
0000
,
0001
1000
0001
0000
,
1000
0000
1000
0000
,
0001
1000
0001
0000
,
0010
0000
1000
0000
,
0001
0000
0000
0000
,
0001
0000
0001
0000
,
0100
0100
0100
0000
,
0001
0000
1000
0000
,
0001
0000
0000
0000
,
0001
0000
1000
0000
,
0010
0000
0000
0000
,
0010
0000
0001
0000
,
1000
0000
0001
0000
,
0010
0000
1000
0000
,
0010
0000
0000
0000
,
0001
1000
0001
1000
,
0001
0000
0000
0000
,
0001
0000
0010
0000
,
0010
0000
0000
0000
,
1000
0001
1000
0001
,
1000
0000
0000
0000
,
0010
0000
0010
0000
,
0010
0000
0000
0000
,
1000
0001
1000
0001
,
1000
0000
0000
0000
,
1000
0000
0010
0000
,
0010
0000
0000
0000
,
0001
1000
0001
1000
,
0001
0000
0000
0000
,
0010
1000
0010
0000
,
0001
0100
0001
0000
,
1000
1000
1000
0000
,
0100
0000
0000
0000
,
0001
0001
0001
0000
,
0100
0000
0000
0000
,
1000
0000
0001
0010
,
0001
0000
1000
0000
,
0001
0000
1000
0010
,
1000
0000
0001
0000
,
1000
0000
0000
0000
,
0010
0000
0000
0000
,
0200
0000
0000
0000
,
0000
0000
0300
0000
,
2002
0000
0000
0000
,
0000
0000
0000
0000
,
0000
0000
0000
3003
,
0000
0000
0000
0000
;

//---------------dance-single - ----------------
#NOTES:
     dance-single:
     :
     Medium:
     6:
     :
0000
0000
0000
0000
,
0000
0000
0000
0000
,
0000
0000
0000
0000
,
0000
0000
0000
0000
,
0000
0000
0000
0000
,
0000
0000
0000
0000
,
0000
0000
0000
0000
,
0000
0000
0000
0000
,
0000
0000
0000
0000
,
0000
0000
0000
0000
,
0001
0100
0010
1000
,
1000
0001
0001
0100
,
1000
0100
0010
0001
,
0001
1000
1000
0100
,
0010
0001
0100
0000
,
0010
0100
0010
0000
,
1000
0010
0001
0100
,
0100
0000
0000
0010
0000
0000
0110
0000
,
0001
0000
0100
0000
0001
0000
1000
0100
,
1000
0001
0001
0100
,
1000
0000
0100
0000
1000
0000
0001
0100
,
0001
1000
1000
0100
,
0010
0000
0001
0000
0100
0000
1000
0001
,
0010
0100
0010
0100
,
1000
0001
0100
0010
,
1000
0000
0000
0001
0000
0000
1001
0000
,
0010
1000
0010
0100
,
0001
0010
0100
0100
,
0010
0001
1000
0010
,
0010
1000
1000
0000
,
0010
0001
0100
0001
,
1000
0010
0100
1000
,
0001
1000
1000
0100
,
0010
0000
0001
0001
,
0001
0100
0010
0010
,
1000
0100
0010
1100
,
0010
0100
0011
0100
,
1000
1000
0010
0000
,
0001
0100
0001
0010
,
1000
0100
0001
1100
,
0010
1000
0010
1000
,
0001
0000
0000
0010
0000
0000
0100
0000
,
1000
0000
0100
0000
0010
0100
0100
0000
,
0001
0100
0001
0101
,
0010
0100
1010
0100
,
0001
0010
0010
0000
,
1000
0000
0100
0000
1000
0010
0100
0000
,
0001
0101
1000
0101
,
0010
0001
1000
0010
,
1000
0000
0000
0010
0000
0000
0100
0000
,
0001
0000
0001
0001
0001
0000
0000
0010
,
0000
0000
0010
0000
0000
0000
1000
0001
,
1000
0000
1000
1000
1000
0000
0000
0010
,
0000
0010
0000
0000
,
1000
1010
0001
0010
,
1000
1100
0010
0100
,
0001
0011
1000
0010
,
0001
0101
0010
0100
,
0002
0000
0000
0000
,
0020
0000
0000
0003
,
0200
0000
0000
0030
,
0000
0000
0000
0300
,
2002
0000
0000
0000
,
0000
0000
0000
0000
,
0000
0000
0000
3003
,
0000
0000
0000
0000
;

//---------------dance-single - ----------------
#NOTES:
     dance-single:
     :
     Hard:
     13:
     :
0000
0000
0000
0000
,
0000
0000
0000
0000
,
0000
0000
0000
0000
,
0000
0000
0000
0000
,
0000
0000
0000
0000
,
0000
0000
0000
0000
,
0000
0000
0000
0000
,
0000
0000
0000
0000
,
0000
0000
0000
0000
,
0000
0000
0000
0000
,
1000
0100
1000
0100
0010
1000
0100
0001
,
1000
0000
0001
0100
0110
0000
1000
0001
,
0001
0100
0001
0100
0010
0001
0100
1000
,
0001
0000
1000
0100
0110
0000
0001
1000
,
0010
0100
0010
0100
0000
0001
0000
0001
,
1000
0100
0010
0001
0100
0000
0100
0000
,
0001
0100
0010
0000
1000
0010
0100
0000
,
0001
0001
0010
0100
0000
0010
0110
0000
,
1000
0000
0100
0000
1000
0010
0100
0000
0010
0000
1000
0000
0100
0000
0001
0000
,
1000
0010
0001
0100
0110
0000
1000
0001
,
0001
0000
0100
0000
0001
0010
0100
0000
0010
0000
0001
0000
0100
0000
1000
0000
,
0001
0010
1000
0100
0110
0000
0001
1000
,
0010
0100
0000
0100
0000
0001
0000
0001
,
1000
0100
0000
0001
0100
0000
0100
0000
,
1000
0010
0100
0001
0000
1000
0010
0000
,
1000
1100
0000
0001
0101
0100
0110
0000
,
0010
0000
1000
0000
0001
0000
0010
0100
1000
0000
0010
0000
0100
0000
0001
0000
,
0010
0000
0100
0000
1000
0001
1000
0000
0010
0000
0100
0000
0010
0000
0000
0000
,
0100
1000
0001
0100
0001
0010
1000
0100
,
1000
0000
0001
0100
0001
0000
1000
0100
1000
0000
0001
0000
1001
0000
0000
0000
,
0010
0000
0100
0000
0001
0000
1000
0010
0100
0000
0010
0000
0000
0000
0100
0000
,
0001
0000
0010
0000
0001
1000
0100
0000
1000
0000
0010
0000
1000
0000
0100
0000
,
0010
0100
0000
1000
0010
0100
0010
0100
,
0001
0000
1000
0100
,
0001
0000
0010
0000
0100
0000
1000
0010
0100
0000
1000
0000
0100
0000
0010
0000
,
0100
0000
0001
0000
0000
0000
0001
0000
0011
0000
0000
0000
0100
0000
1000
0100
,
1000
0000
0010
0100
0001
1000
0010
0100
,
0001
0000
0001
0000
0010
0000
0010
0000
0001
0000
0100
0000
0101
0000
0000
1000
,
0001
0000
0010
0000
0100
0000
1000
0010
0100
0000
0001
0000
0100
0000
0010
0000
,
0100
0000
0001
0000
0000
0000
0001
0000
0011
0000
0000
0000
0100
0000
1000
0100
,
1000
0100
0010
0011
0000
1000
0010
0110
,
0000
0000
0000
0101
0000
0000
0000
0000
0000
0010
0000
0000
1000
0000
0100
0000
0010
0000
0001
0000
0010
0000
0100
0000
,
1000
0000
0010
0000
0100
0010
0001
0010
0100
0000
0001
0000
0100
0000
0010
0000
,
0100
0000
0001
0000
0000
0000
1000
0000
1010
0000
0000
0000
0100
0000
0001
0100
,
0001
0000
0010
0100
1000
0001
0010
0001
,
1000
0000
1000
0000
0010
0000
0010
0000
1000
0000
0100
0000
1100
0000
0000
0010
,
1000
0000
0010
0000
0100
0000
0001
0010
0100
0000
0001
0000
0100
0000
0010
0000
,
0100
0000
1000
0000
0000
0000
1000
0000
1010
0000
0000
0000
0100
0000
0001
0010
,
0100
0010
0000
0001
0100
1000
0100
0001
,
0010
0001
0100
0001
1000
0100
0010
0001
0100
0010
0000
0000
,
1000
0100
1000
0100
1000
0100
1000
0100
1000
0000
0001
0000
0010
0000
0100
1000
,
0100
1000
0100
1000
0100
1000
0100
0000
1000
0000
0010
0000
0100
0000
0000
0000
,
0001
0100
0001
0100
0001
0100
0001
0100
0001
0000
1000
0000
0010
0000
1000
0001
,
0100
0001
0100
0001
0100
0001
0100
0000
0001
0000
0010
0000
0110
0000
0000
0000
,
1000
0000
0102
0000
0010
0000
0103
0010
,
1000
0020
0100
0030
0001
0010
1000
0100
,
0001
0000
2100
0000
0010
0000
3100
1000
,
0001
0000
0000
0020
0000
0000
0100
0000
0000
0030
0000
0000
1000
0000
0010
0000
0100
0000
0001
0000
1000
0000
0010
0000
,
0200
0000
0000
0000
,
0020
0000
0000
0300
,
0002
0000
0000
0030
,
0200
0000
0000
0303
,
2002
0000
0000
0000
,
0000
0000
0000
0000
,
0000
0000
0000
3003
,
0000
0000
0000
0000
;

//---------------dance-single - ----------------
#NOTES:
     dance-single:
     :
     Challenge:
     17:
     :
0000
0000
0000
0000
,
0000
0000
0000
0000
,
0000
0000
0000
0000
,
0000
0000
0000
0000
,
0000
0000
0000
0000
,
0000
0000
0000
0000
,
0000
0000
0000
0000
,
0000
0000
0000
0000
,
0000
0000
0000
0000
,
0000
0000
0000
0000
,
1001
0001
0010
0100
1000
0000
0010
0101
,
0000
0000
1100
0000
0000
0000
0001
0000
0012
0000
0000
0000
1003
0100
1000
0100
,
1000
0010
0100
0001
0010
0000
0100
0110
,
0000
0000
0011
0000
0000
0000
1000
0000
2010
0000
0000
0000
3001
0010
0001
0010
,
0001
0100
0010
1000
0100
0000
0010
0011
,
0000
0000
1001
0000
0000
0000
0010
0000
0120
0000
0000
0000
1030
0010
1000
0010
,
1000
0100
0010
0001
0000
0100
0001
1000
,
0010
0000
0000
0000
0000
0000
0100
0000
0000
0000
0000
0000
0001
0000
0000
1000
0000
0000
0001
0000
0000
0000
0000
0000
0010
0000
0000
0000
0000
0000
0010
0000
0000
0000
0000
0000
0001
0000
0000
1000
0000
0000
0001
0000
0100
0000
0001
0000
,
0100
0000
0010
0000
0010
1000
0001
0000
0101
0000
1010
0000
0010
0000
2000
0000
,
0000
0000
3100
0000
0000
0000
1000
0000
2001
0000
0000
0000
3001
0100
0001
0100
,
0001
0010
0001
1000
0010
0100
0110
1001
,
0010
0000
0101
0000
0000
0000
1000
0000
1200
0000
0000
0000
0310
0100
0010
0100
,
0010
0001
0100
0010
1000
0100
1100
0011
,
0100
0000
0010
0000
1000
0000
0001
0000
2010
0000
0000
0000
3001
1000
0001
1000
,
0001
0010
0100
0010
0001
0100
0010
1000
,
0100
0000
0000
0000
0000
0000
1000
0000
0000
0000
0000
0000
0001
0000
0000
0000
0000
0000
0100
0000
0000
0000
0000
0000
0001
0000
0010
0000
0001
0000
0010
0000
0000
0000
0000
0000
0001
0000
0000
1000
0000
0000
0010
0000
0000
0100
0000
0000
,
0001
0000
0000
0100
0000
0000
0100
0000
0000
0010
1000
0010
1000
0000
0000
0001
0000
0000
0010
0000
0000
0100
0000
0000
,
1000
0000
0010
0000
0100
0001
0010
0000
0100
0000
1000
0000
0001
0000
0100
0000
,
0010
0010
0010
1000
0101
0001
0010
0100
,
1000
0000
0000
0000
0000
0000
0010
0000
0000
0100
0000
0000
0001
0000
0000
0000
0000
0000
1000
0000
0100
0000
1000
0000
0100
0000
0000
0000
0000
0000
1001
0000
0000
0000
0000
0000
0120
0000
0000
0000
0000
0000
1000
0000
0000
0000
0000
0000
,
1030
0000
0000
0001
0000
0000
0010
0000
0000
0100
1000
0100
1000
0000
0000
0010
0000
0000
0100
0000
0000
0001
0000
0000
,
0010
0000
0100
0000
1000
0001
0100
0000
0010
0000
1000
0000
0100
0000
0010
0000
,
0011
0001
0100
0010
1000
0001
0100
0010
,
1000
0000
0000
0000
0000
0000
0100
0000
0000
1000
0000
0000
0001
0000
0000
0000
0000
0000
0010
0000
0100
0000
0010
0000
0100
0000
0000
0000
0000
0000
2000
0000
0000
0000
0000
0000
3002
0000
0000
0000
0000
0000
0013
0000
0000
0100
0000
0000
,
1000
0010
0100
0001
1001
0010
1000
0100
,
1000
0000
0010
0000
0010
0000
0100
0000
0110
0000
0001
0000
0010
0000
0001
1000
,
0100
0010
0001
0100
1000
0100
0010
1000
,
0100
0000
0010
0000
0001
0000
0100
0000
0010
0000
1000
0000
0001
0000
0010
0100
,
1000
0010
1000
0100
1100
0001
0010
1000
,
0010
0000
0100
0000
0010
0000
0001
0000
0101
0000
0010
0000
1000
0000
0001
0100
,
0010
1000
0100
0010
1000
0010
0001
0100
,
0000
0000
0000
0000
0000
0000
0110
0000
0000
0000
0000
0000
0110
0000
0000
0000
0000
0000
0001
0000
0000
1000
0000
0000
0001
0000
0000
0000
0010
0000
0000
0000
0100
0000
0000
0000
1000
0000
0000
0000
0001
0000
0000
0000
0100
0000
0000
0000
,
0010
0000
0000
1000
0000
0000
0010
0000
0000
1000
0000
0000
0010
0000
0000
0100
0000
0000
0001
0000
1000
0000
0001
0000
1000
0000
0000
0000
0000
0000
0100
0000
0000
0000
0000
0000
0010
0000
0000
0000
0000
0000
0100
0000
0000
0000
0000
0000
,
1000
0000
0001
0000
0001
0010
0100
0000
1001
0000
0010
0000
1000
0000
0001
0000
,
0010
0100
1000
0010
1010
0001
0100
0010
,
1000
0000
0000
0000
0000
0000
0100
0000
0000
0010
0000
0000
0000
0000
0000
0010
0000
0000
0001
0000
1000
0000
0001
0000
1000
0000
0000
0000
0000
0000
0010
0000
0000
0000
0000
0000
0100
0000
0000
0000
0000
0000
0001
0000
0000
0000
0000
0000
,
0010
0000
0000
0100
0000
0000
0001
0000
0000
0100
1000
0100
1000
0000
0000
0010
0000
0000
0100
0000
0000
0001
0000
0000
,
0010
0000
0100
0000
1000
0010
0001
0000
0011
0000
1100
0000
0010
0000
0100
0000
,
0001
0010
0100
0010
1000
0010
0001
0000
0101
0000
0010
0000
1000
0000
0001
0000
,
1000
0100
1000
0100
1000
0100
0010
0001
0010
0001
0010
0001
0100
0010
1000
0001
,
0010
0100
0010
0100
0010
0100
0010
0100
0010
0100
0010
0100
0010
0100
0010
0100
,
1000
0000
0001
0000
1000
0000
0001
0000
0000
0010
0000
0000
0100
0000
1000
0000
0100
0000
1000
0000
0000
0010
0000
0000
0100
0000
0001
0000
0100
0000
0001
0000
0000
0010
0000
0000
0001
0000
1000
0000
0001
0000
1000
0000
0000
0010
0000
0000
,
0100
0001
0100
0001
0100
0001
0100
0001
0100
0001
0100
0001
0100
0001
0100
0001
,
0010
0100
0010
0001
1000
0100
1000
0010
1000
0001
0100
0001
0010
0001
1000
0100
,
1000
0000
0000
0010
0000
0000
0100
0000
0000
0001
0000
0000
0010
0000
0100
0000
0010
0000
0100
0000
0010
0000
0100
0000
0010
0000
0000
0001
0000
0000
1000
0000
0000
0001
0000
0000
0100
0000
0010
0000
0100
0000
0010
0000
0100
0000
0010
0000
,
0100
0000
0000
0001
0000
0000
0100
0000
0010
0000
0100
0000
0010
0000
0000
1000
0000
0000
0001
0000
0010
0000
0001
0000
0010
0000
0000
0100
0000
0000
1000
0000
0010
0000
1000
0000
0010
0000
0000
0100
0000
0000
0001
0000
1000
0000
0001
0000
,
1000
0010
0100
0000
0001
0010
0001
1000
0010
0100
0010
0001
0010
1000
0100
0010
,
0001
0000
0000
0100
0000
0000
0010
0000
0000
0100
0000
0000
0001
0000
0000
1000
0000
0000
0010
0000
0000
1000
0000
0000
0001
0000
0000
0000
0100
0000
0000
0000
0010
0000
0000
0000
1000
0000
0000
0000
0001
0000
0000
0000
1000
0000
0000
0000
,
0200
0000
0000
0010
0000
0000
0001
0000
,
1300
0001
0000
2000
0000
0000
3020
0000
,
0130
0001
0100
0020
0000
0000
1030
0000
,
0100
1000
0001
0020
0000
0000
0130
0000
,
2200
0000
0000
0000
,
0000
0000
0000
0000
,
0000
0000
0000
0000
,
0000
0000
0000
3300
;

//---------------dance-double - ----------------
#NOTES:
     dance-double:
     :
     Easy:
     5:
     :
00000000
00000000
00000000
00000000
,
00000000
00000000
00000000
00000000
,
00000000
00000000
00000000
00000000
,
00000000
00000000
00000000
00000000
,
00000000
00000000
00000000
00000000
,
00000000
00000000
00000000
00000000
,
00000000
00000000
00000000
00000000
,
00000000
00000000
00000000
00000000
,
00000000
00000000
00000000
00000000
,
00000000
00000000
00000000
00000000
,
00001000
00100000
01000000
00000000
,
00010000
01000000
00010000
00000000
,
00001000
00100000
01000000
00000000
,
00010000
01000000
00010000
00000000
,
00000010
00001000
00000100
00000000
,
00000010
00010000
00000100
00000000
,
00000010
00000001
00001000
00000100
,
00001000
00000000
00001001
00000000
,
00010000
00000010
00000100
00000000
,
00001000
00000100
00001000
00000000
,
00010000
00000010
00000100
00000000
,
00001000
00000100
00001000
00000000
,
00100000
00010000
01000000
00000000
,
00100000
00001000
01000000
00000000
,
00001000
00100000
00010000
00000000
,
01000000
00000000
01100000
00000000
,
00010000
10000000
00010000
00010000
,
00100000
00000000
00001000
00000000
,
00010000
00000010
00001000
00001000
,
00000100
00000000
00000010
00000000
,
00000001
00000000
00000100
00000000
,
00000010
00000000
00010000
00000000
,
00000100
00010000
00010000
00000000
,
00001000
00001000
01000000
00000000
,
00010000
00100000
01000000
01000000
,
10000000
01000000
11000000
00000000
,
00100000
00001000
00100000
00000000
,
00001000
00001000
00010000
00000000
,
00001000
00000010
00000100
00000100
,
00000001
00000100
00000101
00000000
,
00001000
00000000
00001000
00000000
,
00010000
00000000
00010000
00000100
,
00001000
00000010
00000100
00000100
,
00000001
00000100
00000101
00000000
,
00000010
00010000
00000010
00000000
,
00010000
00010000
00001000
00000000
,
00010000
00100000
01000000
01000000
,
10000000
01000000
11000000
00000000
,
00010000
00000000
10000000
00000000
,
10000000
00000000
01000000
00000000
,
00010000
00010000
00010000
00000000
,
00011000
00000000
00000000
00001000
,
00001000
00001000
00001000
00000000
,
00011000
00000000
00000000
00000000
,
00010000
00000100
00000010
00000001
,
00000100
00001000
00010000
00010000
,
00001000
01000000
00100000
10000000
,
01000000
00010000
00001000
00001000
,
00020000
00000000
00000000
00000000
,
00002000
00000000
00000000
00030000
,
00000020
00000000
00000000
00003000
,
00000000
00000000
00000000
00000030
,
00002002
00000000
00000000
00000000
,
00000000
00000000
00000000
00000000
,
00000000
00000000
00000000
00003003
,
00000000
00000000
00000000
00000000
;

//---------------dance-double - ----------------
#NOTES:
     dance-double:
     :
     Medium:
     7:
     :
00000000
00000000
00000000
00000000
,
00000000
00000000
00000000
00000000
,
00000000
00000000
00000000
00000000
,
00000000
00000000
00000000
00000000
,
00000000
00000000
00000000
00000000
,
00000000
00000000
00000000
00000000
,
00000000
00000000
00000000
00000000
,
00000000
00000000
00000000
00000000
,
00000000
00000000
00000000
00000000
,
00000000
00000000
00000000
00000000
,
10000000
00010000
01000000
00100000
,
00010000
00000000
00001000
00010000
00001000
00000000
01000000
00000000
,
00010000
10000000
01000000
00100000
,
00001000
00000000
00010000
00001000
00010000
00000000
00000100
00000000
,
00000010
00000001
00000100
00000000
,
00000010
00010000
00000100
00000000
,
00001000
00000000
00000010
00000000
00000100
00001000
00010000
00000000
,
01000000
00000000
00000000
00100000
00000000
00000000
11000000
00000000
,
10000000
00010000
01000000
00101000
,
00010000
00000000
00001000
00010000
00001000
00000000
01010000
00000000
,
00010000
10000000
01000000
00101000
,
00001000
00000000
00010000
00001000
00010000
00000000
00001100
00000000
,
00000010
00000000
00000001
00000010
00000100
00000000
00000000
00000000
,
00000010
00000000
00010000
00001000
00000100
00000000
00000000
00000000
,
00001000
00010000
01000000
00100000
,
00010000
00000000
00000000
10000000
00000000
00000000
10010000
00000000
,
00100000
10000000
00100000
01000000
,
00001000
00100000
00010000
00010000
,
01000000
00001000
00010000
00000010
,
00001000
00000100
00000100
00000000
,
00000010
00001000
00010000
00001000
,
00000100
00000001
00000010
00000000
,
00000100
00010000
00001000
00000000
00000010
00000000
00000001
00000000
,
00001000
00000010
00001000
00000000
00000001
00000000
00000100
00000000
,
00001000
00000000
00010000
00000000
00001000
00000100
00000010
00000000
,
00001000
00000100
00000011
00000000
,
00000100
00000200
00010300
00020000
,
00031000
00010000
00001000
00000000
01000000
00000000
00000000
00000000
,
00010000
00000000
00001000
00000000
00010000
01000000
00100000
00000000
,
00010000
01000000
10100000
00000000
,
10000000
00000000
00100000
00000000
10000000
00000000
01000000
00100000
,
00000000
00001000
00000000
00010000
00000000
00100000
00000000
00010000
,
00001000
00000000
00011000
00000000
00001000
00000100
00000010
00000000
,
00001000
00000100
00001010
00000000
,
00010000
00000200
00010300
00020000
,
00031000
00010000
00001000
00000000
01000000
00000000
01000000
00000000
,
00010000
00000000
00101000
00000000
00010000
01000000
00100000
00000000
,
00010000
11000000
10100000
00000000
,
10000000
00000000
01000000
00000000
00010000
00000000
00001000
00000010
,
00000000
00000001
00000000
00000100
00000000
00000010
00000100
00000000
,
00000002
00000000
00001000
00001000
00001003
00000000
00000000
00000100
,
00000000
00010000
00001000
00000000
00000000
00000000
01000000
00000000
,
20000000
00000000
00010000
00010000
30010000
00000000
00000000
01000000
,
00000000
00001000
00010000
00000000
00000000
00000000
00001000
00000000
,
00000010
00000011
00001000
00000100
,
00010000
00011000
00001000
01000000
,
00100000
10100000
00010000
01000000
,
00001000
00011000
00010000
00000100
,
00000020
00000000
00000000
00000000
,
00002000
00000000
00000000
00000030
,
02000000
00000000
00000000
00003000
,
00200000
00000000
00000000
03300000
,
20020000
00000000
00000000
00000000
,
00000000
00000000
00000000
00000000
,
00000000
00000000
00000000
30030000
,
00000000
00000000
00000000
00000000
;

//---------------dance-double - ----------------
#NOTES:
     dance-double:
     :
     Hard:
     13:
     :
00000000
00000000
00000000
00000000
,
00000000
00000000
00000000
00000000
,
00000000
00000000
00000000
00000000
,
00000000
00000000
00000000
00000000
,
00000000
00000000
00000000
00000000
,
00000000
00000000
00000000
00000000
,
00000000
00000000
00000000
00000000
,
00000000
00000000
00000000
00000000
,
00000000
00000000
00000000
00000000
,
00000000
00000000
00000000
00000000
,
00010000
00000000
00000010
00000000
00000100
00000001
00000010
00000000
,
00000100
00010000
00000000
00001000
00000100
00000000
00000010
00000100
,
00001000
00000000
00100000
00000000
01000000
10000000
00100000
00000000
,
01000000
00001000
00000000
00010000
01000000
00000000
00100000
01000000
,
10000000
00000000
00100000
00000000
00010000
00000000
00001000
00000010
,
00001000
00000000
00010000
00001000
00100000
00000000
01000000
00100000
,
01000000
00000000
10000000
00000000
00100000
01000000
00100000
00010000
,
00001000
00001000
00000000
00000110
00000000
00000001
00000110
00000000
,
00010000
00001000
00000010
00000000
00000100
00000001
00000010
00000000
,
00000100
00010000
00000010
00001000
00000100
00000000
00000010
00000100
,
00001000
00010000
00100000
00000000
01000000
10000000
00100000
00000000
,
01000000
00001000
00100000
00010000
01000000
00000000
00100000
01000000
,
10000000
00010000
00100000
00000000
00010000
00000000
00001000
00000010
,
00001000
00000000
00010000
00001000
00100000
00010000
01000000
00100000
,
00010000
00010000
00001000
00001000
00000010
00000010
00000100
00000000
,
00000001
00000100
00000000
00001000
00000100
00000001
00000010
00000100
,
00002000
00000000
00000010
00000000
00000100
00000000
00003010
00000100
,
00001000
00000000
00010000
00000000
00100000
00000000
00010000
00100000
10000000
00000000
01000000
00000000
11000000
00000000
00000000
00000000
,
00200000
00000000
00001000
00000000
01000000
00000000
00310000
10000000
,
00100000
00000000
00010000
00001000
00010000
00000000
00000100
00000010
00000100
00000000
00010000
00000000
00011000
00000000
00000000
00000000
,
00100000
00001000
00010000
00000010
00001000
00010000
00100000
01000000
,
00010000
00000000
00001000
00000100
00000001
00000010
00000100
00000010
,
00001000
00000000
00000110
00000000
00001000
00000000
00000011
00000001
,
00000100
00000010
00001000
00000100
00010000
00100000
01000000
10000000
,
01000000
00000000
00000000
00001000
00100000
00000000
00010000
00000000
00001000
00000000
00000010
00000000
00001000
00000000
00010000
00000000
,
00000000
00000010
00000100
00000000
00001000
00000000
00010000
00000000
00001000
00000000
00010000
00000000
01000000
00000000
00000000
00000000
,
00100000
00001000
00010000
00000010
00010000
00001000
00000100
00000001
,
00000010
00000000
00001000
00000000
00010000
00000000
01000000
00000000
00010000
00000000
00001000
00000000
00000100
00000000
00000000
00000001
,
00000100
00000000
00000000
00000000
00000010
00000000
00001000
00000000
00010000
00000000
00000000
00100000
00010000
00000000
00001000
00000000
,
00000000
00100000
01000000
00000000
00010000
00000000
00001000
00000000
00010000
00000000
00001000
00000000
00000100
00000000
00000010
00000000
,
00000000
00000100
00000010
00000100
00000000
00000100
00000001
00001000
,
00000000
00000011
00000000
00011000
00000000
10100000
00000000
01100000
,
01000000
00000000
00000000
00001000
00100000
00000000
00010000
00000000
00001000
00000000
00000010
00000000
00000100
00000000
00010000
00000000
,
00000000
00000010
00000100
00000000
00001000
00000000
00010000
00000000
00001000
00000000
00010000
00000000
01100000
00000000
00000000
00000000
,
00100000
00001000
00010000
00000010
00010000
00001000
00000100
00001000
,
00000010
00000000
00001000
00000000
00010000
00000000
01000000
00000000
00010000
00000000
00001000
00000000
00000100
00000000
00000000
00000010
,
00000100
00000000
00000000
00000100
00000010
00000000
00001000
00000000
00010000
00000000
00100000
00000000
00010000
00000000
00001000
00000000
,
00000000
00100000
01000000
00000000
00010000
00000000
00001000
00000000
00010000
00000000
00000010
00000000
00000100
00000000
00000000
00000000
,
00000001
00000100
00000010
00010000
00001000
01000000
00010000
00000100
,
00000000
00000110
00000000
00011000
00000000
01100000
00000000
10000000
,
00010000
00000000
01000000
00100000
00010000
00000000
00001000
00010000
01000000
00000000
10000000
00100000
00010000
00000000
00001000
00000000
,
00000010
00000100
00000010
00000000
00000000
00000000
00001000
00000100
,
00001000
00000000
00000100
00000010
00001000
00000000
00010000
00001000
00000100
00000000
00000001
00000010
00001000
00000000
00000010
00000000
,
00001000
01000000
00100000
00000000
00000000
00000000
00010000
01000000
,
00010000
00000000
00100000
00000000
00001000
00010000
10000000
00000000
,
01000000
00010000
01010000
00000000
00001000
00010000
00100000
00010000
,
00001000
00000000
00000010
00000000
00010000
00001000
00000001
00000000
,
00000100
00000000
00000000
00001000
00000000
00000000
00001100
00000000
00000000
00000000
00000000
00000000
00001000
00000000
01000000
00000000
00100000
00000000
10000000
00000000
01000000
00000000
00010000
00000000
,
00002000
00000000
00000000
00000000
,
00000002
00000000
00000000
00003000
,
00000020
00000000
00000000
00000003
,
00020000
00000000
00000000
00030030
,
20200000
00000000
00000000
00000000
,
00000000
00000000
00000000
00000000
,
00000000
00000000
00000000
30300000
,
00000000
00000000
00000000
00000000
;
