#TITLE:What Was I Thinkin'?;
#ARTIST:Dierks Bentley;
#BANNER:What Was I Thinkin'-bn.png;
#BACKGROUND:What Was I Thinkin'-bg.png;
#JACKET:What Was I Thinkin'-jacket.png;
#MUSIC:What Was I Thinkin'.ogg;
#OFFSET:0.49;
#SAMPLESTART:46.98;
#SAMPLELENGTH:20;
#DISPLAYBPM:165;
#BPMS:0=164.92;
#BGCHANGES:12=What Was I Thinkin'.mp4=1=1=0=0=StretchNoLoop==CrossFade==,
;

//---------------dance-single - ----------------
#NOTES:
     dance-single:
     :
     Beginner:
     5:
     :
0000
0000
0000
0000
,
0000
0000
0000
0000
,
0000
0000
0000
0000
,
0000
0000
0000
0000
,
1001
0000
0110
0000
,
1000
0000
0000
0001
,
0000
0000
0010
0000
,
0001
0000
0000
0100
,
0000
0000
0010
0000
,
1000
0000
0000
0100
,
0000
0000
0010
0000
,
0001
0001
0001
0000
,
1000
1000
1000
0000
,
0010
0000
1000
0000
,
0100
0100
0100
0000
,
1000
0000
0001
0000
,
0010
0010
0010
0000
,
0001
0000
0100
0000
,
0010
0010
0010
0000
,
1000
0000
0001
0000
,
0020
0000
0030
0000
,
0001
0000
0100
0000
,
0010
0010
0010
0000
,
1000
0000
0100
0000
,
1000
1000
1000
0000
,
0001
0000
1000
0000
,
0100
0100
0100
0000
,
0010
0000
0001
0000
,
0000
0000
0100
0000
,
0010
0000
1000
0000
,
1000
0000
0001
0000
,
0100
0000
0010
0000
,
0200
0000
0300
0000
,
0001
0000
0010
0000
,
0001
0000
0100
0000
,
1000
1000
1000
0000
,
1001
0000
0000
0000
,
0000
0110
0000
0000
,
0001
0000
0010
0000
,
0001
0000
1000
0000
,
0100
0000
0000
0000
,
1000
0000
1000
0000
,
1000
0000
0000
0000
,
1001
0000
0000
0000
,
0110
0000
0000
0000
,
0001
0000
0000
0010
,
0000
0000
0001
0000
,
0100
0000
0000
0010
,
0000
0000
1000
0000
,
0100
0000
0000
1000
,
0000
0000
0001
0000
,
0100
0100
0100
0000
,
0010
0010
0010
0000
,
1000
0000
0100
0000
,
0010
0000
0001
0000
,
0100
0000
0001
0000
,
0010
0000
0100
0000
,
1000
0000
0010
0000
,
1000
0000
0001
0000
,
0100
0000
0010
0000
,
0000
0000
0000
0000
,
1000
0000
0100
0000
,
1000
1000
1000
0000
,
0001
0000
0100
0000
,
0001
0000
1001
0000
,
0010
0010
0010
0000
,
1000
0000
0110
0000
,
0001
0000
0010
0000
,
0001
0000
1000
0000
,
0010
0000
1000
0000
,
0100
0000
0010
0000
,
0001
0000
0001
0000
,
0002
0000
0003
0000
,
0010
0000
0001
0000
,
1000
0000
0001
0000
,
0100
0000
0100
0000
,
1001
0000
0000
0000
,
0000
0110
0000
0000
,
1000
0000
0001
0000
,
0010
0000
0001
0000
,
2000
0000
3000
0000
,
0010
0000
0010
0000
,
0010
0000
0000
0000
,
0110
0000
0000
0000
,
1001
0000
0000
0000
,
0110
0000
0000
0000
,
0000
0000
1000
0000
,
1001
0000
0000
0000
;

//---------------dance-single - ----------------
#NOTES:
     dance-single:
     :
     Easy:
     7:
     :
0000
0000
0000
0000
,
0000
0000
0000
0000
,
0000
0000
0000
0000
,
0000
0000
0000
0000
,
1001
1001
0110
1001
,
0110
2000
0000
3002
,
0000
0013
0001
0100
,
0110
2000
0000
3200
,
0000
1300
0001
0010
,
0011
0200
0000
0320
,
0000
2030
0002
3003
,
1020
1000
2000
3030
,
0201
0001
0002
0303
,
0010
0001
0100
1000
,
0001
1100
1100
0010
,
1000
0001
0100
0100
,
1001
1001
0110
0000
,
1000
0100
0001
0010
,
0101
0001
1000
0000
,
0010
0100
1001
0220
,
0000
0000
0000
0330
,
0001
0010
0001
0100
,
1000
0001
1010
1010
,
0100
0010
2000
3000
,
0001
0100
0101
0101
,
0010
0001
1000
0100
,
1000
0001
0011
0100
,
0010
1000
0110
2002
,
0000
3003
0002
0003
,
0010
0001
0100
1000
,
0020
0030
1000
0001
,
0010
0001
0100
0100
,
0101
1100
0101
0000
,
1000
0001
0100
0010
,
1010
0101
1000
0001
,
0010
0001
0100
1000
,
2200
0000
3300
0001
,
1000
0110
0001
0100
,
0011
1100
0001
0100
,
1001
0010
1000
0001
,
0022
0000
0000
0033
,
2000
3001
0020
0031
,
0200
0300
0001
1000
,
0010
0000
0000
0010
0000
0000
0010
0000
,
0220
0000
0000
0330
,
1001
2000
0000
3020
,
0000
0130
0001
0010
,
0011
0200
0000
0302
,
0000
0013
0001
1000
,
1100
0020
0000
0230
,
0000
0302
2000
3003
,
2100
0100
0200
3300
,
0012
0010
0020
0033
,
0001
0100
1000
0010
,
0100
0100
1001
1001
,
0010
1000
0001
0010
,
0001
0100
1010
0001
,
0010
0001
1000
0010
,
1000
0100
0010
0010
,
0001
0100
1010
0202
,
0000
0000
0000
0303
,
1000
0001
0200
0300
,
0010
1000
1100
1100
,
0001
0100
1000
1000
,
0010
0100
1001
0101
,
1000
0001
0001
0010
,
0001
0100
1010
1010
,
1000
0001
0011
2200
,
0000
3300
0020
0030
,
1000
0001
0010
0001
,
0200
0300
0010
1000
,
0100
0010
0001
0100
,
1010
0011
1010
0000
,
0001
0100
1000
0010
,
0110
0110
0001
0100
,
1000
0010
1000
0001
,
2020
0000
3030
0100
,
1000
0110
1000
0001
,
0101
1010
0100
1000
,
0010
0100
0001
0001
,
0022
0000
0000
0033
,
0200
0310
2000
3001
,
0020
0030
0001
1000
,
0010
0000
0000
0010
0000
0000
0010
0000
,
0220
0000
0000
0330
,
0101
1100
1000
0001
,
0010
0100
1000
1000
,
1001
0000
0000
0000
;

//---------------dance-single - ----------------
#NOTES:
     dance-single:
     :
     Medium:
     10:
     :
0000
0000
0000
0000
,
0000
0000
0000
0000
,
0000
0000
0000
0000
,
0000
0000
0000
0000
,
1001
0000
1001
0000
1000
0001
0100
0000
,
0210
0000
0000
0302
0000
0000
2003
0000
,
0000
3020
0000
1030
0100
1000
0001
0200
,
0000
0000
0000
0320
0000
0000
2030
0000
,
0000
3002
0000
0013
0001
0100
0010
2000
,
0000
0000
0000
3200
0000
0000
0320
0000
,
0030
0000
0021
0000
0031
0100
0000
0102
,
0000
1003
0001
0000
0100
0010
0000
2010
,
0000
3100
1000
0001
0010
0100
0000
0110
,
0000
0001
1000
0001
0100
0000
0010
0000
,
1001
0000
1000
0001
0010
0000
0001
0100
,
0000
0010
1000
0100
1000
0000
0001
0000
,
0101
0000
0101
0000
1000
0001
0000
0011
,
0000
0001
1000
0100
1000
0000
0010
0100
,
0001
0000
1000
0000
0001
0100
0000
1010
,
0000
0001
1000
0000
1100
0000
0202
0000
,
0000
0000
0000
0000
0300
0000
1003
0001
,
0000
1000
0002
0000
0203
0000
0310
1000
,
0000
1000
0001
0010
0100
0000
0110
0000
,
0001
1000
0100
0000
2200
0000
0300
3001
,
0000
1000
0000
1010
0000
0101
0000
0000
,
1000
0001
0000
0001
0020
0000
0130
2000
,
0000
3020
0000
2030
0000
3001
0000
0011
,
0000
0100
0010
0000
0101
0000
2200
0000
,
0000
0000
0300
0000
3001
1000
0000
1001
,
0000
1000
0010
0000
1020
0000
0130
0001
,
0020
0000
0030
0000
0001
1000
0000
0110
,
0000
0010
1000
0001
1000
0001
0100
0000
,
0001
1000
0001
1000
0001
0000
0000
0000
,
0001
0100
0010
0100
0001
0010
0100
0000
,
1100
0000
0011
0000
1000
0001
0100
0000
,
1001
0000
0001
0100
1000
0100
0001
0000
,
0010
0001
2000
0000
3000
0100
1000
0002
,
0000
1003
0001
0100
0020
0000
1030
0000
,
1010
0000
1010
0000
0001
0100
1000
0000
,
0100
1000
0001
1000
0200
0000
0320
0000
,
0031
1000
0002
0000
0003
0000
0100
0020
,
0000
0000
1030
0200
0000
0000
1300
0001
,
0000
0011
0000
0000
0001
0100
1000
0000
,
1001
0000
0000
1100
0000
0001
1000
0000
,
0202
0000
0300
1000
0000
1003
0001
0000
,
0120
0000
0000
2030
0000
0000
3002
0000
,
0000
0023
0000
0031
1000
0010
1000
0200
,
0000
0000
0000
0320
0000
0000
0032
0000
,
0000
2003
0000
3002
0000
0023
0000
0230
,
0000
0000
0000
2300
0000
0000
3002
0000
,
0003
0000
1020
0000
1030
0001
0000
0011
,
0000
1000
0002
0000
0200
0000
0303
1001
,
0000
1000
0100
1000
0001
0010
0100
1000
,
0001
0100
0000
0120
0000
1030
0001
0000
,
0010
0001
1000
0000
0110
0000
0110
0000
,
1000
0100
0000
0010
0002
0000
0003
0101
,
0000
1000
0001
0100
0000
1001
0000
0000
,
1000
0010
0000
0100
0001
0000
0010
0100
,
0000
1000
0010
0200
0000
0301
0000
1010
,
0000
0001
1000
0000
1100
0000
0102
0000
,
1000
0000
1000
0000
1003
0001
0100
0010
,
1000
0100
0000
2200
0000
0300
3001
1000
,
0001
1000
0100
0000
0110
0000
1001
0000
,
0001
0100
0010
0000
1010
0000
1000
0001
,
0010
0100
1000
0000
1001
0000
0101
0000
,
0010
1000
0100
1000
0001
0000
0011
0000
,
0001
0100
0010
0000
1001
0000
1000
0001
,
0000
1000
0100
0000
0011
0000
2200
0000
,
0000
0000
0300
0000
3010
0100
0000
0101
,
0000
1000
0001
0000
0012
0000
0103
0010
,
2000
0000
3000
0000
0100
0010
0000
0110
,
0000
0001
0100
0001
0010
0100
1000
0000
,
0002
2000
0000
0000
0003
3100
1000
0100
,
1000
0010
1000
0001
0010
0100
1000
0000
,
0011
0000
1010
0000
0001
0100
0010
0000
,
1001
0000
0001
0010
1000
0010
0001
0000
,
0100
0010
2000
0000
3000
0001
0010
0200
,
0000
1300
0001
0010
0100
0000
0110
0000
,
0011
0000
0011
0000
0001
1000
0010
0000
,
1000
0001
0010
0100
2000
0000
3002
0000
,
0013
0001
1000
0000
0000
0000
0010
0200
,
0000
0000
0301
2000
0000
0000
3100
0020
,
0000
0032
0000
0000
1003
0001
0100
0000
,
1010
0000
0000
0101
0000
0001
1000
0000
,
1100
0000
0010
1000
0000
1000
0001
0000
,
0110
1001
0100
0010
,
1000
0000
0001
0000
0010
0100
1000
0000
,
0011
0000
0000
0000
;

//---------------dance-single - ----------------
#NOTES:
     dance-single:
     :
     Hard:
     13:
     :
0000
0000
0000
0000
,
0000
0000
0000
0000
,
0000
0000
0000
0000
,
0000
0000
0000
0000
,
1001
0000
1001
0000
1000
0001
0100
0010
,
0210
0000
0301
2000
0000
3100
0020
0000
,
0031
0000
0200
0000
0000
0320
0000
0000
1030
0000
0001
0000
1000
0000
0200
0000
,
0010
0000
0301
0200
0000
1300
0002
0000
,
0013
0000
0200
0000
0000
0320
0000
0000
0031
0000
1000
0000
0100
0000
2000
0000
,
0001
0000
3010
0200
0000
0301
0020
0000
,
0130
0000
0000
1000
0002
0000
0000
0000
1003
0000
0010
0000
0100
0000
0201
0000
,
0000
0301
1000
0100
1000
0020
1030
2010
,
0000
3100
0010
0001
1000
0010
0000
2100
,
0000
3001
1000
0010
1000
0100
0010
0001
,
0100
0000
0100
0001
1000
0010
1000
0002
,
0000
0013
0001
0100
0001
0010
0100
1000
,
1001
0000
0110
0000
1000
0001
0000
0021
,
0000
0130
0010
0001
0100
0010
1000
0001
,
1000
0000
1000
0010
0100
0001
0010
0012
,
0000
1000
1003
0000
0101
0000
1100
0000
,
0001
0100
1000
0000
0001
0010
0100
2000
,
0000
3010
0100
0000
0102
0000
1003
0001
,
0000
0010
0001
0100
0020
0000
1030
0001
,
0100
0010
1000
0001
0020
0000
0130
1000
,
0010
1000
0001
0200
0000
0310
0000
1000
,
0001
0100
0000
0010
1000
0001
1000
0010
,
0100
0001
1000
0020
0000
0130
0000
2010
,
0000
0001
3001
0000
0101
0000
1100
0000
,
0001
0010
1000
0000
0100
0100
1000
1100
,
0000
0001
1000
0010
1000
0100
0010
0001
,
0000
0100
0100
0000
0010
1000
0001
1001
,
0000
0100
0100
0001
1000
0010
0110
0000
,
0101
0001
1000
0001
1000
0100
0100
0100
,
0010
0001
0100
1000
0100
0010
0100
1000
,
0100
0001
0010
1000
0010
0100
0020
0000
,
0031
0100
1000
0100
0001
1000
0100
0000
,
0011
0001
1000
0000
0010
0100
0010
2010
,
0000
3001
1000
0010
0001
0010
1000
0100
,
0010
0001
0100
0010
0001
0010
1000
0000
,
1100
0001
0100
0010
1000
0100
0001
0010
,
0001
0100
1000
0000
0010
1000
0100
0210
,
0000
0310
0001
0200
0000
0310
1000
0002
,
0000
1003
0020
0000
0130
0001
1000
0001
,
0012
0000
0103
0120
0000
1030
1100
0000
,
1100
0000
0001
1000
0000
1000
0100
0000
,
0120
0000
0031
2000
0000
3010
0200
0000
,
0310
0000
2000
0000
0000
3002
0000
0000
0013
0000
0100
0000
1000
0000
0002
0000
,
0010
0000
1003
0200
0000
1300
0002
0000
,
0013
0001
0100
0010
0100
0001
0010
0200
,
1000
0000
0310
0002
0000
1003
0020
0000
,
0130
0000
0000
0001
2000
0000
0000
0000
3001
0000
0010
0000
0100
0000
0210
0000
,
0000
1300
0001
1000
0020
0000
0130
1002
,
0000
0013
0001
0100
0001
0010
0100
1000
,
0010
0100
0000
1020
0000
1000
1030
0001
,
0010
0001
0100
0001
0010
0100
1000
0000
,
0001
0100
0000
0010
1000
0100
1000
0001
,
0000
0010
0001
2000
0000
3002
0100
0000
,
0013
0001
0000
1000
0002
0000
0103
0010
,
1000
0100
0010
0001
0000
0011
0000
1200
,
0000
0010
0310
0000
0110
0000
1001
0000
,
1000
1000
0001
0001
0010
0001
0100
0010
,
1000
0001
0000
1200
0000
0310
0100
0010
,
0001
0100
1000
0000
0010
1000
0100
0020
,
0000
0031
0100
0000
0011
0000
1000
0001
,
0010
0100
1000
0000
1001
0100
0010
1000
,
0000
0100
1000
0001
0010
0000
0001
0100
,
1000
0100
0001
0010
0001
0000
0100
0210
,
0000
0001
0301
0000
0101
0000
1010
0000
,
1000
0001
1000
0010
1000
0001
0000
0102
,
0000
0100
0103
0000
0110
0010
1000
0002
,
0000
0103
0010
1000
0001
0010
0001
0012
,
0000
1000
1003
0001
1000
0100
1100
0000
,
0001
1000
0001
1000
0001
0100
0100
0100
,
0010
1000
0100
0001
0100
0010
0100
1000
,
0010
1000
0001
0010
0100
0001
0100
1000
,
0010
1000
0100
0010
0001
0100
0001
0000
,
0010
0001
1100
0000
0010
1000
0100
2001
,
0000
3010
1000
0100
0001
0100
0010
0100
,
1000
0001
0010
0001
0100
1000
0100
0010
,
1000
0001
0010
0100
1000
0010
0100
0000
,
0001
0100
1000
0000
0010
1000
0001
0021
,
0000
0130
1000
0002
0000
0013
0001
2000
,
0000
3010
0100
0000
0001
0100
0001
1000
,
1020
0000
0130
0102
0000
1003
1100
0000
,
1001
0000
0010
0001
0000
1000
0100
0000
,
0110
0000
1001
0000
0010
1000
0100
0000
,
0010
0001
0100
0010
1000
0100
1000
0001
,
0011
0000
0000
0000
;
