#VERSION:0.83;
#TITLE:Whammer Jammer;
#SUBTITLE:;
#ARTIST:The J. Geils Band;
#TITLETRANSLIT:;
#SUBTITLETRANSLIT:;
#ARTISTTRANSLIT:;
#GENRE:;
#ORIGIN:;
#CREDIT:;
#BANNER:Whammer Jammer.png;
#BACKGROUND:Whammer Jammer-bg.png;
#PREVIEWVID:;
#JACKET:Whammer Jammer-jacket.png;
#CDIMAGE:;
#DISCIMAGE:;
#LYRICSPATH:;
#CDTITLE:;
#MUSIC:Whammer Jammer.ogg;
#OFFSET:0.000000;
#SAMPLESTART:27.909000;
#SAMPLELENGTH:20.000000;
#SELECTABLE:YES;
#DISPLAYBPM:200.000000:214.000000;
#BPMS:0.000=208.000,
16.000=212.000,
48.000=202.000,
64.000=201.000,
76.000=205.000,
84.000=203.000,
88.000=207.000,
96.000=214.000,
108.000=210.000,
112.000=202.000,
136.000=204.000,
144.000=208.000,
160.000=203.000,
180.000=200.000,
188.000=205.000,
204.000=207.000,
224.000=206.000,
228.000=204.000,
252.000=207.000,
272.000=209.000,
288.000=200.000,
304.000=201.000,
320.000=203.000,
328.000=204.000,
332.000=206.000,
334.000=200.000;
#STOPS:;
#DELAYS:;
#WARPS:;
#TIMESIGNATURES:0.000=4=4;
#TICKCOUNTS:0.000=4;
#COMBOS:0.000=1;
#SPEEDS:0.000=1.000=0.000=0;
#SCROLLS:0.000=1.000;
#FAKES:;
#LABELS:0.000=Song Start;
#BGCHANGES:;
#KEYSOUNDS:;
#ATTACKS:
;

//---------------dance-single - ----------------
#NOTEDATA:;
#CHARTNAME:;
#STEPSTYPE:dance-single;
#DESCRIPTION:;
#CHARTSTYLE:;
#DIFFICULTY:Hard;
#METER:13;
#RADARVALUES:0.674176,0.973043,0.695967,0.076270,0.724569,495.000000,422.000000,73.000000,8.000000,0.000000,0.000000,0.000000,0.000000,0.000000,0.674176,0.973043,0.695967,0.076270,0.724569,495.000000,422.000000,73.000000,8.000000,0.000000,0.000000,0.000000,0.000000,0.000000;
#CREDIT:;
#DISPLAYBPM:200.000000:214.000000;
#NOTES:
// measure 0
0000
0000
0000
0000
,  // measure 1
0000
0000
0000
0000
,  // measure 2
0000
0000
0000
0000
,  // measure 3
0000
0000
0000
0000
,  // measure 4
0000
0000
0000
0000
,  // measure 5
0000
0000
0000
0000
,  // measure 6
0000
0000
0000
0000
,  // measure 7
0000
0000
0000
0000
,  // measure 8
0000
0000
0000
0000
,  // measure 9
0000
0000
0000
0000
,  // measure 10
0000
0000
0000
0000
,  // measure 11
0000
0000
0000
0000
,  // measure 12
1001
0000
0001
0100
0000
0000
1001
0000
1000
0100
0000
0000
,  // measure 13
1100
0110
0011
0110
,  // measure 14
1100
0000
0100
1000
0000
0000
0101
0000
0100
0001
0000
0000
,  // measure 15
0011
1001
1010
1001
,  // measure 16
0011
0000
0001
1000
0000
0000
1010
0000
1000
0001
0000
0000
,  // measure 17
0101
0110
1010
0110
,  // measure 18
0101
0000
0010
0001
0000
0000
0101
0000
0010
1000
0000
0000
,  // measure 19
0110
1100
0110
0101
,  // measure 20
0110
0000
0010
0100
0000
0100
0001
0000
0001
1000
0000
0000
,  // measure 21
1001
0000
0010
1000
0000
1000
0001
0000
0001
0100
0000
0000
,  // measure 22
0101
0000
0000
0001
0000
1000
0100
0000
0000
1100
0000
0000
,  // measure 23
1000
0000
0001
1000
0000
0001
0100
0000
0010
0100
0000
0000
,  // measure 24
0001
0001
1000
1000
,  // measure 25
0010
0010
0100
0100
,  // measure 26
0001
1000
0010
0100
,  // measure 27
0001
1000
0001
1000
0000
0000
0010
0100
0010
0100
0000
0000
,  // measure 28
1001
0000
0000
0100
0000
0000
1001
0000
0000
0100
0000
0010
,  // measure 29
1000
0000
1000
0100
0000
0100
0010
0000
0010
0001
0000
0000
,  // measure 30
1100
0000
0000
1001
0000
0000
0011
0000
0000
0001
0000
0100
,  // measure 31
0010
0000
0010
1000
0000
0000
0100
0000
0100
1000
0000
0000
,  // measure 32
1000
0000
0010
0100
0000
0002
0000
0000
1003
0001
0000
0000
,  // measure 33
0100
0000
0000
0100
0000
0001
1000
0000
1000
0100
0000
0000
,  // measure 34
1100
0101
0011
1010
,  // measure 35
0001
0000
0001
0010
0000
0010
0100
0000
0100
1000
0000
0000
,  // measure 36
1001
0000
0000
0000
0000
0000
1000
0000
0000
0000
0001
0000
1000
0000
0000
0001
0000
0000
0000
0000
0000
0000
0000
0000
,  // measure 37
0110
0000
0000
0000
0000
0000
0100
0000
0000
0000
0010
0000
0100
0000
0000
0010
0000
0000
0000
0000
0000
0000
0000
0000
,  // measure 38
1100
0000
0000
0000
0000
0000
1000
0000
0000
0000
0001
0000
0100
0000
0000
0010
0000
0000
0000
0000
0000
0000
0000
0000
,  // measure 39
2000
0002
0000
0000
0000
0000
3003
0000
,  // measure 40
1100
0000
0000
0001
0000
0000
1100
0000
0000
0001
0000
1000
,  // measure 41
0001
0000
0001
0100
0000
0100
0010
0000
0010
1000
0000
0000
,  // measure 42
0110
0000
0000
1010
0000
0000
0101
0000
0000
0001
0000
0100
,  // measure 43
0010
0000
1000
0100
0000
0000
0010
0000
0001
0100
0000
0000
,  // measure 44
1001
0000
0000
1000
0000
0001
0100
0000
0001
1000
0000
0000
,  // measure 45
0010
0000
0010
1000
0000
0000
0001
0000
0001
1000
0000
0000
,  // measure 46
0011
0101
1100
1010
,  // measure 47
1000
0000
0001
0100
0000
0020
0000
0000
0000
0030
0000
0010
,  // measure 48
1000
0000
0000
1000
0000
0000
0000
0000
0000
0000
0000
0000
1001
0000
0000
0000
0000
0000
0000
0000
0000
0000
0010
0000
,  // measure 49
0001
0000
0000
0001
0000
0000
0000
0000
0000
0000
0000
0000
1001
0000
0000
0000
0000
0000
0000
0000
0000
0000
0010
0000
,  // measure 50
1000
0000
0000
1100
0000
0000
0000
0000
0000
0000
0010
0000
0001
0000
0000
0101
0000
0000
0000
0000
0000
0000
0010
0000
,  // measure 51
1000
0000
0100
0010
0000
0001
0100
0000
0010
1000
0000
0000
,  // measure 52
1010
0000
0000
0011
0000
0000
0010
0000
0001
1000
0000
0000
,  // measure 53
0001
0000
0001
1000
0000
1000
0100
0000
0100
0010
0000
0000
,  // measure 54
0110
0000
0000
1001
0000
0000
0001
0000
0100
0010
0000
0000
,  // measure 55
1000
0000
0001
0100
0000
0010
1000
0000
0100
0010
0000
0000
,  // measure 56
0001
0000
0001
0100
0000
0100
0010
0000
0010
0100
0000
0000
,  // measure 57
1000
0000
1000
0010
0000
0010
0100
0000
0100
0010
0000
0000
,  // measure 58
1100
0000
0000
0101
0000
0000
0001
0000
0100
1000
0000
0000
,  // measure 59
0001
0000
1000
0001
0000
0100
0010
0000
1000
0010
0000
0000
,  // measure 60
2002
0000
0000
0000
,  // measure 61
0000
0000
0000
3000
,  // measure 62
0010
0000
0000
0100
0000
0000
0100
0000
0000
0003
0000
1001
,  // measure 63
0000
0000
0001
1000
0001
1000
0001
1000
0001
1000
0001
1000
,  // measure 64
0001
0000
0000
0101
0000
0000
0010
0000
1000
0100
0000
0000
,  // measure 65
1000
0000
0000
1100
0000
0000
0100
0000
0010
0001
0000
0000
,  // measure 66
0110
0000
0000
0101
0000
0000
0001
0000
0100
0010
0000
0000
,  // measure 67
1000
0000
0001
0010
0000
0001
0100
0000
0010
1000
0000
0000
,  // measure 68
0001
0000
0001
1000
0000
1000
0010
0000
0010
0100
0000
0100
,  // measure 69
0010
0000
0010
1000
0000
1000
0001
0000
0001
0100
0000
0000
,  // measure 70
0100
0010
0100
0010
0100
0010
0100
0010
0100
0010
0100
0010
,  // measure 71
0100
0010
0100
0010
0100
0010
0100
0000
0100
0000
0100
0000
,  // measure 72
0110
0000
0010
1000
0000
1000
0100
0000
0100
0010
0000
0010
,  // measure 73
0001
0000
0001
1000
0000
1000
0001
0000
0100
0010
0000
0000
,  // measure 74
1001
0000
1000
0100
0000
0100
0010
0000
0010
0001
0000
0001
,  // measure 75
0100
0000
0100
0010
0000
0010
0100
0000
0001
1000
0000
0000
,  // measure 76
1010
0000
0100
0010
0000
0010
1000
0000
1000
0100
0000
0000
,  // measure 77
0011
0000
0001
1000
0000
1000
0100
0000
0100
1000
0000
0000
,  // measure 78
0110
0000
0010
1000
0000
0100
1000
0000
0100
0010
0000
0001
,  // measure 79
0100
0000
0010
1000
0000
0001
0010
0000
0001
1000
0000
0000
,  // measure 80
1000
0000
1000
0100
0000
0100
0010
0000
0010
0001
0000
0001
,  // measure 81
1000
0000
0100
0010
0000
0001
0010
0000
0100
1000
0000
0000
,  // measure 82
0001
0000
1001
0000
0000
0000
1000
0000
0001
0100
0000
0000
,  // measure 83
1000
0000
0000
0000
0100
0000
0010
0000
0000
0000
0001
0000
0000
0000
0000
0000
0000
0000
0000
0000
0000
0100
0000
0000
,  // measure 84
2002
0000
0000
0000
,  // measure 85
0000
0000
0000
0000
,  // measure 86
0000
0000
0000
0000
,  // measure 87
0000
0000
0000
0000
,  // measure 88
0000
0000
0000
3003
;

//---------------dance-single - ----------------
#NOTEDATA:;
#CHARTNAME:;
#STEPSTYPE:dance-single;
#DESCRIPTION:;
#CHARTSTYLE:;
#DIFFICULTY:Medium;
#METER:10;
#RADARVALUES:0.471242,0.592287,0.362284,0.476690,0.295548,346.000000,308.000000,38.000000,50.000000,0.000000,0.000000,0.000000,0.000000,0.000000,0.471242,0.592287,0.362284,0.476690,0.295548,346.000000,308.000000,38.000000,50.000000,0.000000,0.000000,0.000000,0.000000,0.000000;
#CREDIT:;
#DISPLAYBPM:200.000000:214.000000;
#NOTES:
0000
0000
0000
0000
,
0000
0000
0000
0000
,
0000
0000
0000
0000
,
0000
0000
0000
0000
,
0000
0000
0000
0000
,
0000
0000
0000
0000
,
0000
0000
0000
0000
,
0000
0000
0000
0000
,
0000
0000
0000
0000
,
0000
0000
0000
0000
,
0000
0000
0000
0000
,
0000
0000
0000
0000
,
1001
0100
1001
0100
,
0002
0023
0230
1300
,
1001
0010
1001
0010
,
2000
3200
0320
0031
,
0011
0010
0011
0010
,
0002
2003
3002
1003
,
1100
1000
1100
1000
,
0020
2030
3200
0310
,
0001
0100
0010
1000
,
0010
0100
0001
1000
,
0002
2003
3020
0230
,
0301
0000
0010
0100
0000
1000
0000
0000
0000
0000
0000
0000
,
0001
0001
1000
1000
,
0010
0010
0100
0100
,
0001
1000
0010
0100
,
0002
2000
0000
0000
0000
0000
3003
0000
,
1010
0000
0000
0001
0000
0000
1010
0000
0000
0000
0000
0010
,
0000
0000
1000
0000
0000
0001
0100
0000
0000
0010
0000
0000
,
2000
3002
0203
0320
,
1030
0010
0100
0001
,
0100
0000
0010
0100
0000
0020
0000
0000
0000
0030
0000
0000
,
1000
0000
0100
1000
0000
0200
0000
0000
0000
0310
0000
0000
,
0001
0011
1000
1010
,
1000
0000
0001
1000
0000
0001
0000
0000
0000
0000
0000
0000
,
1001
1000
1000
0000
,
0110
0100
0100
0000
,
0101
0010
1000
0000
,
0020
0200
0000
0000
0000
0000
0330
0000
,
0101
0000
0000
1000
0000
0000
0101
0000
0000
0000
0000
0010
,
0000
0000
0100
0000
0000
0001
1000
0000
0000
1100
0000
0000
,
0002
2003
3020
0230
,
0301
0010
0100
1000
,
0001
0000
1000
0100
0000
0000
2100
0000
0000
3010
0000
0000
,
0100
0102
0010
1003
,
0010
0101
0010
1100
,
0010
0000
0100
0001
0000
2000
0000
0000
0000
3000
0000
0000
,
1000
0001
0000
0000
1001
0000
0000
0000
,
0001
1000
0000
0000
1001
0000
0000
0000
,
1000
0100
0000
0000
0001
0100
0000
0000
,
1000
0000
0010
1000
0000
0010
0100
0000
0000
0000
0000
0000
,
0011
0102
1000
0103
,
1000
0000
1000
0001
0000
0000
0100
0000
0100
0001
0000
0000
,
1010
1200
0001
1300
,
1000
0000
0010
2000
0000
0020
0000
0000
0000
3030
0000
0000
,
1000
0000
0100
1000
0000
0000
0001
0000
0100
0001
0000
0000
,
1000
0000
0010
1000
0000
0000
0001
0000
0010
0001
0000
0000
,
0200
0302
2003
3020
,
1030
0000
0100
0010
0000
0001
0000
0000
0000
0000
0000
0000
,
2002
0000
0000
0000
,
0000
0000
0000
3000
,
0010
0100
0200
0303
,
0020
1000
0001
0130
,
1001
1020
0100
1030
,
0010
0000
0100
0001
0000
0000
1000
0000
0100
0010
0000
0000
,
0011
0201
1000
0310
,
0100
0000
0001
0100
0000
0001
0000
0000
0000
0000
0000
0000
,
1000
0000
1000
0100
0000
0000
0001
0000
0001
0100
0000
0000
,
1000
0000
1000
0010
0000
0000
0001
0000
0001
0010
0000
0000
,
1000
1100
0001
0101
,
0010
0000
0000
1001
0000
0000
0100
0000
0100
0000
0100
0000
,
0001
0000
1000
0100
0000
0000
1000
0000
0001
0100
0000
0000
,
0010
0000
1000
0100
0000
0000
0010
0000
0001
0100
0000
0000
,
0001
0000
0100
0001
0000
0000
1000
0000
0100
1000
0000
0000
,
0001
0000
0010
0001
0000
0000
1000
0000
0010
1000
0000
0000
,
0010
0000
1000
0010
0000
0000
0100
0000
0001
0100
0000
0000
,
0001
0000
0010
0100
0000
0000
0010
0000
0100
1000
0000
0000
,
0001
0000
0010
0100
0000
0000
1000
0000
0001
0100
0000
0000
,
0001
0000
0010
0100
0000
0000
0001
0000
0100
0010
0000
0000
,
1000
0000
0100
1000
0000
0000
0001
0000
0100
0001
0000
0000
,
0100
0000
0010
0100
0000
0000
0010
0000
0100
0010
0000
0000
,
0000
0000
1002
0000
0000
0000
0100
0000
0000
0013
0000
0000
,
0001
0000
0000
0000
0010
0000
0100
0000
0000
0000
1000
0000
0000
0000
0000
0000
0000
0000
0000
0000
0000
0100
0000
0000
,
2002
0000
0000
0000
,
0000
0000
0000
0000
,
0000
0000
0000
0000
,
0000
0000
0000
0000
,
0000
0000
0000
3003
;

//---------------dance-single - ----------------
#NOTEDATA:;
#CHARTNAME:;
#STEPSTYPE:dance-single;
#DESCRIPTION:;
#CHARTSTYLE:;
#DIFFICULTY:Easy;
#METER:6;
#RADARVALUES:0.279204,0.380756,0.152541,0.133473,0.000000,205.000000,189.000000,16.000000,14.000000,0.000000,0.000000,0.000000,0.000000,0.000000,0.279204,0.380756,0.152541,0.133473,0.000000,205.000000,189.000000,16.000000,14.000000,0.000000,0.000000,0.000000,0.000000,0.000000;
#CREDIT:;
#DISPLAYBPM:200.000000:214.000000;
#NOTES:
0000
0000
0000
0000
,
0000
0000
0000
0000
,
0000
0000
0000
0000
,
0000
0000
0000
0000
,
0000
0000
0000
0000
,
0000
0000
0000
0000
,
0000
0000
0000
0000
,
0000
0000
0000
0000
,
0000
0000
0000
0000
,
0000
0000
0000
0000
,
0000
0000
0000
0000
,
0000
0000
0000
0000
,
1000
0000
1000
0000
,
1000
0100
0001
0000
,
0001
0000
0001
0000
,
0001
0100
1000
0000
,
0010
0000
0010
0000
,
0010
1000
0100
0000
,
0010
0000
0010
0000
,
0010
0001
0100
0000
,
0001
0001
0001
0000
,
1000
1000
1000
0000
,
0001
0001
1000
1000
,
0010
0100
0010
0000
,
0001
0001
0001
0000
,
1000
1000
1000
0000
,
0010
0000
0100
0000
,
2002
0000
0000
3003
,
0100
0000
0100
0000
,
0001
0010
0100
1000
,
0010
0010
0010
1000
,
0001
0000
0000
0000
,
0100
0100
0100
0000
,
0010
0010
0010
0000
,
1000
0100
1000
0001
,
0100
0100
0100
0000
,
1000
0000
1000
0000
,
0001
0000
0001
0000
,
0100
0000
0010
0000
,
2002
0000
0000
3003
,
0010
0000
0100
0000
,
0001
1000
0010
0100
,
0001
0001
0001
0000
,
1000
1000
1000
0000
,
0010
0010
1000
0100
,
0000
0200
0000
0300
,
1000
0100
0010
0001
,
0100
0100
0100
0000
,
1000
0000
1100
0000
,
0001
0000
0101
0000
,
1100
0000
0101
0000
,
0010
0010
0010
0000
,
1000
0002
0000
0100
,
0000
0100
0000
0103
,
0001
1000
0000
1000
,
0100
0100
1000
0000
,
0001
0010
0001
0010
,
0000
0200
0000
0300
,
1000
0020
0000
0030
,
1000
0100
0001
0000
,
2002
0000
0000
0000
,
0000
0000
0000
3000
,
0010
0100
0103
0000
,
0001
1000
0001
1000
,
0001
0200
0000
0010
,
0000
0010
0000
0310
,
0010
1000
0000
0001
,
1000
0100
1000
0000
,
0001
0010
1000
0010
,
0001
0100
1000
0100
,
0001
0000
1000
0000
,
0010
0000
0100
0000
,
0001
0000
0101
0000
,
0001
0000
0101
0000
,
1000
0000
1100
0000
,
1000
0000
1100
0000
,
0010
0000
0101
0000
,
0010
0000
1100
0000
,
0001
0000
0101
0000
,
1000
0000
1100
0000
,
0001
0001
1000
1000
,
0010
0010
0100
0100
,
0002
0000
1000
0103
,
1000
0010
0001
0000
,
2002
0000
0000
0000
,
0000
0000
0000
0000
,
0000
0000
0000
0000
,
0000
0000
0000
0000
,
0000
0000
0000
3003
;

//---------------dance-single - ----------------
#NOTEDATA:;
#CHARTNAME:;
#STEPSTYPE:dance-single;
#DESCRIPTION:;
#CHARTSTYLE:;
#DIFFICULTY:Beginner;
#METER:2;
#RADARVALUES:0.133473,0.253837,0.019068,0.057203,0.000000,98.000000,96.000000,2.000000,6.000000,0.000000,0.000000,0.000000,0.000000,0.000000,0.133473,0.253837,0.019068,0.057203,0.000000,98.000000,96.000000,2.000000,6.000000,0.000000,0.000000,0.000000,0.000000,0.000000;
#CREDIT:;
#DISPLAYBPM:200.000000:214.000000;
#NOTES:
0000
0000
0000
0000
,
0000
0000
0000
0000
,
0000
0000
0000
0000
,
0000
0000
0000
0000
,
0000
0000
0000
0000
,
0000
0000
0000
0000
,
0000
0000
0000
0000
,
0000
0000
0000
0000
,
0000
0000
0000
0000
,
0000
0000
0000
0000
,
0000
0000
0000
0000
,
0000
0000
0000
0000
,
1000
0000
1000
0000
,
1000
0000
0000
0000
,
0001
0000
0001
0000
,
0001
0000
0000
0000
,
0100
0000
0100
0000
,
0100
0000
0000
0000
,
0010
0000
0010
0000
,
0010
0000
0000
0000
,
1000
0000
0000
0000
,
0001
0000
0000
0000
,
0100
0000
0100
0000
,
0001
0000
0000
0000
,
0001
0000
0000
0000
,
1000
0000
0000
0000
,
0010
0000
0000
0000
,
0100
0000
0000
0000
,
0010
0000
0010
0000
,
1000
0000
0000
0000
,
0001
0000
0001
0000
,
0100
0000
0000
0000
,
0010
0000
0000
0000
,
0100
0000
0000
0000
,
0001
0000
1000
0000
,
0001
0000
0000
0000
,
0100
0000
0000
0000
,
0010
0000
0000
0000
,
1000
0000
0000
0000
,
0001
0000
0000
0000
,
0010
0000
1000
0000
,
0100
0000
0000
0000
,
1000
0000
0001
0000
,
0100
0000
0000
0000
,
0001
0000
0001
0000
,
1000
0000
1000
0000
,
0010
0000
0010
0000
,
0010
0000
0000
0000
,
1000
0000
0000
0000
,
0001
0000
0000
0000
,
1000
0000
0100
0000
,
0001
0000
0000
0000
,
0010
0020
0000
0000
,
0000
0000
0030
0000
,
1000
1000
0000
0000
,
0001
0000
0001
0000
,
0100
0000
0100
0000
,
0010
0000
0010
0000
,
1000
0000
0001
0000
,
0100
0100
0000
0000
,
2002
0000
0000
0000
,
0000
0000
0000
3003
,
0000
0000
0000
0000
,
0000
0000
0000
0000
,
0100
0200
0000
0000
,
0000
0000
0300
0000
,
0010
0010
0000
0000
,
1000
0000
0001
0000
,
1000
0000
0010
0000
,
0100
0000
0001
0000
,
0010
0000
0000
0000
,
0000
0000
0000
0000
,
0001
0000
0001
0000
,
0001
0000
0000
0000
,
1000
0000
1000
0000
,
1000
0000
0000
0000
,
0010
0000
0010
0000
,
0010
0000
0000
0000
,
0100
0000
0100
0000
,
0100
0000
0000
0000
,
0010
0000
0000
0000
,
0100
0000
0000
0000
,
0010
0000
0000
0000
,
0000
0000
0000
0000
,
2002
0000
0000
0000
,
0000
0000
0000
0000
,
0000
0000
0000
0000
,
0000
0000
0000
0000
,
0000
0000
0000
3003
;
