#TITLE:Watercolour;
#ARTIST:Pendulum;
#BANNER:Watercolour-bn.png;
#BACKGROUND:Watercolour-bg.png;
#JACKET:Watercolour-jacket.png;
#MUSIC:Watercolour.ogg;
#OFFSET:0.05;
#SAMPLESTART:42.725;
#SAMPLELENGTH:20;
#DISPLAYBPM:174;
#BPMS:0=174;
#BGCHANGES:;

//---------------dance-single - ----------------
#NOTES:
     dance-single:
     :
     Beginner:
     3:
     :
0000
0000
0000
0000
,
0000
0000
0000
0000
,
0000
0000
0000
0000
,
0000
0000
0000
0000
,
0000
0000
0000
0000
,
0000
0000
0000
0000
,
0000
0000
0000
0000
,
0000
0000
0000
0000
,
0200
0000
0000
0000
,
0000
0000
0300
0000
,
0002
0000
0003
0000
,
2000
0000
3000
0000
,
0020
0000
0000
0000
,
0000
0000
0030
0000
,
2000
0000
3000
0000
,
0002
0000
0003
0000
,
0010
0000
0010
0000
,
0001
0000
0001
0000
,
0100
0000
0100
0000
,
1000
0000
1000
0000
,
0001
0000
0010
0000
,
0001
0000
0010
0000
,
0100
0000
1000
0000
,
0100
0000
1000
0000
,
1001
0000
0000
0010
,
0010
0000
0000
0100
,
0100
0000
0000
0001
,
0001
0000
0100
0000
,
0110
0000
0000
0010
,
0010
0000
0000
1000
,
1000
0000
0000
0100
,
0100
0000
1000
0000
,
1001
0000
0000
0001
,
0001
0000
0000
1000
,
1000
0000
0000
0010
,
0010
0000
0100
0000
,
0110
0000
0000
0100
,
0100
0000
0000
0010
,
0010
0000
0000
0100
,
0100
0000
0001
0000
,
0110
0000
0000
0001
,
0001
0000
0000
0100
,
0100
0000
0000
1000
,
1000
0000
0010
0000
,
1001
0000
0000
1000
,
1000
0000
0000
0100
,
0100
0000
0000
1000
,
1000
0000
0001
0000
,
0100
0000
0100
0000
,
0010
0000
0010
0000
,
1000
0000
0100
0000
,
1000
0000
0001
0000
,
0010
0000
0001
0000
,
0010
0000
0100
0000
,
1000
0000
0010
0000
,
0100
0000
0001
0000
,
0010
0000
0010
0000
,
0100
0000
0100
0000
,
1000
0000
0001
0000
,
1000
0000
0001
0000
,
0100
0000
0001
0000
,
0100
0000
0001
0000
,
1000
0000
0010
0000
,
1000
0000
0010
0000
,
0200
0000
0000
0000
,
0300
0000
0001
0000
,
2000
0000
0000
0000
,
3000
0000
0010
0000
,
0100
0000
0100
0000
,
0010
0000
1000
0000
,
0002
0000
0000
0000
,
0003
0000
0100
0100
,
0200
0000
0000
0000
,
0300
0000
0001
0000
,
0020
0000
0000
0000
,
0030
0000
0100
0000
,
1000
0000
1000
0000
,
0001
0000
0001
0000
,
2000
0000
3000
0000
,
0001
0000
0100
0000
,
0001
0000
0000
0000
;

//---------------dance-single - ----------------
#NOTES:
     dance-single:
     :
     Easy:
     7:
     :
0000
0000
0000
0000
,
0000
0000
0000
0000
,
0000
0000
0000
0000
,
0000
0000
0000
0000
,
0000
0000
0000
0000
,
0000
0000
0000
0000
,
0000
0000
0000
0000
,
0000
0000
0000
0000
,
0200
0000
0000
0000
,
0302
0000
2003
0000
,
3020
0000
0000
2030
,
0002
0003
0200
0300
,
3002
0000
0013
0100
,
1000
0010
0100
0002
,
2000
3000
0010
2003
,
0200
0300
0001
3100
,
0020
0030
0002
1003
,
0020
1030
0200
0310
,
0002
0003
2000
3000
,
0020
0030
0200
0300
,
0002
0013
2000
3000
,
0200
1300
0002
1003
,
0200
0300
0020
0030
,
0002
0103
2000
3010
,
1001
0010
0100
0001
,
1001
0010
1000
0100
,
0110
0001
0100
0010
,
0110
1000
0100
0001
,
1001
0010
1000
0100
,
1001
0010
0001
0100
,
0110
0001
0010
0100
,
0110
1000
0010
0100
,
0002
0010
1000
0103
,
0020
1000
0100
0031
,
2000
0001
0100
3010
,
1001
0110
1001
0110
,
2000
0100
0010
3001
,
0200
0010
0001
1300
,
0200
0001
1000
0310
,
0110
1001
0110
1001
,
0010
1000
0100
0001
,
0010
0100
1000
0001
,
1000
0010
0001
0100
,
0002
0023
0230
2300
,
3010
0100
0001
1001
,
0010
1000
0100
0110
,
1000
0010
0001
0110
,
0001
0010
0100
1001
,
0010
0000
1000
0100
,
1000
0000
0001
0100
,
0001
0010
0100
1000
,
0001
0000
0100
0010
,
1000
0000
0100
1000
,
0001
0000
0010
0001
,
0100
0010
0100
0001
,
1000
0000
0010
0100
,
0110
0000
0001
1000
,
1001
0000
1000
0100
,
0010
0100
0010
0001
,
0100
0010
1000
0001
,
1001
0000
0010
0001
,
0110
0000
0001
0100
,
0001
0010
0001
1000
,
0100
0010
0100
1000
,
0002
0000
0000
0000
,
0000
1000
0010
0103
,
0020
0000
0000
0000
,
0000
1000
0100
0031
,
2000
0000
0000
3002
0000
0000
2003
0000
,
0000
0010
0100
3001
,
0200
0000
0000
0000
,
0000
0010
1000
0310
,
0002
0000
0000
0000
,
0000
0100
0010
0103
,
2000
0000
0000
0000
,
0000
0010
0001
3010
,
0200
0000
0000
2300
0000
0000
3002
0000
,
0000
0010
0100
1003
,
0020
0000
0000
0230
0000
0000
0320
0000
,
0032
0023
0230
2300
,
3001
0000
0000
0000
;

//---------------dance-single - ----------------
#NOTES:
     dance-single:
     :
     Medium:
     10:
     :
0000
0000
0000
0000
,
0000
0000
0000
0000
,
0000
0000
0000
0000
,
0000
0000
0000
0000
,
0000
0000
0000
0000
,
0000
0000
0000
0000
,
0000
0000
0000
0000
,
0000
0000
0000
0000
,
0200
0000
0000
0000
0000
0000
0301
1000
,
0002
0000
2003
0000
,
3200
0000
0000
0320
,
0000
0000
0000
0000
,
0032
0000
0000
0000
1003
0000
0100
1000
,
0020
0230
0302
2003
,
0000
0000
3002
0203
,
0000
0000
0320
2030
,
3001
0100
0110
1001
,
0010
0000
1000
0001
1000
0100
0010
0001
,
0100
0000
0000
0001
0000
0000
0010
0001
,
1000
0001
0000
0200
0000
0000
0310
1000
,
0000
0002
0000
0000
0000
0000
1003
0100
,
1000
0000
0010
0200
0000
0000
0301
0010
,
0002
0000
0000
0000
1000
0000
0103
0010
,
1000
0001
0000
0010
0001
0000
1000
0100
,
2000
0000
3010
0100
0001
0000
0011
0000
,
1100
0000
0010
1000
0010
0100
0001
1000
,
0200
0000
0310
0001
1000
0000
1010
0000
,
0101
0000
0010
0001
0010
0100
1000
0001
,
2000
0000
3001
0100
0000
0010
1000
0000
,
0020
0000
0130
0010
1000
0001
0010
0100
,
0020
0000
0031
1000
0000
0100
0010
0000
,
0002
0000
0013
0001
1000
0001
1000
0100
,
0020
0000
0031
0100
0010
0100
0001
0000
,
0200
0000
0310
1000
0100
1000
0001
0000
,
2000
0000
3001
0010
0001
0100
0010
0000
,
1010
1100
1010
1100
,
0001
1000
0010
0100
0000
0100
0001
0000
,
0020
0000
0031
1000
0000
0001
0100
0000
,
0020
0000
1030
0100
1000
0000
0002
0000
,
0023
0230
0320
0230
,
1300
0100
0010
0001
0100
0000
0110
0000
,
0001
0010
0001
1000
0100
0000
1100
0000
,
0010
1000
0100
0010
0000
0001
1000
0000
,
0101
0011
0101
0011
,
0200
0000
0301
0010
0001
1000
0100
0000
,
2000
0000
3001
0010
0100
0010
0001
0000
,
0200
0000
0310
1000
0100
0010
0001
0000
,
1000
0010
0100
0000
0002
0000
1003
0100
,
0000
1100
0000
0000
0020
0000
0031
1000
,
0000
0101
0000
0000
0200
0000
0310
1000
,
0000
1001
0000
0000
0002
0000
1003
0100
,
0000
0110
0000
0000
0200
0000
0301
1000
,
0000
1001
0000
0000
2000
0000
3100
0010
,
0000
0011
0000
0000
0200
0000
0310
1000
,
0000
1010
0000
0000
0100
0001
0000
1000
,
0010
1000
0200
0000
0320
0000
0031
0100
,
0000
1010
0000
0000
1000
0100
1000
0001
,
0000
0101
0000
0000
0100
0010
0100
0001
,
0000
1001
0000
0000
0010
0001
1000
0100
,
0000
1100
0000
0000
1000
0010
0100
0001
,
0000
0011
0000
0000
0001
1000
0100
0010
,
0000
0110
0000
0000
0001
1000
0001
1000
,
0000
1001
0000
0000
1000
0010
0000
0100
,
0002
2003
3002
2003
,
3020
0000
1030
0100
0000
1000
0002
0000
,
0023
0000
0230
0000
1300
0001
0200
0000
,
0302
0000
0013
0100
0000
1000
0010
0000
,
1000
0001
0100
0000
0101
0000
1100
0000
,
0102
0000
0000
0023
0000
0000
2030
0000
,
0000
3020
0032
0203
,
0301
0010
0001
1000
0000
0100
0010
0000
,
0011
1100
0011
1100
,
0010
1000
0100
1000
0000
0001
0100
0000
,
0120
2030
3200
0320
,
0032
0000
0103
0001
1000
0001
0100
0000
,
0020
2030
3002
0023
,
0230
0000
1300
0020
0000
0130
0002
0000
,
0010
1000
0100
1003
,
0020
0000
1030
0200
0000
1300
0010
0100
,
0002
0023
0230
2300
,
3001
0000
0000
0000
;

//---------------dance-single - ----------------
#NOTES:
     dance-single:
     :
     Hard:
     12:
     :
0000
0000
0000
0000
,
0000
0000
0000
0000
,
0000
0000
0000
0000
,
0000
0000
0000
0000
,
0000
0000
0000
0000
,
0000
0000
0000
0000
,
0000
0000
0000
0000
,
0000
0000
0000
0000
,
0200
0000
0000
0000
0000
0000
0301
1000
,
0002
0010
2003
0010
,
3200
0010
0010
0010
,
2300
0000
0001
0000
0001
0002
3000
0000
,
0023
0000
0130
0000
1001
0000
0001
1000
,
0200
0320
0032
2003
,
3020
1000
0230
0320
,
2030
0001
3200
0320
,
0032
0000
1003
0001
0100
0000
0101
0000
,
0010
0000
1000
0100
0001
0100
1000
0100
,
0020
0000
0031
1000
0200
0000
0310
0100
,
1000
0001
0000
0200
0010
0000
0301
0100
,
0010
2000
0001
0000
0100
0000
3001
1000
,
0020
0000
1030
0002
1000
0000
0103
0020
,
0001
0000
1000
0000
0130
0000
0010
1000
,
0100
0010
0001
0100
1000
0100
0010
1000
,
0001
0010
1000
0010
0001
0000
0101
0000
,
1100
0000
0010
0001
0010
0100
0010
1000
,
0020
0000
1030
0001
0010
0100
1000
0000
,
1010
0000
0100
0010
0100
1000
0010
0001
,
0010
1000
0100
0010
0001
0100
1000
0000
,
0110
0000
0001
0010
0001
0100
0010
0100
,
0001
0010
0001
0100
1000
0010
0001
0000
,
1000
0010
0100
0001
1000
0100
0010
0001
,
0100
0000
0001
0000
0010
0000
0002
0000
0000
0000
1000
0000
1003
0000
0000
0010
,
0100
0000
0001
0000
1000
0000
0200
0000
0000
0000
0010
0000
0310
0000
0000
1000
,
0001
0000
1000
0000
0100
0000
2000
0000
0000
0000
0001
0000
3001
0000
0000
0010
,
0001
0000
0100
0000
2000
0000
0000
0000
3010
0000
1000
0000
0100
0000
0000
0001
,
1000
0000
0001
0000
0010
0000
0002
0000
0000
0000
0100
0000
0103
0000
0000
0010
,
0100
0000
0010
0000
1000
0000
0200
0000
0000
0000
1000
0000
1300
0000
0000
0001
,
0010
0000
0001
0000
0100
0000
0002
0000
0000
0000
1000
0000
1003
0000
0000
0100
,
1000
0010
0001
0010
1000
0100
0001
0100
,
1000
0000
0001
0000
0010
0000
0200
0000
0000
0000
1300
0000
0001
0000
0000
0100
,
0001
0000
0010
0000
0001
0000
0200
0000
0000
0000
1000
0000
1300
0000
0000
0100
,
0010
0000
1000
0000
0100
0000
0020
0000
0000
0000
0001
0000
0031
0000
0000
1000
,
0001
0000
0010
0000
0200
0000
0000
0000
0310
0000
0001
0000
1000
0000
0000
0100
,
1000
0000
0010
0000
0100
0000
0010
0000
1000
0000
0100
0000
0001
0000
0000
0010
,
0001
0000
0100
0000
0001
0000
1000
0000
0010
0000
0100
0000
0001
0000
0000
1000
,
0100
0000
0010
0000
0001
0000
0100
0000
0010
0000
1000
0000
0001
0000
0000
1000
,
0100
0010
1000
0010
0100
0010
0001
0100
,
1000
0000
0100
0000
0101
0000
0000
0010
0001
0000
0100
0000
0010
0000
1000
0000
,
0100
0000
0010
0000
0011
0000
0000
1000
0010
0000
0100
0000
0001
0000
1000
0000
,
0100
0000
1000
0000
1001
0000
0000
0010
1000
0000
0001
0000
1000
0000
0100
0000
,
0010
0000
0001
0000
0100
0000
0010
1000
0010
0000
0100
0000
0001
0000
1000
0000
,
0100
0000
0010
0000
0110
0000
0000
0001
0100
0000
0010
0000
1000
0000
0001
0000
,
0010
0000
1000
0000
1010
0000
0000
0100
1000
0000
0001
0000
0010
0000
0100
0000
,
0001
0000
0100
0000
1100
0000
0000
0010
1000
0000
0001
0000
1000
0000
0100
0000
,
0020
0000
0000
0000
0031
0000
0100
0010
0100
0000
0001
0000
1000
0000
0100
0000
,
0001
0000
0100
0000
1001
0000
0000
0010
0100
0000
0010
0000
1000
0000
0001
0000
,
0010
0000
0100
0000
1100
0000
0000
0010
0100
0000
0001
0000
1000
0000
0001
0000
,
0010
0000
0001
0000
0011
0000
0000
1000
0100
0000
0010
0000
0001
0000
1000
0000
,
0010
0000
0001
0000
0010
0000
0100
0001
0100
0000
0010
0000
1000
0000
0001
0000
,
0010
0000
0100
0000
1010
0000
0000
0100
0010
0000
0001
0000
1000
0000
0100
0000
,
0001
0000
0100
0000
1100
0000
0000
0010
1000
0000
0100
0000
1000
0000
0001
0000
,
0010
0000
0001
0000
0101
0000
0000
0010
1000
0000
0100
0000
1000
0000
0001
0000
,
1000
0100
0000
0000
0001
0100
0000
0000
1000
0100
0000
0000
0001
0100
0000
0000
,
2000
0000
0010
0000
3010
0000
0100
0000
0001
0000
0010
0000
0001
0000
0000
1000
,
0100
0010
0001
0100
0002
1000
2003
0000
,
3020
0000
1000
0000
1030
0000
0001
0000
0100
0000
0001
0000
0010
0000
0000
0100
,
1000
0001
0010
0100
2000
0010
3020
0000
,
0130
0001
0010
0100
1000
0010
2000
0000
,
3001
0010
0001
0100
0010
1000
0002
0000
,
0013
0000
0001
0000
0100
0000
0010
0000
0000
0000
1000
0000
0100
0000
0000
1000
,
0001
0100
0010
0100
0001
0100
0010
0100
,
0002
0000
0000
0000
1003
0000
0010
0000
0000
0000
1000
0000
0001
0000
0000
0100
,
0010
0000
0000
0000
1000
0100
0000
0000
0001
0100
0000
0000
1000
0100
0000
0000
,
0002
0000
0000
0000
0013
0000
0001
0000
0000
0000
0100
0000
0010
0000
0000
1000
,
0200
2300
3002
0023
,
0230
0000
1300
0020
0000
0130
0002
0000
,
0013
0001
0100
0010
0100
0001
2000
0000
,
3001
0010
0100
1000
0000
0001
0100
0000
,
0002
0023
0230
2300
,
3001
0000
0000
0000
;
