#TITLE:Waiting;
#ARTIST:nc ft. NRG Factory;
#BANNER:Waiting.png;
#BACKGROUND:Waiting-bg.png;
#JACKET:Waiting-jacket.png;
#MUSIC:Waiting.ogg;
#SAMPLESTART:33.333;
#SAMPLELENGTH:20;
#DISPLAYBPM:180;
#BPMS:0=180;
#BGCHANGES:;

//---------------dance-single - ----------------
#NOTES:
     dance-single:
     :
     Beginner:
     3:
     :
0000
0000
0000
0000
,
0000
0000
0000
0000
,
0000
0000
0000
0000
,
0000
0000
0000
0000
,
0000
0000
0000
0000
,
0000
0000
0000
0000
,
0000
0000
0000
0000
,
0000
0000
0000
0000
,
0000
0000
0000
0000
,
0001
0000
0100
0000
,
0100
0000
0000
0000
,
0001
0000
0010
0000
,
0010
0000
0000
0000
,
0001
0000
0100
0000
,
0100
0000
0000
0000
,
0001
0000
0010
0000
,
0010
0000
0000
0000
,
1000
0000
0100
0000
,
0100
0000
0000
0000
,
1000
0000
0010
0000
,
0010
0000
0000
0000
,
1000
0000
0100
0000
,
0100
0000
0000
0000
,
1000
0000
0010
0000
,
0010
0000
0000
0000
,
0001
0000
0100
0000
,
0001
0000
0100
0000
,
0001
0000
0100
0000
,
0001
0000
0000
0000
,
1000
0000
0100
0000
,
1000
0000
0100
0000
,
1000
0000
0100
0000
,
1000
0000
0000
0000
,
0001
0000
0010
0000
,
0001
0000
0010
0000
,
0010
0000
0010
0000
,
0010
0000
0000
0000
,
1000
0000
0010
0000
,
1000
0000
0010
0000
,
0010
0000
0010
0000
,
0010
0000
0000
0000
,
1001
0000
0000
0000
,
0000
0000
0000
0000
,
0000
0000
0000
0000
,
0000
0000
0000
0000
,
0001
0000
0001
0000
,
0001
0000
0001
0000
,
0001
0000
0001
0000
,
0001
0000
0001
0000
,
0010
0000
0010
0000
,
0001
0000
0001
0000
,
0100
0000
0100
0000
,
0001
0000
0000
0000
,
1000
0000
1000
0000
,
0010
0000
0010
0000
,
1000
0000
1000
0000
,
0100
0000
0000
0000
,
0001
0000
0001
0000
,
0100
0000
0100
0000
,
0001
0000
0010
0000
,
0001
0000
0000
0000
,
1000
0000
1000
0000
,
0100
0000
0100
0000
,
1000
0000
0010
0000
,
1000
0000
0000
0000
,
0001
0000
0100
0000
,
0001
0001
0001
0000
,
0010
0000
0010
0000
,
0010
0000
0000
0000
,
1000
0000
0100
0000
,
1000
1000
1000
0000
,
0010
0000
0010
0000
,
0010
0000
0000
0000
,
0001
0000
0001
0000
,
0010
0000
0010
0000
,
0001
0000
0001
0000
,
0100
0000
0000
0000
,
1000
0000
0100
0000
,
1000
0000
0100
0000
,
1000
0000
0010
0000
,
1000
0000
0000
0000
,
1001
0000
0000
0000
,
0000
0000
0000
0000
;

//---------------dance-single - ----------------
#NOTES:
     dance-single:
     :
     Easy:
     6:
     :
0000
0000
0000
0000
,
0000
0000
0000
0000
,
0000
0000
0000
0000
,
0000
0000
0000
0000
,
0000
0000
0000
0000
,
0000
0000
0000
0000
,
0000
0000
0000
0000
,
0000
0000
0000
0000
,
0000
0000
0000
0000
,
1000
0100
1000
0000
,
1001
0000
0000
0000
,
0001
0100
0001
0000
,
1001
0000
0000
0000
,
0010
1000
0010
0000
,
0110
0000
0000
0000
,
0001
0010
0001
0000
,
0110
0000
0000
0000
,
0000
1001
0000
0110
,
0000
1001
0000
0000
,
0000
0011
0000
1100
,
0000
0011
0000
0000
,
0000
1010
0000
0101
,
0000
1010
0000
0000
,
0000
1001
0000
0110
,
2002
0000
0000
3003
,
1000
0000
0100
0100
0000
0000
1000
0000
,
0100
0100
0000
0000
1001
0000
0000
0000
,
0001
0000
0100
0100
0000
0000
0001
0000
,
0100
0100
0000
0000
0010
0000
0010
0000
,
1000
0000
0010
0010
0000
0000
1000
0000
,
0010
0010
0000
0000
0110
0000
0000
0000
,
0001
0000
0010
0010
0000
0000
0001
0000
,
0010
0010
0000
0000
2002
0000
3003
0000
,
0100
0010
1000
0001
,
0100
0001
0010
0100
,
1000
0010
0100
0010
,
1000
0001
0100
0100
,
0001
1000
0010
0100
,
0001
0010
0100
1000
,
0100
0010
0001
1000
,
0010
0100
0001
1000
,
2002
0000
0000
0000
,
0000
0000
0000
0000
,
0000
0000
0000
0000
,
0000
0000
3003
0000
,
0010
0000
0010
0000
,
1000
0000
1000
0000
,
0100
0000
0100
0000
,
0001
0000
0001
0000
,
0010
0000
0001
0000
,
0100
0000
1000
0000
,
0010
0000
0001
0000
,
0100
0000
1000
0000
,
0001
0001
0001
0000
,
1000
1000
1000
0000
,
0001
0001
1000
1000
,
0000
0000
0000
0000
,
0001
1000
0010
0000
,
1000
0001
0010
0000
,
0100
1000
0100
1000
,
0001
0100
0001
0100
,
0000
0110
1001
0000
,
0001
0100
1000
0100
,
0001
0001
1000
1000
,
0100
0100
0100
0100
,
0000
0010
0100
0001
,
1000
0010
0100
0001
,
1000
1000
0010
0010
,
0100
0010
0100
0010
,
0000
0110
1001
0000
,
1000
0100
1000
0100
,
0001
0001
0100
0100
,
1000
0010
0100
0000
,
0001
1000
0001
1000
,
0001
1000
0001
0000
,
1000
0001
1000
0001
,
1000
0001
1000
0000
,
0010
0100
0010
0100
,
0001
1000
0001
1000
,
0100
0010
0100
0010
,
0001
1000
0001
1000
,
1001
0000
0000
0000
,
0000
0000
0000
0000
;

//---------------dance-single - ----------------
#NOTES:
     dance-single:
     :
     Medium:
     10:
     :
0000
0000
0000
0000
,
0000
0000
0000
0000
,
0000
0000
0000
0000
,
0000
0000
0000
0000
,
0000
0000
0000
0000
,
0000
0000
0000
0000
,
0000
0000
0000
0000
,
0000
0000
0000
0000
,
0000
0000
0000
0000
,
0001
0000
0000
0001
0000
0000
0001
0000
0000
0000
0000
0000
1000
0000
0100
0000
,
0010
0011
1000
1001
,
1000
0000
0000
1000
0000
0000
1000
0000
0000
0000
0000
0000
0001
0000
0100
0000
,
0010
1010
0001
1001
,
0010
0000
0000
0010
0000
0000
0010
0000
0000
0000
0000
0000
0100
0000
0001
0000
,
1000
1001
0010
0110
,
0100
0000
0000
0100
0000
0000
0100
0000
0000
0000
0000
0000
0010
0000
1000
0000
,
0002
0000
0000
0003
,
0000
0000
1001
0000
0100
0010
1000
0000
,
0000
0000
1001
0000
0010
0100
0001
0000
,
0000
0000
0110
0000
0001
1000
0100
0000
,
0000
0000
0110
0000
0001
1000
0010
0000
,
0000
0000
1010
0000
0100
0001
1000
0000
,
0000
0000
1100
0000
0001
1000
0010
0000
,
0000
0000
0101
0000
0010
1000
0001
0000
,
2002
0000
0000
3003
,
0100
0000
0010
1000
0000
0010
1000
0000
,
0001
0100
0000
0001
0100
0000
0000
0000
,
1000
0000
0001
0010
0000
0001
0010
0000
,
0100
1000
0000
0100
1000
0000
1000
0000
,
0100
0000
0010
0001
0000
0010
0001
0000
,
1000
0100
0000
1000
0100
0000
0000
0000
,
0001
0000
1000
0010
0000
1000
0010
0000
,
0100
0001
0000
0100
0002
0000
0003
0000
,
0001
0010
0100
0000
0010
0100
1000
0000
,
0010
1000
0100
0000
0010
0000
0001
0000
,
1000
0010
0100
0000
0010
0100
0001
0000
,
0010
0001
0100
0000
0010
0000
0100
0000
,
0001
1000
0100
0000
0010
0001
1000
0000
,
0010
1000
0010
0000
0100
0000
0001
0000
,
1000
0001
0010
0000
0100
1000
0001
0000
,
0010
0001
0010
0000
0100
1000
0100
0000
,
0020
0000
0000
0000
,
0000
0000
0000
0000
,
0000
0000
0000
0000
,
0000
0000
0030
0000
,
1000
0000
1001
0000
,
0010
0000
0110
0000
,
0001
0000
1001
0000
,
0100
0000
0110
0000
,
1000
0010
0100
0000
,
1000
0100
0010
0000
,
0001
0010
0100
0000
,
0001
0100
0010
0000
,
0001
0001
1000
1000
,
0010
0010
0100
0100
,
0001
0100
0001
0000
1000
0100
1000
0000
,
0020
0000
0100
0130
,
1000
0100
0000
1000
0001
0000
1001
0000
,
0001
0100
0000
0001
1000
0000
0010
0100
,
0020
0130
0110
1001
,
1000
0000
0000
0001
0000
0000
0100
0000
0010
0000
0000
0000
0110
0000
0000
0000
,
0000
0010
0100
1001
,
0001
0010
0000
0001
1000
0000
0001
0010
,
0100
1000
1001
0010
,
1001
0110
1001
0100
,
0000
0000
1001
0000
0010
1000
0100
0000
,
1000
0001
0000
1000
0100
0000
0010
0100
,
1000
0001
1000
0100
,
0001
0000
0000
0100
0000
0000
0010
0000
1000
0000
0000
0000
0002
0000
0000
0000
,
0023
0000
0130
0000
1000
0100
0010
0000
,
0001
0100
0000
0001
0010
0000
0001
0000
,
1000
1000
0100
0100
,
0001
0010
0100
1000
0002
0000
0003
0000
,
0001
0010
0001
0000
1000
0100
1000
0000
,
0010
1000
0010
0000
0100
0001
0100
0000
,
0001
0100
0010
0000
1000
0010
0100
0000
,
0010
1000
0100
0000
0010
0001
0100
0000
,
0010
0010
0110
0110
,
1000
1000
1001
1001
,
0001
0001
0011
0011
,
1000
0100
0001
0100
1000
0010
0100
0000
,
1001
0000
0000
0000
,
0000
0000
0000
0000
;

//---------------dance-single - ----------------
#NOTES:
     dance-single:
     :
     Hard:
     13:
     :
0000
0000
0000
0000
,
0000
0000
0000
0000
,
0000
0000
0000
0000
,
0000
0000
0000
0000
,
0000
0000
0000
0000
,
0000
0000
0000
0000
,
0000
0000
0000
0000
,
0000
0000
0000
0000
,
0000
0000
0000
0000
,
0001
0000
0000
0001
0000
0000
0001
0000
0000
0000
0000
0000
1000
0000
0010
0000
,
0100
0010
1000
1001
,
0001
0000
0000
0001
0000
0000
0001
0000
0000
0000
0000
0000
0100
0000
1000
0000
,
0100
0001
0010
0110
,
1000
0000
0000
1000
0000
0000
1000
0000
0000
0000
0000
0000
0001
0000
0010
0000
,
0100
0010
0001
1001
,
1000
0000
0000
1000
0000
0000
1000
0000
0000
0000
0000
0000
0010
0000
0100
0000
,
0010
0000
0000
0200
,
0300
0000
0010
1000
0001
0000
0010
0001
,
1000
0000
0010
0100
0010
0000
1001
0000
,
0010
0000
0000
0010
0000
0000
0010
0000
0000
0000
0000
0000
0001
0000
1000
0000
,
0100
0000
0100
0010
0100
0000
1001
0000
,
0010
0000
0000
0010
0000
0000
0010
0000
0000
0000
0000
0000
0001
0000
1000
0000
,
0010
0000
0010
0100
0010
0000
1001
0000
,
0100
0000
0000
0100
0000
0000
0100
0000
0000
0000
0000
0000
0001
0000
0100
0000
,
1000
0000
0000
0000
,
1000
0000
0100
0001
0100
0000
1000
0000
,
0010
0100
0000
0100
0002
0000
0003
0000
,
0001
0000
0100
1000
0100
0000
0001
0000
,
0010
0100
0000
0100
1000
0000
1001
0000
,
0001
0000
0100
1000
0100
0000
0001
0000
,
0100
0010
0000
0010
2000
0000
3000
0000
,
1000
0000
0100
0001
0100
0000
1000
0000
,
0100
0010
0000
0010
0002
0000
0003
0000
,
1000
0100
0010
0100
0010
0001
0100
0010
,
0100
1000
0001
0010
1000
0100
0010
0001
,
0010
0100
1000
0100
1000
0001
0100
1000
,
0001
0010
1000
0010
0100
0000
0110
0000
,
0001
0010
0100
0010
0100
1000
0010
0100
,
0010
0001
1000
0100
0001
0010
0100
1000
,
0100
0010
0001
0010
0001
1000
0010
0001
,
1000
0000
0100
0001
0100
0001
0100
0000
0001
1000
0001
1000
0001
0000
0000
0000
,
2002
0000
0000
0000
,
0000
0000
0000
0000
,
0000
0000
0000
0000
,
0000
0000
3003
0000
,
0001
0000
0011
0000
,
1000
0000
1100
0000
,
0010
0000
1010
0000
,
0100
0000
0101
0000
,
0010
1000
0100
0000
0010
0001
0100
0000
,
0001
0010
1000
0000
0001
0100
1000
0000
,
0001
0100
1000
0000
0001
0010
1000
0000
,
0100
1000
0010
0000
0100
0001
0010
0000
,
0001
0100
0010
0100
1000
0100
0001
0000
,
1000
0100
0010
0100
0001
0100
1000
0000
,
1000
0010
0100
0001
0100
0010
1000
0001
,
1000
0100
1000
0000
0001
0010
0100
1000
0000
0000
0001
1000
0001
1000
0001
0000
,
1000
0010
0100
0010
1000
0001
1000
0000
,
0001
0010
0100
0010
0001
0100
1000
0100
,
0001
1000
0001
0000
0010
0100
0010
0100
,
0011
0000
0000
0000
0000
0000
0000
0000
0000
0110
0000
0000
0000
0000
0000
0000
0000
0000
0101
0000
0000
0000
0000
0000
0000
0000
0000
0000
0000
0000
0000
0000
0000
0000
0000
0000
0001
0000
0000
0000
1000
0000
0000
0000
0001
0000
0000
0000
,
0000
1010
0011
1001
,
1000
0010
0100
0010
1000
0100
0001
0100
,
1000
0001
0010
0000
0010
0001
1000
0000
,
0001
0010
0001
0010
0100
1000
1001
0000
,
0000
0000
1001
0000
1000
0010
1001
0000
,
1000
0010
1000
0010
0100
0001
0100
0010
,
1000
0100
0010
0001
1000
0100
0010
0100
,
1100
0000
0000
1010
0000
0000
1100
0000
0010
0000
0000
0000
1010
0000
0000
0000
,
0011
1001
0110
0100
,
0001
0010
0001
0010
0100
1000
0100
0010
,
0001
0100
0010
0001
0010
0100
0001
1000
,
0100
0000
0010
0000
0001
0000
1000
0000
0001
1000
0001
1000
0001
0000
0000
0000
,
0001
0000
1000
0100
1000
0000
0000
0000
1000
0000
0001
0100
0001
0000
0000
0000
,
0001
0010
0100
1000
0010
0100
0001
0000
,
1000
0000
0001
0010
0001
0000
0000
0000
0001
0000
1000
0010
1000
0000
0000
0000
,
1000
0010
0100
0001
0010
0100
1000
0000
,
1010
0011
0101
1100
,
1010
1100
0101
0011
,
1010
0100
0101
0000
0011
0100
1100
0000
,
0001
0000
0100
0000
0010
0000
1000
0000
0001
0010
0001
0010
0100
0000
1000
0100
,
0010
0000
0000
0000
,
0000
0000
0000
0000
;

//---------------dance-single - ----------------
#NOTES:
     dance-single:
     :
     Challenge:
     16:
     :
0000
0000
0000
0000
,
0000
0000
0000
0000
,
0000
0000
0000
0000
,
0000
0000
0000
0000
,
0000
0000
0000
0000
,
0000
0000
0000
0000
,
0000
0000
0000
0000
,
0000
0000
0000
0000
,
0000
0000
0000
0000
,
0011
0000
0000
0011
0000
0000
0011
0000
0011
0000
0000
0000
1000
0100
0001
0100
,
1000
0000
0010
0000
0200
0310
0000
0000
0001
0000
0000
0000
2000
0001
0000
3000
,
1100
0000
0000
1100
0000
0000
1100
0000
1100
0000
0000
0000
0001
0100
1000
0100
,
0001
0000
0010
0000
1000
0000
0000
0000
0110
0000
0000
0000
2000
0001
0000
3000
,
0101
0000
0000
0101
0000
0000
0101
0000
0101
0000
0000
0000
0001
0010
1000
0010
,
0001
0000
0100
0000
2000
3000
0000
0000
0010
0000
0000
0000
0200
0001
0000
0300
,
1010
0000
0000
1010
0000
0000
1010
0000
1010
0000
0000
0000
1000
0010
0001
0010
,
2000
0000
0000
0000
0100
0000
0100
0000
0000
0000
0001
0000
3001
0000
1000
0100
,
0001
0000
0000
0000
1010
0000
0100
0000
0010
0000
0100
0000
0001
0010
0100
1000
,
0010
0000
0100
0000
0010
0000
0001
0100
1000
0000
0010
1000
0100
0000
0010
0000
,
0101
0000
0000
0101
0000
0000
0101
0000
0101
0000
0000
0000
0010
1000
0100
1000
,
0001
0000
1001
0010
0100
0110
0001
0100
,
0010
1000
0000
1000
0100
0000
0010
0000
0001
0000
1000
0000
0010
1000
0010
0100
,
0001
0000
0010
0000
0001
0100
0010
0100
0001
0000
1000
0000
0200
1000
0000
0000
,
0310
0001
0000
0001
1000
0000
0010
0000
0100
0000
0001
0000
1000
0100
0001
0100
,
2000
0000
0000
0000
0010
0000
0010
0000
0000
0000
0001
0000
3001
0100
1000
0100
,
0001
0010
1000
1000
0010
1000
0100
0010
,
0100
0000
1000
0000
0010
0000
0100
0000
0002
0000
0000
0000
0013
0001
0010
0100
,
1000
0001
1000
0100
0010
0001
0100
0100
,
1000
0000
0100
0000
0001
0000
0010
0000
0001
0100
0001
0000
0100
0001
0100
0000
,
0010
0100
0100
0001
0010
1000
0100
0001
,
1000
0000
0001
0000
0001
0000
0010
0000
0020
0000
0000
0000
1030
0001
0100
0010
,
1000
0100
0100
0001
0010
0001
0100
0010
,
0001
0000
0010
0000
1000
0000
0100
0000
1000
0001
0010
0100
1000
0010
0100
0001
,
0010
0001
0100
1000
0010
0001
1000
0001
,
0010
0000
1000
0000
0100
0000
0001
0010
0002
0000
0000
0000
0103
0010
1000
0001
,
0010
0000
1000
0000
0100
0000
0001
0000
1000
0000
0010
0000
0001
0010
0100
0000
,
1000
0000
0010
0000
1000
0000
0001
0000
0010
0001
0100
0000
0010
1000
0100
0000
,
0001
0010
1000
0001
0010
0001
0100
1000
,
0010
0000
1000
0000
0001
0000
0010
0000
0200
0000
0000
0000
1300
0100
0010
0001
,
0100
0001
0010
1000
0010
0001
0100
1000
,
0010
0000
0100
0001
0100
0001
0100
0001
1000
0000
0010
0100
0010
0100
0010
0100
,
0001
0000
0010
0100
1000
0010
1000
0001
,
0100
0010
0100
1000
0100
0010
0100
1000
,
0100
0000
0001
0010
0001
1000
0100
0010
,
1000
0010
0100
0001
0010
1000
0001
0100
,
0010
1000
0100
0001
0010
0100
0001
1000
,
0010
0100
0001
1000
0010
0001
0100
1000
,
0010
1000
1000
1000
0010
0001
0001
0001
,
0010
1000
0001
1000
0010
0100
0001
0100
,
0110
0001
0010
1000
0110
0100
0010
0001
,
0110
0100
0010
0100
0110
0001
0010
0100
,
1001
1000
0010
0001
1001
1000
0001
0100
,
1001
0001
0010
0001
1001
0001
0100
0001
,
0010
0001
1000
0001
0100
0010
0100
1000
,
0010
1000
1000
0001
0100
0100
0001
0010
,
0100
0010
0001
0010
1000
1000
0100
0001
,
1000
0010
1000
0010
0100
0001
0100
0001
0010
0000
0001
0010
0100
1000
0100
0010
,
0001
0000
0100
0000
1000
0000
0010
0000
1000
0000
0001
0000
2020
0000
0000
0030
,
3010
0000
1000
0000
0100
0000
1000
0000
0001
0010
0001
0000
1000
0100
1000
0000
,
0010
0000
0100
0000
0202
0000
0000
0003
0310
0000
1000
0000
0100
0000
0001
0000
,
1100
0000
0000
0000
0000
0000
0000
0000
0000
0011
0000
0000
0000
0000
0000
0000
0000
0000
1100
0000
0000
0000
0000
0000
0010
0000
0000
0000
0000
0000
0100
0000
0000
0000
0000
0000
0001
0000
0000
0000
0010
0000
0000
0000
0100
0000
0000
0000
,
1000
0000
1001
0010
1001
0010
0100
0000
,
0001
0010
0001
0000
0100
0000
1000
0010
1000
0000
0100
0000
0010
0001
0010
0000
,
0110
0001
0100
0010
0110
1000
0100
0010
,
0110
0001
0110
1000
0110
0001
0110
0000
,
1000
0010
1000
0010
1000
0000
0100
0000
0010
0000
0001
0000
0200
0010
0300
0000
,
0100
0000
0001
0000
0010
0000
0001
0000
1000
0000
0100
0010
0001
0000
0001
0000
,
1000
0100
0001
0010
0001
0100
1000
0010
,
0011
0000
0000
1010
0000
0000
0011
0000
1010
0000
0000
0000
1000
0100
0010
0001
,
1000
0000
0000
0100
0000
0000
0010
0000
0000
0001
0000
0000
0100
0000
0000
0010
0000
0000
0100
0000
0000
0010
0000
0000
0100
0000
0000
0000
0000
0000
0001
0000
0000
0000
0000
0000
0020
0000
0000
1000
0030
0000
0000
0000
0000
0000
0000
0000
,
1001
0000
0010
0000
1000
0000
0100
0000
0010
0000
0001
0000
0100
0001
0010
0001
,
1000
0000
0010
0100
0010
0000
1000
0001
1000
0000
0100
0010
0100
0000
1000
0000
,
0001
0100
0001
0100
0001
0010
0001
0010
0001
1000
0001
1000
0001
0000
0000
0000
,
0101
0000
0010
1000
0100
0000
0010
0001
0100
0000
0010
1000
0100
0000
0000
0000
,
0011
0000
1000
0010
1000
0000
0001
0010
0001
0000
0100
0010
0000
0100
0001
0000
,
0010
0000
0001
1000
0001
0000
0010
0100
1000
0000
0001
0100
0001
0000
0000
0000
,
1000
0000
0010
1000
0001
0000
0010
0001
0100
0000
0010
1000
0200
0000
0000
0000
,
0310
0000
0001
0100
0001
0000
0100
0001
0100
0000
0001
0100
0001
0000
0100
0010
,
0100
0000
0010
0100
0010
0000
0100
0010
0100
0000
0010
0100
0010
0000
1000
0001
,
1000
0000
0001
1000
0001
0000
0100
0010
0100
0000
0010
0100
0010
0000
1000
0100
,
1000
0000
0001
0100
0001
0000
1000
0100
1000
0000
0010
0100
0000
0100
0001
0000
,
0020
0000
0000
0000
,
0000
0000
0000
0000
,
0030
0000
0000
0000
;

//---------------dance-double - ----------------
#NOTES:
     dance-double:
     :
     Easy:
     7:
     :
00000000
00000000
00000000
00000000
,
00000000
00000000
00000000
00000000
,
00000000
00000000
00000000
00000000
,
00000000
00000000
00000000
00000000
,
00000000
00000000
00000000
00000000
,
00000000
00000000
00000000
00000000
,
00000000
00000000
00000000
00000000
,
00000000
00000000
00000000
00000000
,
00000000
00000000
00000000
00000000
,
10000000
01000000
00100000
00000000
,
00110000
00000000
00000000
00000000
,
00100000
00001000
00010000
00000000
,
00011000
00000000
00000000
00000000
,
00010000
00000010
00000100
00000000
,
00000110
00000000
00000000
00000000
,
00000100
00000001
00000010
00000000
,
00000011
00000000
00000000
00000000
,
00000000
00000001
00000100
00000001
,
00000000
00001000
00000100
00000010
,
00000000
00000100
00001000
00000100
,
00000000
00010000
00001000
00010000
,
00000000
00001000
00100000
00001000
,
00000000
00100000
00010000
01000000
,
00000000
00010000
10000000
00020000
,
20000000
00000000
00000000
30030000
,
10000000
00000000
00100000
00100000
00000000
00000000
10000000
00000000
,
00100000
00100000
00000000
00000000
00110000
00000000
00000000
00000000
,
00100000
00000000
00001000
00001000
00000000
00000000
00100000
00000000
,
00001000
00001000
00000000
00000000
00010000
00000000
00010000
00000000
,
00000100
00000000
00001000
00001000
00000000
00000000
00000100
00000000
,
00001000
00001000
00000000
00000000
00001100
00000000
00000000
00000000
,
00000001
00000000
00000010
00000010
00000000
00000000
00000001
00000000
,
00000010
00000010
00000000
00000000
00000022
00000000
00000033
00000000
,
00000001
00000010
00000001
00000100
,
00000010
00001000
00000100
00010000
,
00001000
00100000
00001000
00010000
,
00001000
01000000
00100000
00100000
,
10000000
01000000
10000000
00100000
,
10000000
01000000
00100000
00001000
,
00010000
00000100
00001000
00000100
,
00000010
00000001
00000010
00000100
,
00000220
00000000
00000000
00000000
,
00000000
00000000
00000000
00000000
,
00000000
00000000
00000000
00000000
,
00000330
00000000
00000000
00000000
,
00001000
00000000
00001000
00000000
,
00010000
00000000
00010000
00000000
,
00000100
00000000
00000100
00000000
,
00010000
00000000
00010000
00000000
,
00001000
00000000
00001000
00000000
,
01000000
00000000
01000000
00000000
,
00001000
00000000
00001000
00000000
,
00010000
00000000
00010000
00000000
,
00001000
01000000
00010000
00000000
,
01000000
00001000
00010000
00000000
,
00000100
00010000
00001000
00010000
,
00000000
00000000
00000000
00000000
,
00001000
00010000
00100000
00000000
,
00100000
10000000
01000000
00000000
,
01000000
10000000
01000000
10000000
,
00100000
01000000
00001000
00010000
,
00000000
00011000
00011000
00000000
,
00010000
00001000
00000100
00001000
,
00000200
00000300
00000020
00000030
,
00001000
00000100
00001000
00000100
,
00000000
00000100
00000010
00000001
,
00001000
00000010
00000100
00001000
,
00020000
00030000
00200000
00300000
,
01000000
00100000
01000000
00100000
,
00000000
01100000
10010000
00000000
,
10000000
00100000
00010000
00000000
,
00001000
00000000
00010000
00000000
,
00001000
00001000
00001000
00000000
,
00100000
00010000
00100000
00000000
,
00001000
00100000
00001000
00000000
,
00010000
00001000
00010000
00000000
,
00000100
00010000
00000100
00000000
,
00000010
00000001
00000010
00000001
,
00000100
00001000
00000100
00001000
,
00010000
00100000
00010000
00100000
,
10000000
00010000
10000000
01000000
,
00010000
00000000
00000000
00000000
,
00000000
00000000
00000000
00000000
;

//---------------dance-double - ----------------
#NOTES:
     dance-double:
     :
     Medium:
     10:
     :
00000000
00000000
00000000
00000000
,
00000000
00000000
00000000
00000000
,
00000000
00000000
00000000
00000000
,
00000000
00000000
00000000
00000000
,
00000000
00000000
00000000
00000000
,
00000000
00000000
00000000
00000000
,
00000000
00000000
00000000
00000000
,
00000000
00000000
00000000
00000000
,
00000000
00000000
00000000
00000000
,
00001000
00000000
00000000
00001000
00000000
00000000
00001000
00000000
00000000
00000000
00000000
00000000
00000100
00000000
00001000
00000000
,
00000100
00001000
00011000
00000000
,
00010000
00000000
00000000
00010000
00000000
00000000
00010000
00000000
00000000
00000000
00000000
00000000
01000000
00000000
00010000
00000000
,
01000000
00010000
00011000
00000000
,
00001000
00000000
00000000
00001000
00000000
00000000
00001000
00000000
00000000
00000000
00000000
00000000
00000010
00000000
00001000
00000000
,
00000010
00001000
00011000
00000000
,
00010000
00000000
00000000
00010000
00000000
00000000
00010000
00000000
00000000
00000000
00000000
00000000
00100000
00000000
00010000
00000000
,
00200000
00000000
00000000
00300000
,
00000000
10100000
10000000
01000000
,
00000000
01010000
01000000
00001000
,
00000000
00011000
00010000
00000100
,
00000000
00001100
00001000
00000001
,
00000000
00000101
00000001
00000010
,
00000000
00001010
00000010
00010000
,
00000000
00011000
00001000
01000000
,
00200000
00000000
00000000
00300000
,
00100000
00000000
10000000
01000000
00000000
00100000
00001000
00000000
,
00010000
00001000
00000000
00010000
00000100
00000000
00000000
00000000
,
00001000
00000000
00000100
00000010
00000000
00000001
00000010
00000000
,
00000001
00000100
00000000
00000010
00001000
00000000
00001000
00000000
,
00000100
00000000
00010000
00001000
00000000
00100000
00001000
00000000
,
00100000
00010000
00000000
10000000
00100000
00000000
00000000
00000000
,
10000000
00000000
00100000
01000000
00000000
00001000
00010000
00000000
,
00000100
00001000
00000000
00000100
00000010
00000000
00000000
00000000
,
00000001
00000010
00000100
00000000
00000010
00000000
00000100
00000000
,
00000010
00000100
00001000
00000000
00000100
00000000
00010000
00000000
,
00001000
00100000
00010000
00000000
01000000
00000000
00010000
00000000
,
01000000
00010000
10000000
00000000
01000000
00000000
01000000
00000000
,
10000000
00100000
01000000
00000000
00100000
00000000
01000000
00000000
,
00100000
01000000
00010000
00000000
01000000
00000000
00001000
00000000
,
00010000
00000010
00001000
00000000
00000010
00000000
00001000
00000000
,
00000010
00001000
00000001
00000000
00000010
00000001
00000010
00000000
,
00000200
00000000
00000000
00000000
,
00000000
00000000
00000000
00000000
,
00000000
00000000
00000000
00000000
,
00000000
00000000
00000300
00000000
,
00000001
00000010
00000001
00000000
,
00000100
00000010
00000100
00000000
,
00000010
00001000
00000010
00000000
,
00010000
00001000
00010000
00000000
,
00001000
00100000
00001000
00000000
,
00100000
00010000
00100000
00000000
,
00010000
01000000
00010000
00000000
,
10000000
00100000
10000000
00000000
,
00100000
10000000
00100000
10000000
,
00010000
00100000
00010000
00100000
,
01000000
00100000
00010000
00000000
00010000
01000000
00001000
00000000
,
00020000
00000000
00000000
00030000
,
00001000
00000010
00000000
00001000
00000010
00000000
00000011
00000000
,
00000001
00000100
00000000
00000001
00000100
00000000
00000101
00000000
,
00000010
00010000
00001000
01000000
,
00010000
00000000
00000000
00010000
00000000
00000000
00010000
00000000
10000000
00000000
00000000
00000000
00100000
00000000
00000000
00000000
,
01000000
00010000
10000000
00000000
01000000
10000000
01000000
00000000
,
00100000
00010000
00000000
00100000
00010000
00000000
01000000
00000000
,
00001000
00010000
00001000
00000000
00010000
00001000
00010000
00000000
,
00001100
00000110
00000011
00000100
,
00000000
00000000
00000110
00000000
00000001
00001000
00000100
00000000
,
00000010
00000100
00000000
00000010
00000100
00000000
00001000
00000000
,
00000010
00000100
00000010
00000000
00000100
00001000
00000100
00000000
,
00001000
00000000
00000000
00001000
00000000
00000000
00001000
00000000
00010000
00000000
00000000
00000000
00110000
00000000
00000000
00000000
,
10100000
00000000
10010000
00000000
01000000
10000000
01000000
00000000
,
00100000
00010000
00000000
00100000
00010000
00000000
01000000
00000000
,
00100000
10000000
01000000
00000000
00100000
00010000
01000000
00000000
,
00001000
00010000
00001000
00010000
00002000
00000000
00003000
00000000
,
00011000
00000000
00011000
00000000
00010000
00000010
00000100
00000000
,
00000110
00000000
00000110
00000000
00000001
00001000
00000100
00000000
,
00010100
00000000
00010100
00000000
00000100
00010000
00001000
00000000
,
00101000
00000000
00101000
00000000
00100000
00010000
10000000
00000000
,
00100000
10000000
01000000
00110000
,
01000000
00001000
00010000
00101000
,
00010000
00000100
00000010
00000001
,
00000001
00000001
00000100
00000000
00001000
00010000
01000000
00000000
,
10000000
00000000
00000000
00000000
,
00000000
00000000
00000000
00000000
;

//---------------dance-double - ----------------
#NOTES:
     dance-double:
     :
     Hard:
     13:
     :
00000000
00000000
00000000
00000000
,
00000000
00000000
00000000
00000000
,
00000000
00000000
00000000
00000000
,
00000000
00000000
00000000
00000000
,
00000000
00000000
00000000
00000000
,
00000000
00000000
00000000
00000000
,
00000000
00000000
00000000
00000000
,
00000000
00000000
00000000
00000000
,
00000000
00000000
00000000
00000000
,
00000010
00000000
00000000
00000010
00000000
00000000
00000010
00000000
00000000
00000000
00000000
00000000
00000100
00000000
00000001
00000000
,
00000010
00001000
00010000
00011000
,
00010000
00000000
00000000
00010000
00000000
00000000
00010000
00000000
00000000
00000000
00000000
00000000
01000000
00000000
10000000
00000000
,
01000000
10000000
00100000
01100000
,
01000000
00000000
00000000
01000000
00000000
00000000
01000000
00000000
00000000
00000000
00000000
00000000
00100000
00000000
00010000
00000000
,
00001000
00000100
00000001
00001001
,
00000100
00000000
00000000
00000100
00000000
00000000
00000100
00000000
00000000
00000000
00000000
00000000
00000010
00000000
00001000
00000000
,
00010000
00000000
00000000
00022000
,
00033000
00000000
01000000
10000000
00100000
00000000
01000000
00010000
,
00100000
00000000
00001000
00010000
00001000
00000000
00011000
00000000
,
00010000
00000000
00000000
00010000
00000000
00000000
00010000
00000000
00000000
00000000
00000000
00000000
00001000
00000000
00010000
00000000
,
00000100
00000000
00001000
00000100
00000010
00000000
00000110
00000000
,
00000001
00000000
00000000
00000001
00000000
00000000
00000001
00000000
00000000
00000000
00000000
00000000
00000100
00000000
00000001
00000000
,
00000100
00000000
00000001
00000010
00001000
00000000
00011000
00000000
,
01000000
00000000
00000000
01000000
00000000
00000000
01000000
00000000
00000000
00000000
00000000
00000000
00010000
00000000
01000000
00000000
,
10000000
00000000
00000000
00000000
,
10000000
00000000
10000000
00100000
00000000
00100000
01000000
00000000
,
01000000
00001000
00000000
00001000
00020000
00000000
00030000
00000000
,
00001000
00000000
00010000
00001000
00000000
00001000
00000010
00000000
,
00000010
00000001
00000000
00000001
00001000
00000000
00001000
00000000
,
00000001
00000000
00000001
00000100
00000000
00000100
00000010
00000000
,
00000010
00010000
00000000
00010000
00002000
00000000
00003000
00000000
,
00010000
00000000
00001000
00010000
00000000
00010000
01000000
00000000
,
01000000
10000000
00000000
10000000
00020000
00000000
00030000
00000000
,
10000000
01000000
00100000
00000000
00010000
01000000
00100000
00000000
,
00010000
00001000
00100000
00000000
00001000
00010000
00001000
00000000
,
00010000
00001000
00000100
00000000
00000010
00001000
00000100
00000000
,
00000010
00000001
00000010
00000000
00001001
00000000
00000000
00000000
,
00000001
00000010
00000100
00000000
00001000
00000010
00000100
00000000
,
00001000
00010000
00000100
00000000
00010000
00001000
00010000
00000000
,
00001000
00010000
00100000
00000000
01000000
00010000
00100000
00000000
,
01000000
10000000
01000000
00010000
01000000
10000000
00100000
00020000
,
00002000
00000000
00000000
00000000
,
00000000
00000000
00000000
00000000
,
00000000
00000000
00000000
00000000
,
00000000
00000000
00033000
00000000
,
00010000
00000000
00101000
00000000
,
00010000
00000000
01001000
00000000
,
00001000
00000000
00010100
00000000
,
00001000
00000000
00010010
00000000
,
00001000
00000010
00000100
00000000
00000010
00010000
00001000
00000000
,
00010000
00001000
00100000
00000000
00010000
10000000
01000000
00000000
,
10000000
01000000
00010000
00000000
01000000
00010000
00001000
00000000
,
00010000
00001000
00000010
00000000
00001000
00000010
00000001
00000000
,
00000001
00000100
00000010
00001000
00000100
00000010
00001000
00000000
,
00010000
01000000
00100000
00010000
10000000
00100000
01000000
00000000
,
00010000
01000000
00010000
01000000
00010000
10000000
00010000
10000000
,
01000000
00000000
00010000
00001000
00010000
00000000
00001000
00000000
00000100
00000001
00000100
00000000
00000001
00000000
00000000
00000000
,
00000100
00000001
00000100
00000001
00000010
00000100
00000110
00000000
,
00000010
00000001
00000010
00000001
00000100
00000001
00000100
00000010
,
00010000
00001000
00011000
00000000
00100000
01000000
00100000
01000000
,
00100000
00000000
00000000
00000000
00000000
00000000
00000000
00000000
00000000
00100000
00000000
00000000
00000000
00000000
00000000
00000000
00000000
00000000
00100000
00000000
00000000
00000000
00000000
00000000
00000000
00000000
00000000
00000000
00000000
00000000
00000000
00000000
00000000
00000000
00000000
00000000
00010000
00000000
00000000
00000000
10000000
00000000
00000000
00000000
00010000
00000000
00000000
00000000
,
00000000
10010000
01100000
10010000
,
10000000
00100000
01000000
00100000
10000000
01000000
00100000
01000000
,
10000000
00100000
00110000
00000000
00010000
00001000
00011000
00000000
,
00001000
00000100
00001000
00000100
00000001
00000010
00000011
00000000
,
00000000
00000000
00001001
00000000
00000010
00000100
00000001
00000000
,
00000001
00000100
00000001
00000100
00001000
00010000
00001000
00010000
,
00100000
10000000
01000000
00100000
00001000
00010000
00100000
00010000
,
00001000
00000000
00000000
00001000
00000000
00000000
00001000
00000000
00010000
00000000
00000000
00000000
00011000
00000000
00000000
00000000
,
00001100
00000110
00001001
00000100
,
00000001
00000010
00001000
00000010
00000100
00010000
00001000
00100000
,
00010000
01000000
00100000
00010000
00100000
10000000
01000000
00100000
,
00001000
00000000
00010000
00000000
00000100
00000000
00010000
00000000
00001000
00010000
00001000
00010000
00001000
00000000
00000000
00000000
,
00010000
00000100
00001100
00000000
00000001
00000010
00000011
00000000
,
00000001
00000010
00001000
00010000
01000000
10000000
00010000
00000000
,
01000000
00100000
10100000
00000000
00010000
01000000
01010000
00000000
,
10000000
00100000
00010000
00001000
00000100
00000001
00001000
00000000
,
00001100
00000101
00001010
00011000
,
00010100
00011000
00101000
00110000
,
01000000
00100000
10000000
00100000
01000000
00010000
00100000
00010000
,
01000000
00100000
00010000
00001000
00000100
00000010
00001000
00010000
,
00011000
00000000
00000000
00000000
,
00000000
00000000
00000000
00000000
;
