#TITLE:WICKeD CRφSS;
#SUBTITLE:;
#ARTIST:OSTER project;
#TITLETRANSLIT:WICKeD CROSS;
#SUBTITLETRANSLIT:;
#ARTISTTRANSLIT:;
#GENRE:;
#CREDIT:;
#BANNER:WICKeD CRφSS-bn.png;
#BACKGROUND:WICKeD CRφSS-bg.png;
#LYRICSPATH:;
#CDTITLE:;
#MUSIC:WICKeD CRφSS.ogg;
#OFFSET:0.000000;
#SAMPLESTART:25.333000;
#SAMPLELENGTH:20.000000;
#SELECTABLE:YES;
#DISPLAYBPM:120.000000:180.000000;
#BPMS:0.000000=180.000000
,292.000000=172.000000
,296.000000=150.000000
,300.000000=132.000000
,304.000000=120.000000
;
#STOPS:
;
#BGCHANGES:;
#KEYSOUNDS:;
#ATTACKS:;

//---------------dance-single - ----------------
#NOTES:
     dance-single:
     :
     Beginner:
     4:
     0.184759,0.284529,0.110856,0.064666,0.000000,140.000000,128.000000,12.000000,7.000000,0.000000,0.000000,0.184759,0.284529,0.110856,0.064666,0.000000,140.000000,128.000000,12.000000,7.000000,0.000000,0.000000:
0000
0000
0000
0000
,
0000
0000
0000
0000
,
0000
0000
0000
0000
,
0000
0000
0000
0000
,
0000
0000
0000
0000
,
0000
0000
0000
0000
,
2000
0000
3000
0000
,
0002
0000
0003
0000
,
1001
0000
0000
0000
,
0010
0000
0010
0000
,
1000
0000
1000
0000
,
0001
0000
0001
0000
,
0100
0000
0100
0000
,
0001
0000
0010
0000
,
0100
0000
1000
0000
,
0010
0000
0100
0000
,
0001
0000
1000
0000
,
0100
0000
0010
0000
,
0110
0000
0000
0000
,
0001
0000
0001
0000
,
0001
0000
0100
0000
,
0010
0000
1000
0000
,
1000
0000
0100
0000
,
1000
0000
0010
0000
,
0100
0000
0001
0000
,
1001
0000
0110
0000
,
1000
1000
1000
0000
,
0001
0000
0010
0000
,
0001
0000
0100
0000
,
1000
0000
0001
0000
,
1000
0000
0010
0000
,
0110
0000
0001
0000
,
1001
0000
1000
0000
,
0100
0000
0100
0000
,
0110
0000
0000
0000
,
0001
0000
0000
1000
,
0000
0000
0001
0000
,
0000
0100
0000
0000
,
0010
0000
0000
1000
,
0000
0000
0100
0000
,
0000
0010
0000
0000
,
1001
0000
0000
1000
,
1000
1000
1000
0000
,
0000
0010
0010
0010
,
0010
0000
0000
0100
,
0000
0000
0001
0000
,
0000
1000
0000
0000
,
1001
0000
0000
0000
,
0020
0000
0030
0000
,
0110
0000
0000
0000
,
1000
0000
0100
0000
,
1000
0000
0001
0001
,
0010
0000
0001
0000
,
0100
0000
1000
0000
,
0010
0000
1000
0000
,
0001
0000
1000
1000
,
0100
0000
0010
0000
,
0001
0000
0010
0010
,
0200
0000
0300
0000
,
1000
0001
1000
0001
,
1000
0000
0010
0000
,
0100
0000
0001
0000
,
1000
0000
1000
0000
,
0100
0000
0100
0000
,
0001
0000
0001
0000
,
0010
0000
0010
0000
,
0001
0000
0100
0000
,
0001
0000
0010
0000
,
0100
0000
1000
0000
,
0010
0000
1000
0000
,
0001
0000
1000
0000
,
0110
0000
0000
0000
,
0000
0000
0000
0000
,
0020
0000
0030
0000
,
0200
0000
0300
0000
,
0002
0000
0000
0000
,
0003
0000
0000
0000
,
1001
0000
0000
0000
;

//---------------dance-single - ----------------
#NOTES:
     dance-single:
     :
     Easy:
     8:
     0.378756,0.545617,0.240187,0.341805,0.000000,287.000000,261.000000,26.000000,37.000000,0.000000,0.000000,0.378756,0.545617,0.240187,0.341805,0.000000,287.000000,261.000000,26.000000,37.000000,0.000000,0.000000:
0000
0000
0000
0000
,
0000
0000
0000
0000
,
0000
0000
0000
0000
,
0000
0000
0000
0000
,
0000
0000
0000
0000
,
0000
0000
0000
0000
,
2000
0010
0100
3001
,
0020
1000
0001
0130
,
0220
0000
0000
0330
,
0001
0010
0001
0100
,
1000
0010
1000
0100
,
0010
0001
1000
0001
,
0010
0100
1000
0001
,
1000
0000
0010
0000
1000
0001
0100
0000
,
0001
0000
0010
0000
0100
1000
0010
0000
,
0100
0000
0001
0000
1000
0100
0001
0000
,
0010
0100
1100
0101
,
2000
3200
0320
0032
,
0200
0000
0000
0303
,
1001
0010
1000
0001
,
0010
0100
1000
0010
,
0100
0001
0010
0001
,
0100
1000
0010
0100
,
0001
0010
0001
0100
,
1000
0010
1000
0001
,
0010
0001
0100
0000
0010
1000
0100
0000
,
0010
0100
0001
1000
,
0110
1000
0100
0010
,
0001
0100
0001
1000
,
1001
0001
0010
0001
,
0100
0010
1000
0100
,
1100
0001
1000
0100
,
0101
0010
1000
0001
,
1000
0010
0100
0001
,
2002
0000
0000
3003
,
0010
1000
0100
0010
,
0100
1000
0001
0100
,
0010
0100
0001
1000
,
0100
0010
0100
1000
,
0010
0001
1000
0001
,
0010
0100
1000
0001
,
0011
0100
1000
0002
,
0010
0103
1010
1000
,
0100
2000
0010
3001
,
0110
0001
0010
2000
,
0000
3002
0000
0000
0013
0000
0010
0000
,
0010
0100
0100
0100
,
2200
0000
0000
3300
,
0020
0001
0100
1030
,
0202
0000
0000
0303
,
1000
0010
1000
0100
,
0010
0000
0001
0000
1000
0001
0100
0000
,
0001
0010
0100
1000
,
0010
0000
0100
0000
0001
1000
0001
1000
,
0100
0010
0001
0100
,
1000
0000
0010
0000
1000
0100
0001
0000
,
0010
0100
1000
0010
,
1000
0000
0001
0000
0100
0010
0100
0000
,
0001
0001
0001
0001
,
1001
0110
1001
0110
,
1000
0000
0001
0000
1000
0010
0100
0000
,
2020
3030
0022
0033
,
0010
0001
0100
1000
,
0001
1000
0100
0010
,
0001
0100
0001
0010
,
0001
0100
1000
0010
,
1000
0000
0100
0000
1000
0100
0010
0000
,
0001
0000
1000
0000
0010
0100
0001
0000
,
0010
0000
0100
0000
1000
0010
0001
0000
,
0100
0010
0101
1100
,
0002
2003
3020
0230
,
0002
0000
0000
0000
,
0000
0000
0000
0303
,
0022
0000
0000
0033
,
0220
0000
0000
0330
,
2200
0000
0000
0000
,
0000
0000
0000
3300
,
2002
0000
0000
0000
,
0000
0000
0000
3003
;

//---------------dance-single - ----------------
#NOTES:
     dance-single:
     :
     Medium:
     13:
     0.605746,0.654740,0.295615,0.360280,0.096999,459.000000,427.000000,32.000000,39.000000,0.000000,0.000000,0.605746,0.654740,0.295615,0.360280,0.096999,459.000000,427.000000,32.000000,39.000000,0.000000,0.000000:
0000
0000
0000
0000
,
0000
0000
0000
0000
,
0000
0000
0000
0000
,
0000
0000
0000
0000
,
0000
0000
0000
0000
,
0000
0000
0000
0000
,
2000
3020
0230
0302
,
0013
0010
0100
0100
1000
1000
0001
0001
,
0200
0320
2030
3002
,
0013
1000
0100
0001
0100
0010
1000
0001
,
0100
1000
0010
0001
1000
0010
0001
0100
,
1000
0100
0001
0010
1000
0010
0100
0001
,
0100
0010
1000
0100
0001
1000
0010
0001
,
0100
0010
1000
0100
0001
1000
0010
0001
,
0010
1000
0100
0001
0100
1000
0001
0010
,
0100
1000
0001
1000
0010
0001
0100
0010
,
1000
0000
0000
0100
0000
0000
0010
0000
0000
0001
0000
0000
0100
0000
0000
0000
0010
0000
1000
0000
0000
0000
0001
0000
,
1000
0000
1000
0100
0000
0100
0010
0000
0010
0001
0000
0002
,
2000
0000
0003
3010
,
1001
0010
0110
0100
,
0101
0000
1000
0001
1000
0010
0100
0001
,
0011
1000
1100
0010
,
1010
0000
1000
0001
1000
0010
0100
0001
,
0011
0000
1000
0000
0001
0010
0100
1000
,
1010
0000
0001
0000
0100
0010
1000
0001
,
0010
0001
0100
0001
0010
0100
1000
0001
,
1000
0010
0100
0001
0010
0100
1000
0010
,
0110
0000
0010
1000
0001
0000
0010
0100
,
1000
0001
1000
0010
0100
1000
0100
0001
,
1001
0000
0010
0001
0100
0000
0001
0010
,
1000
0100
0001
0100
0010
1000
0010
0001
,
1100
0000
0000
0101
0000
0000
0010
0000
0010
1000
0000
1000
,
0100
0000
0000
0010
0000
0010
0001
0000
0001
1000
0000
1000
,
0001
0000
0001
1000
0000
1000
0010
0000
0010
0100
0000
0100
,
0002
0010
1000
0103
,
0011
1000
0001
0100
,
0010
1000
0100
0010
0110
0000
1000
0000
,
0001
0000
0100
0000
0001
1000
0001
0010
,
0101
0100
0010
1000
,
0100
0010
0001
1000
0010
0000
1000
0000
,
0100
0000
1000
0001
0010
0100
1000
0001
,
1100
0000
0001
1000
0100
0010
0011
0000
,
0110
0000
1100
0000
1001
0000
0100
0001
,
1000
0010
1010
0000
1001
0000
0101
0000
,
1100
0000
0001
1000
0010
1000
0200
0000
,
0000
0320
0000
0000
0032
0000
2003
0000
,
3002
0023
0230
2300
,
0020
0000
0000
3030
,
1000
1000
0100
0100
0010
0010
0001
0001
,
0200
0320
2030
3002
,
1003
0100
0010
0001
0100
1000
0100
0010
,
0100
1000
0100
0001
0010
0100
2000
0000
,
3010
0100
0010
1000
0100
0001
0100
1000
,
0010
1000
0010
0001
0010
0100
0001
1000
,
0100
0001
0100
0010
0100
1000
0001
0100
,
1000
0100
0010
1000
0100
0010
0002
0000
,
1003
0100
0001
0100
0010
0100
1000
0001
,
0100
0010
1000
0001
0010
0010
0010
0000
,
2000
0100
0001
3010
,
1100
0101
1100
0101
,
0010
0001
1000
0100
1000
0001
0100
0010
,
2000
3100
0020
0031
,
1000
0010
0001
0100
0001
1000
0010
0100
,
1000
0001
0100
0001
0010
1000
0010
0100
,
1000
0010
0100
0001
0100
0010
1000
0010
,
1000
0100
0001
0100
1000
0010
0001
0010
,
1000
0100
0100
0001
0010
1000
0010
0001
,
0001
0100
1000
0010
1000
0001
0100
0010
,
1000
0001
0010
0100
0001
1000
0010
0100
,
1000
0000
0000
0001
0000
0000
0100
0000
0000
0010
0000
0000
1000
0000
0000
0000
0001
0000
0010
0000
0000
0000
0100
0000
,
1000
0000
1000
0010
0000
0010
0100
0000
0100
0001
0000
0002
,
2000
0000
0000
0000
,
0000
0000
0003
3010
,
2020
0000
0000
3030
,
0202
0000
0000
0303
,
2200
0000
0000
0000
,
0000
0000
0000
3300
,
2002
0000
0000
0000
,
0000
0000
0000
3003
;

//---------------dance-single - ----------------
#NOTES:
     dance-single:
     :
     Hard:
     17:
     0.830097,0.945736,0.221711,0.175521,0.711323,629.000000,605.000000,24.000000,19.000000,0.000000,0.000000,0.830097,0.945736,0.221711,0.175521,0.711323,629.000000,605.000000,24.000000,19.000000,0.000000,0.000000:
// measure 0
0000
0000
0000
0000
,  // measure 1
0000
0000
0000
0000
,  // measure 2
0000
0000
0000
0000
,  // measure 3
0000
0000
0000
0000
,  // measure 4
0000
0000
0000
0000
,  // measure 5
0000
0000
0000
0000
,  // measure 6
1000
1000
0100
0100
0010
0010
0001
0001
,  // measure 7
0100
0100
0010
0010
1000
1000
0001
0001
,  // measure 8
0010
0100
1000
0001
0100
0010
0001
1000
,  // measure 9
0010
0000
1000
0100
1000
0000
0001
0000
0010
0001
0100
0001
1000
0000
0010
0000
,  // measure 10
0100
0000
0001
1000
0001
0000
0010
0000
0100
1000
0010
1000
0001
0000
0100
0000
,  // measure 11
0001
0000
0010
0100
0010
0000
0001
0000
1000
0100
1000
0001
0100
0000
0010
0000
,  // measure 12
1000
0000
0100
0010
0001
0000
1000
0001
0010
0100
0010
0100
1000
0001
1000
0001
,  // measure 13
0100
0000
0001
0010
0100
0000
1000
0000
0001
1000
0001
0010
0100
0000
1000
0000
,  // measure 14
0010
0000
0100
0001
0010
0000
0100
0000
1000
0001
0010
0100
1000
0000
0001
0000
,  // measure 15
0100
0000
0001
1000
0100
0000
0010
0000
0001
0100
0001
1000
0010
0000
0100
0000
,  // measure 16
0001
0000
0000
0000
0000
0000
1000
0000
0000
0100
0000
0000
1000
0000
0000
0000
0000
0000
0010
0000
0000
0000
0000
0000
0100
0000
0000
0000
0001
0000
0000
0000
0010
0000
0000
0000
0001
0000
0000
0000
0100
0000
0000
0000
1000
0000
0000
0000
,  // measure 17
0001
0100
0010
1000
0001
0010
1000
0100
0001
1000
0010
0200
,  // measure 18
0002
0000
0300
1003
,  // measure 19
1001
0000
0010
0100
0001
0000
0010
0100
,  // measure 20
1000
0001
0010
0100
0010
0001
0100
1000
,  // measure 21
0110
0000
1000
0001
0100
0000
0001
0010
,  // measure 22
0100
0010
1000
0001
0010
1000
0100
0001
,  // measure 23
0011
0000
1000
0001
1000
0100
0010
0001
,  // measure 24
1100
0000
0010
0100
0010
1000
0100
0001
,  // measure 25
1000
0100
1000
0000
0001
0100
0001
0000
1000
0100
0010
0001
0010
0100
1000
0001
,  // measure 26
1000
0000
0001
0010
0001
0000
0100
0000
0010
0000
1000
0001
1000
0000
0100
0000
,  // measure 27
0010
0100
0001
1000
1000
0001
0010
0100
,  // measure 28
0001
0010
0100
0001
0010
1000
0010
0100
,  // measure 29
1000
0010
0001
0100
0010
0100
0001
1000
,  // measure 30
1000
0010
0001
0100
1000
0100
1000
0001
,  // measure 31
0101
0000
0000
0001
0010
0100
1000
0001
1000
0100
0010
0001
,  // measure 32
0100
0000
0000
0010
1000
0001
0010
0001
0100
0001
1000
0100
,  // measure 33
1000
0001
0100
0010
0001
0010
0100
1000
0001
0100
0010
1000
,  // measure 34
0002
0010
1000
0103
,  // measure 35
1010
0000
0100
0010
0001
0100
0010
1000
,  // measure 36
0100
1000
0001
1000
0010
0000
0100
0001
,  // measure 37
1000
0001
0010
0100
1000
0010
0100
0010
,  // measure 38
0100
0000
0001
0010
0001
0100
0010
1000
,  // measure 39
0001
1000
0100
0010
0001
0000
1000
0001
,  // measure 40
0010
0000
0100
0000
1000
0000
0010
0000
0100
0001
0100
0001
1000
0100
1000
0100
,  // measure 41
0010
0000
0000
0000
0001
0000
1000
0000
0001
0000
0100
0000
0001
0010
0001
0010
,  // measure 42
0100
0010
0100
0010
1000
0010
1000
0010
0001
0000
0000
0000
1000
0000
0001
0000
,  // measure 43
0100
0000
0010
0000
1000
0100
1000
0100
0010
0100
0010
0100
0001
0100
0001
0100
,  // measure 44
1000
0000
0010
1000
0001
0010
0200
1000
,  // measure 45
1300
0002
0100
0103
0011
0000
0101
0000
,  // measure 46
1001
1010
1100
0110
,  // measure 47
0022
0000
0000
0033
,  // measure 48
1000
1000
0001
0001
0100
0100
0010
0010
,  // measure 49
0100
0001
0100
1000
0010
1000
0001
0010
,  // measure 50
0100
0000
1000
0000
1000
0000
0010
0100
0001
0000
0010
0001
1000
0000
0100
0000
,  // measure 51
1000
0010
0100
0010
1000
0000
0001
0000
0010
0100
1000
0000
1001
0000
0000
0000
,  // measure 52
0100
0000
0010
0000
1000
0000
0001
0000
0010
0100
1000
0001
0100
0010
1000
0000
,  // measure 53
0001
0010
0100
1000
0100
0010
0001
0000
1000
0000
0001
0000
0010
0000
0100
0000
,  // measure 54
1000
0000
0001
0000
0001
0000
0010
0001
0100
0000
0001
1000
0100
0000
0010
0000
,  // measure 55
0001
1000
0100
1000
0001
0000
0010
0000
0100
1000
0010
0000
0110
0000
0000
0000
,  // measure 56
0001
0000
1000
0000
0100
0000
1000
0000
0010
0001
0010
1000
0100
0000
0010
0000
,  // measure 57
0001
1000
0001
0010
0100
0000
1000
0000
1100
0000
1001
0000
0101
0000
0000
0000
,  // measure 58
1000
0001
0000
0000
0001
1000
0000
0000
1000
0001
0000
0000
0001
1000
0000
0000
,  // measure 59
0010
0100
1000
0001
1000
0100
0001
0010
0100
0010
1000
0001
,  // measure 60
0010
0100
1000
0000
0001
0100
0010
0000
1000
0000
0001
0000
1000
0000
0100
0000
,  // measure 61
1020
0130
0021
0130
,  // measure 62
1000
0000
0001
0010
0100
0000
1000
0000
0001
0010
0100
0010
0001
0000
1000
0000
,  // measure 63
0100
0000
1000
0010
0100
0000
0001
0000
1000
0001
1000
0100
0010
0000
0001
0000
,  // measure 64
0100
0000
0001
0010
0100
0000
1000
0000
0001
1000
0100
0010
0100
0000
1000
0000
,  // measure 65
0010
0000
1000
0001
1000
0000
0100
0000
0010
0001
0010
0001
1000
0100
0010
0100
,  // measure 66
1000
0000
0001
1000
0100
0000
0010
0000
0001
0100
1000
0100
0010
1000
0100
0000
,  // measure 67
0010
0000
0001
0010
0100
0000
1000
0000
0010
0001
0010
1000
0100
0010
0001
0000
,  // measure 68
0100
0000
0001
1000
0100
0000
0010
0000
1000
0010
0001
0100
0010
1000
0001
0000
,  // measure 69
0010
0000
0000
0000
0000
0000
0001
0000
0000
0100
0000
0000
0010
0000
0000
0000
0000
0000
1000
0000
0000
0000
0000
0000
0100
0000
0000
0000
1000
0000
0000
0000
0001
0000
0000
0000
0010
0000
0000
0000
0001
0000
0000
0000
0100
0000
0000
0000
,  // measure 70
0001
0100
1000
0010
0100
1000
0001
0010
0100
0001
0010
2000
,  // measure 71
0002
0000
0000
0000
,  // measure 72
0000
0000
3000
0013
,  // measure 73
2200
0000
0000
3300
,  // measure 74
2020
0000
0000
3030
,  // measure 75
0202
0000
0000
0000
,  // measure 76
0000
0000
0000
0303
,  // measure 77
2002
0000
0000
0000
,  // measure 78
0000
0000
0000
3003
;
