#TITLE:WHAT'S UP?;
#SUBTITLE:(KCP GRANDALE MIX);
#ARTIST:DJ MIKO;
#TITLETRANSLIT:;
#SUBTITLETRANSLIT:;
#ARTISTTRANSLIT:;
#GENRE:;
#CREDIT:;
#BANNER:WHAT'S UP (KCP GRANDALE MIX)-bn.png;
#BACKGROUND:WHAT'S UP (KCP GRANDALE MIX)-bg.png;
#LYRICSPATH:;
#CDTITLE:;
#MUSIC:WHAT'S UP (KCP GRANDALE MIX).ogg;
#OFFSET:0.000000;
#SAMPLESTART:67.062004;
#SAMPLELENGTH:20.000000;
#SELECTABLE:YES;
#DISPLAYBPM:171.000000:172.000000;
#BPMS:0.000000=171.333328
,32.000000=171.720001
,176.000000=172.000000
,192.000000=171.720001
;
#STOPS:
;
#BGCHANGES:;
#KEYSOUNDS:;
#ATTACKS:;

//---------------dance-single - ----------------
#NOTES:
     dance-single:
     :
     Hard:
     13:
     0.610719,0.579544,0.286195,0.125210,0.192287,478.000000,446.000000,32.000000,14.000000,0.000000,0.000000,0.610719,0.579544,0.286195,0.125210,0.192287,478.000000,446.000000,32.000000,14.000000,0.000000,0.000000:
0000
0000
0000
0000
,
0000
0000
0000
0000
,
0000
0000
0000
0000
,
0000
0000
0000
0000
,
0100
0001
0000
0001
,
0100
1000
0000
1000
,
0010
1000
0010
0100
,
0001
0000
0000
0000
0010
0000
0000
0000
0001
0000
0000
0100
0010
0000
1000
0000
,
0100
0000
0010
0001
0000
0010
0001
0000
1000
0000
0000
0010
0000
0000
0100
0000
,
0000
0000
0001
1000
0000
0001
1000
0000
0100
0000
0000
0010
0000
0000
0001
0000
,
0000
0000
0100
0010
0000
0100
0010
0000
1000
0000
0000
0001
0000
0000
0010
0000
,
0000
0000
0100
1000
0000
0100
1000
0000
0010
0000
0000
0100
0001
0000
1000
0000
,
0000
0000
0100
0010
0000
0100
0010
0000
0001
0000
0000
0100
0000
0000
1000
0000
,
0000
0000
0010
1000
0000
0010
1000
0000
0001
0000
0000
1000
0000
0000
0100
0000
,
0000
0000
0010
0001
0000
0010
0001
0000
1000
0000
0000
0001
0000
0000
0100
0000
,
0000
0000
0001
1000
0000
0001
1000
0000
0100
0000
0000
0010
0001
0000
0100
0000
,
0010
0000
0000
0000
1000
0100
1000
0000
0001
0000
0100
0000
0010
0000
1000
0000
,
0001
0010
0100
1000
0010
0100
0001
0000
,
1001
0100
0001
1000
0010
0001
0100
0000
,
0110
0010
1000
0001
0010
0100
1000
0010
,
0100
0001
0010
0100
1000
0010
1000
0001
,
0100
0000
0010
1000
0001
1000
0100
0010
,
0001
0100
0010
1000
0100
0010
0001
0000
,
1000
0001
0000
0010
0100
0000
1000
0001
,
0010
1000
0001
1000
0100
0010
0001
0100
,
0010
1000
0100
0020
0000
0031
0100
0010
,
0000
1020
0000
1030
0010
0100
0001
0000
,
0011
1000
0001
0200
0000
0320
0000
1030
,
0001
0000
0010
0001
1000
0100
1000
0010
,
0100
0000
0001
1000
0010
1000
0100
0010
,
0001
0000
1000
0001
0010
0100
1000
0010
,
1000
0001
0000
0010
0100
1000
1000
0001
,
0101
0000
1100
0000
0010
0100
0001
1000
,
0100
0010
0001
1000
0001
0100
0010
0000
,
1000
0001
0010
0100
1000
0010
0100
0001
,
0000
0011
0000
1100
0001
0100
1000
0000
,
0110
0000
0000
0000
0100
0000
0010
1000
0010
0000
0100
0000
0001
0000
0000
0000
,
0010
0000
0001
1000
1000
0010
0100
0001
,
0010
0100
1000
0001
0100
0010
1000
0000
,
1000
0001
0000
0010
0100
1000
1000
0001
,
1001
0000
1000
0001
1000
0010
0100
0001
,
0010
0100
1000
0002
0000
0100
0203
0000
,
0310
1000
0100
0001
0000
0001
0010
0100
,
0000
1010
0000
0101
1000
0001
0100
0000
,
0110
0000
0000
0000
0001
0000
1000
0100
1000
0000
0010
0000
0100
0000
0001
0000
,
0010
0100
1000
0010
1000
0001
1000
0100
,
0010
1000
0010
0100
0010
0001
0100
0010
,
1000
0001
0010
0100
0000
1000
1000
0000
,
2100
0000
3001
0100
0102
0000
0103
0010
,
1000
0100
1000
0010
0100
0001
0001
0000
,
0012
0000
1003
0010
1020
0000
0130
0001
,
0010
0100
1000
0010
0000
0100
0100
0001
,
0000
0000
0010
0100
0000
0010
0100
0000
1000
0000
0000
0001
0000
0000
0100
0000
,
0000
0010
1000
0001
1000
0100
0010
0001
,
0000
0000
0100
0010
0000
0100
0010
0000
1000
0000
0000
0001
0000
0000
0010
0000
,
0100
1000
0001
0100
0000
0010
1001
0000
,
0201
0000
0310
1000
2100
0000
3001
0100
,
0001
0010
0100
1000
0010
0100
0100
0000
,
1020
0000
0130
0001
0021
0000
0130
1000
,
0010
1000
0001
0010
0000
0100
0100
1000
,
0000
0000
0010
1000
0000
0010
1000
0000
0001
0000
0000
1000
0000
0000
0100
0000
,
0000
0010
0001
1000
0001
0100
0001
0010
,
0000
0000
0001
0100
0000
0001
0100
0000
0010
0000
0000
1000
0000
0000
0001
0000
,
0000
0000
1000
0100
0000
1000
0100
0000
0010
0000
0000
0001
1000
0000
0010
0000
,
0110
0000
0100
0000
0001
1001
0000
0010
,
1100
0000
0001
0000
1000
0000
0100
0010
,
0011
0001
1000
0010
,
0110
0000
1000
0000
0100
0010
0010
0001
,
1001
0000
0100
0000
0010
1010
0000
0001
,
0101
0000
0010
0000
1000
0000
0010
0100
,
1001
0001
1000
0100
,
0110
0001
0100
0010
1000
0100
0001
0000
,
0010
0000
0000
0000
;

//---------------dance-single - ----------------
#NOTES:
     dance-single:
     :
     Medium:
     10:
     0.471455,0.482954,0.375631,0.143097,0.000000,369.000000,327.000000,42.000000,16.000000,0.000000,0.000000,0.471455,0.482954,0.375631,0.143097,0.000000,369.000000,327.000000,42.000000,16.000000,0.000000,0.000000:
0000
0000
0000
0000
,
0000
0000
0000
0000
,
0000
0000
0000
0000
,
0000
0000
0000
0000
0000
0010
1000
0001
,
0000
0100
0000
0100
,
0000
0000
0100
0000
0001
1000
0000
0010
,
0000
1000
0001
0000
0010
0000
0100
0000
,
1000
0000
0010
0000
1000
0000
0001
0100
,
0000
0010
1000
0010
0100
0000
0101
0000
,
0000
0001
0010
0001
1000
0000
1100
0000
,
0000
0010
0100
0001
0100
0000
0110
0000
,
0000
0010
1000
0001
1000
0000
0100
0010
,
0000
0010
0100
0010
0100
0000
1010
0000
,
0000
1000
0001
0100
0001
0000
0011
0000
,
0000
0001
1000
0001
1000
0000
1001
0000
,
0000
0010
0100
0001
1000
0000
1000
0100
,
0000
0000
1000
0100
1000
0000
0010
0100
,
0001
0010
0000
0200
0000
0000
0300
0000
,
1000
0010
1000
0001
0010
0200
0000
0000
,
1300
0001
0000
0011
0000
0110
0000
1100
,
0000
0000
0001
0000
0100
0000
0010
1000
,
0001
0000
1000
0010
0100
0001
0000
0010
,
0000
0100
1000
0000
0001
0000
1000
0010
,
0000
0100
0000
0001
1000
0000
0001
1000
,
0010
1000
0000
0001
0000
1000
0100
0010
,
0001
1000
0000
0010
0000
0100
0010
1000
,
0000
0001
0000
1000
0010
1000
0100
0000
,
0010
0100
0000
1001
0000
0101
0000
1010
,
0000
0000
0001
0000
1000
0010
0100
0001
,
1000
0000
0010
0100
0001
0010
0001
1000
,
0000
0000
0100
0000
0010
0000
0001
1000
,
0000
0010
0000
1000
0001
0000
1000
0001
,
0100
0000
1010
0000
0101
0000
0001
0010
,
0100
1000
0010
0100
0000
0001
1000
0000
,
0010
1000
0100
0010
0000
0001
0000
0101
,
0000
1100
0000
0101
0000
1000
0002
0000
,
0013
0000
0000
0001
1000
0002
0000
0000
,
0103
0000
0000
0010
1000
0010
0100
0001
,
0000
0011
0000
1000
0000
0010
0000
0100
,
0001
1000
0000
0010
0000
1000
0001
1000
,
0010
0000
0010
0100
0001
0000
0001
0010
,
0100
1000
0000
0020
0000
0130
0001
0000
,
1000
0001
1000
0100
0000
0010
0001
1000
,
0000
1100
0000
0011
0000
1000
0020
0000
,
0030
0000
0010
1000
0001
0010
0100
1000
,
0000
0000
1001
0000
0010
0100
0000
0110
,
0000
0001
1000
0010
,
1000
0000
0100
0010
0000
0010
0001
0000
,
2100
3100
0102
0103
,
1001
0000
1000
0010
0000
0100
0001
0000
,
0012
0013
2010
3010
,
0110
0000
0000
0000
0000
0010
1000
0001
,
0000
0000
0100
0000
0010
0000
1000
0001
,
0000
0000
0011
0000
1000
0100
0000
1100
,
0000
0000
0010
0000
0001
0000
1000
0010
,
0000
0000
0100
0010
0000
0010
1000
0000
,
1020
0130
0201
0310
,
0110
0000
0001
1000
0000
1000
0100
0000
,
0012
0103
1200
0310
,
1001
0000
0000
0000
0000
1000
0010
0100
,
0000
0000
0001
0000
0010
0001
1000
0100
,
0000
0000
1010
0000
0001
0100
0000
0101
,
0000
0000
0010
0000
1000
0001
1000
0100
,
0000
0010
0001
1000
0001
0000
1000
0100
,
0010
0001
1000
0010
,
0100
0010
1000
0001
,
0010
0100
1000
0010
,
1000
0001
1000
0100
,
0110
0001
0100
0010
,
1001
1000
0001
0100
,
0110
0010
1000
0001
,
2001
0000
3002
0000
1003
0100
0010
0000
,
0001
0000
0000
0000
;

//---------------dance-single - ----------------
#NOTES:
     dance-single:
     :
     Easy:
     7:
     0.314303,0.386363,0.196759,0.125210,0.000000,246.000000,224.000000,22.000000,14.000000,0.000000,0.000000,0.314303,0.386363,0.196759,0.125210,0.000000,246.000000,224.000000,22.000000,14.000000,0.000000,0.000000:
0000
0000
0000
0000
,
0000
0000
0000
0000
,
0000
0000
0000
0000
,
0000
0000
0000
0000
,
0000
0001
0000
0001
,
0000
1000
0000
1000
,
0000
0010
0000
0010
,
1000
0001
1000
0001
,
0000
0100
0001
0010
,
0000
0001
0100
1000
,
0000
0010
1000
0001
,
0000
1000
0100
0010
,
0000
0001
0100
0010
,
0000
1000
0001
0010
,
0000
0001
0100
1000
,
0000
1000
0010
0100
,
1001
0001
0010
0001
,
0100
0010
2000
3000
,
0001
1000
0010
0100
,
0001
0010
0001
0100
,
1000
0000
0010
0000
,
0010
1000
0001
0010
,
0100
1000
0010
0100
,
0001
0010
0001
1000
,
0110
0100
0010
1000
,
0001
0010
0001
0100
,
1000
1000
0010
0100
,
0001
0010
0001
0100
,
1000
0000
0010
0000
,
0010
1000
0100
0010
,
0001
0100
0001
0010
,
0001
0100
0010
1000
,
1001
1001
1001
0010
,
1000
0100
0010
0001
,
0100
0010
1000
0001
,
1000
0100
0010
0110
,
0110
0000
0002
0003
,
0200
0300
0010
1000
,
0001
0010
0001
0100
,
1000
0010
1000
0001
,
0110
0110
0110
0010
,
1000
0100
0010
0001
,
0100
0010
1000
0001
,
1000
0100
0010
1001
,
0000
1001
1000
0001
,
0010
0100
1000
0001
,
0100
0010
0100
0010
,
1000
0001
0001
0001
,
2000
3000
0020
0030
,
0200
0000
0000
1000
0000
0301
0000
0000
,
0020
0030
0002
0003
,
0110
0010
0001
1000
,
0010
1000
0100
0010
,
0001
1001
1001
0100
,
0010
1000
0100
0010
,
0001
1000
1000
1000
,
0002
0003
0200
0300
,
0020
0000
0000
0001
0000
1030
0000
0000
,
2000
3000
0200
0300
,
1001
0001
0100
1000
,
0010
0100
0001
0010
,
0100
0110
0110
1000
,
0010
1000
0001
0100
,
0001
0010
0100
1000
,
1001
0000
0000
0000
0000
0100
0000
0010
,
0100
0000
0000
0000
,
0110
0000
0000
0000
,
1001
0000
0000
0000
0000
0000
0000
0001
,
1000
0000
0000
0000
0000
0010
0000
0100
,
0010
0000
0000
0000
,
0110
0000
0000
0000
,
0001
2000
0010
3100
,
0010
0000
0000
0000
;

//---------------dance-single - ----------------
#NOTES:
     dance-single:
     :
     Beginner:
     3:
     0.159707,0.225378,0.107323,0.000000,0.000000,125.000000,113.000000,12.000000,0.000000,0.000000,0.000000,0.159707,0.225378,0.107323,0.000000,0.000000,125.000000,113.000000,12.000000,0.000000,0.000000,0.000000:
// measure 0
0000
0000
0000
0000
,  // measure 1
0000
0000
0000
0000
,  // measure 2
0000
0000
0000
0000
,  // measure 3
0000
0000
0000
0000
,  // measure 4
0001
0000
0000
0000
,  // measure 5
1000
0000
0000
0000
,  // measure 6
0010
0000
0010
0000
,  // measure 7
0010
0000
0100
0000
,  // measure 8
0001
0000
0001
0000
,  // measure 9
0010
0000
0010
0000
,  // measure 10
0100
0000
0100
0000
,  // measure 11
1000
0000
1000
0000
,  // measure 12
0010
0000
0010
0000
,  // measure 13
1000
0000
1000
0000
,  // measure 14
0001
0000
0001
0000
,  // measure 15
0100
0000
0100
0000
,  // measure 16
0000
1000
1000
0000
,  // measure 17
0010
0000
0100
0000
,  // measure 18
0001
0000
0010
0000
,  // measure 19
0001
0000
1000
0000
,  // measure 20
1001
0000
0000
0000
,  // measure 21
0000
0010
0010
0000
,  // measure 22
0110
0000
0000
0000
,  // measure 23
0000
0000
0000
0000
,  // measure 24
0001
0000
0010
0000
,  // measure 25
0001
0000
0100
0000
,  // measure 26
1000
0000
0010
0000
,  // measure 27
1000
0000
1000
0000
,  // measure 28
1001
0000
0000
0000
,  // measure 29
0000
0100
0100
0000
,  // measure 30
0110
0000
0000
0000
,  // measure 31
0000
0000
0000
0000
,  // measure 32
1000
1000
1000
0000
,  // measure 33
0010
0010
0010
0000
,  // measure 34
0100
0100
0100
0000
,  // measure 35
0001
0001
0001
0000
,  // measure 36
0000
0000
1001
0000
,  // measure 37
0000
0000
0100
0000
,  // measure 38
0010
0000
0000
0000
,  // measure 39
0000
0000
0000
0000
,  // measure 40
0001
0001
0001
0000
,  // measure 41
0010
0010
0010
0000
,  // measure 42
0100
0100
0100
0000
,  // measure 43
1000
1000
1000
0000
,  // measure 44
0000
0000
0010
0000
,  // measure 45
0100
0000
0001
0000
,  // measure 46
0110
0000
0000
0000
,  // measure 47
0000
1001
0000
0000
,  // measure 48
0010
0000
0010
0000
,  // measure 49
0100
0000
0100
0000
,  // measure 50
0001
0000
1000
0000
,  // measure 51
0001
0000
0000
0100
,  // measure 52
0100
0000
0000
0000
,  // measure 53
0000
0010
0010
0000
,  // measure 54
0110
0000
0000
0000
,  // measure 55
0000
1001
0000
0000
,  // measure 56
1000
0000
1000
0000
,  // measure 57
0001
0000
0001
0000
,  // measure 58
0100
0000
0010
0000
,  // measure 59
0100
0000
0000
0001
,  // measure 60
0001
0000
0000
0000
,  // measure 61
0000
1000
1000
0000
,  // measure 62
0110
0000
0000
0000
,  // measure 63
0000
0000
0000
0000
,  // measure 64
1001
0000
0000
0000
,  // measure 65
0100
0000
0000
0000
,  // measure 66
0100
0000
0000
0000
,  // measure 67
0100
0000
0000
0000
,  // measure 68
0110
0000
0000
0000
,  // measure 69
0010
0000
0000
0000
,  // measure 70
0010
0000
0000
0000
,  // measure 71
1000
1000
0000
0000
,  // measure 72
0001
0000
0000
0000
;
