#TITLE:WAR GAME;
#ARTIST:ASLETICS;
#BANNER:WAR GAME-bn.png;
#BACKGROUND:WAR GAME-bg.png;
#JACKET:WAR GAME-jacket.png;
#MUSIC:WAR GAME.ogg;
#OFFSET:0.025;
#SAMPLESTART:31.587;
#SAMPLELENGTH:20;
#DISPLAYBPM:186;
#BPMS:0=186;
#STOPS:26=1.935;
#BGCHANGES:;

//---------------dance-single - ----------------
#NOTES:
     dance-single:
     :
     Beginner:
     4:
     :
0000
0000
0000
0000
,
0000
0000
0000
0000
,
0000
0000
0000
0000
,
0000
0000
0000
0000
,
0000
0000
0000
0000
,
0000
0000
0000
0000
,
0000
0000
1001
0000
,
0010
0000
0000
1000
,
0000
0000
0100
0000
,
1000
0000
0000
0001
,
0000
0000
0010
0000
,
0001
0000
0000
0100
,
0000
0000
0010
0000
,
0110
0000
1000
0000
,
1000
0000
0001
0000
,
0010
0000
0000
0001
,
0000
0000
0100
0000
,
0001
0000
0000
0010
,
0000
0000
0100
0000
,
1000
0000
0000
0010
,
0000
0000
1000
0000
,
0100
0000
0010
0000
,
0001
0000
0001
0000
,
0100
0000
0000
0000
,
0010
0000
0000
0000
,
1000
0000
1000
0000
,
1000
0000
0001
0000
,
0010
0000
0000
0000
,
0100
0000
0000
0000
,
0010
0000
0001
0000
,
0100
0000
0100
0000
,
1001
0000
0000
0000
,
0000
0000
0000
0000
,
0000
0000
0010
0000
,
1000
0000
0100
0000
,
0000
0000
1000
0000
,
0001
0000
0010
0000
,
0000
0000
0110
0000
,
0000
0000
1001
0000
,
0110
0000
0000
0000
,
0001
0000
1000
0000
,
0100
0000
0000
0000
,
1000
0000
0010
0000
,
0100
0000
0000
0000
,
0001
0000
0010
0000
,
0001
0000
0000
0000
,
0100
0000
1000
0000
,
0010
0000
0000
0000
,
1000
0000
0000
0000
,
0001
0000
0100
0000
,
0001
0000
0010
0000
,
0100
0000
0000
0000
,
1000
0000
0000
0000
,
0010
0000
0010
0000
,
0100
0000
0001
0000
,
0010
0000
0000
0000
,
0001
0000
0000
0000
,
1000
0000
0001
0000
,
0010
0000
0001
0000
,
0100
0000
0000
0000
,
0001
0000
0000
0000
,
1000
0000
1000
0000
,
0001
0000
0100
0000
,
0010
0000
0000
1000
,
0000
0000
0001
0000
,
0100
0000
0000
0001
,
0000
0000
0010
0000
,
0001
0000
0000
0100
,
0000
0000
1000
0000
,
0100
0000
0000
1000
,
0000
0000
0010
0000
,
0100
0100
0000
0001
,
0000
1000
1000
0000
,
0020
0000
0000
0000
,
0000
0000
0030
0000
,
0100
0100
0000
0001
,
0000
1000
0000
0001
,
0001
0000
0200
0000
,
0000
0000
0300
0000
,
0010
0000
0000
0000
,
1000
0000
0000
0000
,
0100
0000
1000
0000
,
0010
0000
0100
0000
,
0001
0000
0000
0000
,
0100
0000
0000
0000
,
0001
0000
0010
0000
,
0001
0000
1000
0000
,
0100
0000
0000
0000
,
0010
0000
0000
0000
,
0001
0000
0100
0000
,
0001
0000
0100
0000
,
0110
0000
0000
0000
,
1000
1000
1000
0000
,
1001
0000
0000
0000
;

//---------------dance-single - ----------------
#NOTES:
     dance-single:
     :
     Easy:
     8:
     :
0000
0000
0000
0000
,
0000
0000
0000
0000
,
0000
0000
0000
0000
,
0000
0000
0000
0000
,
0000
0000
0000
0000
,
0000
0000
0000
0000
,
0000
0000
1001
0000
,
1000
0100
0010
0001
,
0100
0010
1000
0001
,
1000
0010
0100
0010
,
1000
0100
0010
0001
,
0100
0010
0100
0001
,
0010
0100
1000
0001
,
0110
0001
0100
0010
,
1000
0100
1000
0001
,
0010
0100
0010
0001
,
0100
0010
1000
0100
,
1000
0010
0100
0001
,
0010
0100
1000
0001
,
0010
0001
0100
0010
,
1000
0100
1000
0001
,
0010
0100
0010
0100
,
0010
0100
1000
0010
,
0100
0001
1000
1001
,
0001
0100
0010
0110
,
1000
0100
1000
0001
,
0100
0010
0010
1000
,
0001
0100
1000
1001
,
0010
1000
0100
0110
,
0010
0001
0010
0001
,
0100
0100
0100
0100
,
1001
1000
0100
1000
,
0001
0001
0001
0000
,
0000
0100
0001
0010
,
0001
0100
1000
1000
,
0000
0100
1000
0010
,
0100
0001
0010
0000
,
0001
0100
0010
1000
,
0000
0110
1001
0110
,
0001
0010
0001
0100
,
1000
0010
1000
0001
,
0010
0100
1000
0010
,
0100
0010
1000
0100
,
0001
0010
0001
0100
,
0010
0001
0010
1000
,
0100
0010
0100
1000
,
0010
0100
0001
1000
,
0010
1000
0100
0110
,
0001
0100
0010
1001
,
1000
0100
1000
0010
,
0100
0001
0001
0010
,
0001
0100
0010
0110
,
1000
0001
0010
1001
,
0100
0010
0100
0010
,
1000
0100
1001
0110
,
0100
0001
0010
0110
,
0001
0100
1000
1001
,
0010
1000
0100
0010
,
0001
0100
0001
0010
,
0100
1000
0010
0110
,
0010
1000
0100
1001
,
0001
0010
0001
0100
,
1000
1000
1000
1000
,
0010
1000
0100
0010
,
0100
1000
0010
0100
,
0010
1000
0001
0010
,
0001
0100
0001
0010
,
0100
0010
0100
1000
,
0010
1000
0100
0001
,
0010
0001
0100
1000
,
0010
1000
0100
0010
,
0001
0001
1000
0010
,
0000
0100
0110
0000
,
0001
1000
0001
0100
,
0010
1000
1001
0000
,
1000
0001
0000
0110
,
0000
1000
0000
1001
,
0002
0000
2000
0000
,
0000
0000
0000
3003
,
0010
1000
0100
0110
,
0010
0001
1000
1001
,
0010
1000
0100
0010
,
0001
0100
0001
0010
,
0100
1000
0001
1001
,
0010
1000
0100
0110
,
0010
0001
0010
0001
,
0100
0100
0100
0100
,
0010
1000
0100
0110
,
0001
0100
0001
1001
,
0010
0100
1000
0001
,
0100
0010
0100
0001
,
0210
0000
0020
0330
,
1001
0110
1001
0110
,
1001
0000
0000
0000
;

//---------------dance-single - ----------------
#NOTES:
     dance-single:
     :
     Medium:
     12:
     :
0000
0000
0000
0000
,
0000
0000
0000
0000
,
0000
0000
0000
0000
,
0000
0000
0000
0000
,
0000
0000
0000
0000
,
0000
0000
0000
0000
,
0000
0000
1001
0110
,
1000
0100
1000
0000
1010
0000
0001
0100
,
0001
0000
0011
0000
1000
0100
0001
0000
,
0010
0100
0010
0000
0011
0000
0001
1000
,
0001
0000
1100
0000
0010
1000
0100
0000
,
1000
0010
1000
0000
1001
0000
0010
0100
,
0001
0000
0011
0000
0100
0001
0100
0000
,
0110
0000
0001
0100
0001
0000
1000
0100
,
1000
0000
1010
0000
0010
0100
0001
0000
,
0010
0001
1000
0000
1100
0000
0010
0100
,
0001
0000
0101
0000
0100
0001
0010
0000
,
0100
1000
0001
0000
1010
0000
1000
0100
,
0010
0000
0011
0000
0001
1000
0010
0000
,
0100
0001
0010
0000
0110
0000
0100
1000
,
0001
0000
0101
0000
0010
1000
0001
0000
,
0010
0001
0100
0000
1001
0000
1000
0010
,
0001
0000
0011
0000
0100
0010
1000
0000
,
1100
0000
1000
0001
2000
0000
3000
0000
,
0101
0000
0001
0010
0002
0000
0003
0000
,
0001
1000
0100
1000
0001
0100
0010
1000
,
0100
0000
1000
0001
2000
0000
3000
0000
,
0100
0000
0001
1000
0001
0010
0000
0000
,
0100
1000
0010
1000
0200
0000
0300
0000
,
1000
0010
0100
0001
1000
0100
0010
0001
,
2000
3002
2003
3002
,
0013
0000
0001
0100
0010
0100
0001
0010
,
0100
1000
0001
1000
0100
0000
0000
0000
,
0000
0000
1000
0010
1000
0010
0100
0000
,
0001
0010
0001
0010
0100
1000
0001
0100
,
0000
0000
0010
1000
0010
1000
0100
0010
,
0001
0100
0001
0100
0001
0000
0000
0000
,
0010
0001
1000
0000
1100
0000
0101
0000
,
0000
0000
0100
0001
0100
0000
0100
0000
,
0010
1000
0100
0000
1001
0000
0010
0001
,
0100
0000
1010
0000
0001
0100
1000
0000
,
0100
0010
0100
0000
0110
0000
1000
0010
,
0001
0000
0101
0000
0010
1000
0100
0000
,
1000
0001
0010
0000
0011
0000
0100
0010
,
1000
0000
1010
0000
0010
1000
0001
0000
,
0100
0010
0100
0000
0110
0000
0010
0100
,
0010
0000
1010
0000
1000
0001
0010
0000
,
0011
0000
1000
0001
2000
0000
3000
0000
,
1001
0000
0010
0100
0020
0000
0030
0000
,
1000
0010
1000
0100
1000
0010
0100
0001
,
0010
0000
0001
0100
0002
0000
0003
0000
,
0010
0000
0001
0100
0001
1000
0000
0000
,
1000
0010
1000
0010
0200
0000
0300
0000
,
0001
0010
0001
0010
0100
1000
0100
1000
,
0020
0230
0320
0230
,
0301
0000
0010
0100
2000
0000
3000
0000
,
0010
0000
1000
0001
0200
0000
0300
0000
,
0001
0010
0001
0100
0001
0010
0100
1000
,
0010
0000
1000
0001
2000
0000
3000
0000
,
0100
0000
1000
0001
1000
0010
0000
0000
,
0100
0001
0010
0100
2000
0000
3000
0000
,
0010
1000
0100
1000
0010
0100
0001
0010
,
0002
2003
3020
0230
,
0301
0010
0001
0000
0011
0000
0001
0010
,
0001
0000
0011
0000
0001
0010
0001
0000
,
1000
0100
1000
0000
1100
0000
1000
0100
,
1000
0000
1100
0000
1000
0100
1000
0000
,
0010
1000
0010
0000
1010
0000
0010
1000
,
0010
0000
1010
0000
0010
1000
0010
0000
,
0100
0001
0100
0000
0101
0000
0100
0001
,
0100
0000
0101
0000
0100
0001
0100
0000
,
0010
1000
0010
1000
0000
0000
0001
1000
,
0000
0000
0001
0010
0200
0000
0300
0000
,
1000
0010
1000
0010
0000
0000
0100
0001
,
1000
0001
1000
0001
0200
0000
0300
0000
,
0001
0010
0001
0010
0000
0000
0001
1000
,
0000
0000
0010
1000
0000
0000
0100
0010
,
0002
0000
2000
0000
,
0000
0000
0003
3010
,
1001
0000
1000
0001
0200
0000
0300
0000
,
0110
0000
0010
1000
0002
0000
0003
0000
,
0010
0100
0010
0100
0010
0001
1000
0010
,
0100
0000
0001
0010
0002
0000
0003
0000
,
0011
0000
0010
0100
1000
0100
0000
0000
,
1000
0010
0100
0010
2000
0000
3000
0000
,
0001
0010
0001
1000
0010
1000
0010
0100
,
0002
0023
0230
2300
,
3010
0000
1000
0001
2000
0000
3000
0000
,
1100
0000
0010
0100
0002
0000
0003
0000
,
0010
0001
0010
0100
0010
0100
1000
0010
,
0100
0000
0001
1000
0002
0000
0003
0000
,
0022
0030
0200
0303
,
0101
1100
0101
1100
,
1001
0000
0000
0000
;

//---------------dance-single - ----------------
#NOTES:
     dance-single:
     :
     Hard:
     13:
     :
0000
0000
0000
0000
,
0000
0000
0000
0000
,
0000
0000
0000
0000
,
0000
0000
0000
0000
,
0000
0000
0000
0000
,
0000
0000
0000
0000
,
0000
0000
0000
0000
1001
0010
1000
0100
,
1000
0000
0001
0100
0001
0010
0100
0000
,
1000
0001
1000
0010
0000
0100
0001
1000
,
0001
0000
0010
0100
1100
0000
0010
1000
,
0001
0000
0100
0000
0001
0000
0010
0000
0000
0000
0001
1000
0001
0000
0100
0000
,
0010
1000
0100
1000
0001
0010
0100
1000
,
0000
1000
0001
0100
0001
0010
1000
0000
,
0110
0000
0001
0010
1001
0000
0100
0010
,
1000
0000
0001
0100
0010
1000
0010
0100
,
0001
0010
0001
1000
0001
0100
0010
1000
,
0100
0000
0000
0010
0000
0000
0010
0000
0001
0000
1000
0000
0100
0000
0000
0000
,
1010
0000
0001
0100
0101
0000
0010
1000
,
0100
0000
0100
1000
0001
0100
0010
0000
,
1000
0010
1000
0010
0001
0010
1000
0100
,
0001
0100
1000
0010
0000
0100
0100
0000
,
0001
0000
0010
0000
0100
0000
1000
0000
0020
0000
0000
0000
0230
0000
0000
0002
,
0300
0000
0000
0000
1003
0000
0010
0000
0100
0000
0000
0001
1000
0000
0010
0000
,
0100
0001
0010
0001
0100
1000
0100
0001
,
0010
0100
0001
0100
0010
0100
1000
0001
,
0100
0010
0100
1000
0100
0001
1000
0100
,
0010
0000
0010
0001
1000
0001
1000
0100
,
1000
0010
0001
0010
1000
0000
1100
0000
,
0001
0100
1000
0100
0001
0000
0011
0000
,
1000
0100
0001
0100
1000
0100
0001
0100
,
0010
0100
0010
0100
0010
0100
0010
0100
,
1000
0000
0001
0100
0001
0010
1000
0010
,
0001
0100
0010
1000
0000
0100
0010
0001
,
1000
0000
0010
1000
0100
0001
0100
1000
,
0010
0000
0100
0000
0001
0000
1000
0000
0000
0000
0010
0100
0010
0000
1000
0000
,
0001
0000
0010
0001
1000
0010
1000
0100
,
0000
1000
0100
1000
0001
0100
0001
0000
,
0010
0000
0001
0100
0110
0000
1001
0000
,
1000
0100
0010
0100
0010
0100
1000
0000
,
0001
0100
0010
0100
1000
0100
0010
1000
,
0100
0000
0000
0010
0000
0000
0010
0000
0001
0000
1000
0000
0100
0000
0000
0000
,
1010
0000
0000
0000
0001
0000
1000
0000
0101
0000
0000
0000
0010
0000
1000
0001
,
1000
0000
0100
0010
0001
0100
0001
0000
,
0010
0100
1000
0010
1000
0001
1000
0100
,
0001
0100
1000
0010
0000
1000
0001
0000
,
0100
0001
0100
0001
0010
0100
1000
0001
,
0200
0000
0310
1000
0100
0000
1002
0000
,
1003
0100
0010
0100
0001
0100
0010
0100
,
1000
0010
0001
0010
1000
0100
0001
0100
,
0010
0001
0010
1000
0010
0100
0010
0001
,
0100
0000
0100
0010
1000
0001
0010
0100
,
1000
0010
0001
0010
1000
0000
1010
0000
,
0001
0010
1000
0010
0001
0000
0011
0000
,
0100
0010
1000
0001
0010
1000
0010
0001
,
0100
0000
0000
0001
1000
0000
0100
0000
0010
0000
0001
0000
1000
0000
0001
0000
,
0100
0010
1000
0100
1000
0100
0001
0100
,
0010
0100
1000
0010
1000
0001
0100
0010
,
1000
0100
0010
0001
0100
0001
0010
0100
,
1000
0000
0000
0001
1000
0000
0010
0000
0100
0000
0001
0000
0100
0000
0010
0000
,
1000
0100
0001
0100
1000
0000
0110
0000
,
0001
0000
0010
0000
1000
0000
0010
0000
0001
0000
0000
0100
0010
0000
0000
0000
,
1000
0100
0001
0100
1000
0100
0001
0100
,
0010
0100
0010
0100
0010
0100
0010
0100
,
1000
0001
0100
0000
0101
0000
0001
0010
,
1000
0000
1100
0000
0010
1000
0001
0000
,
0010
0100
1000
0000
1010
0000
0001
1000
,
0100
0000
0011
0000
0100
0001
1000
0001
,
0100
0010
1000
0000
1001
0000
0001
0010
,
1000
0000
1100
0000
0010
0100
0010
0100
,
0001
0010
0100
0000
1100
0000
0001
1000
,
0010
0000
0100
0101
0000
1100
0000
0101
,
1000
0001
1000
0001
0000
0000
0010
0100
,
0000
0000
1000
0010
0200
0000
0300
0000
,
0001
0010
0001
0010
0100
1000
0100
1000
,
0010
0100
0010
0100
0002
0000
0003
0000
,
1000
0100
1000
0001
0000
0000
0010
0100
,
0000
0000
1000
0001
0100
0000
0100
0001
,
1001
0000
2020
0000
,
0000
0000
0030
0010
,
3001
0000
0001
0100
0010
1000
0100
0010
,
0001
0100
1000
0100
0010
0100
1000
0100
,
0001
0010
1000
0010
0100
1000
0001
0100
,
0010
0000
0010
1000
0100
0010
0001
1000
,
0001
0100
0010
1000
0100
0000
1100
0000
,
0010
1000
0100
0010
0001
0000
0011
0000
,
1000
0010
0001
0010
1000
0010
0001
0010
,
0100
0010
0100
0010
0100
0010
0100
0010
,
1000
0000
1000
0001
0010
1000
0010
0100
,
1000
0010
0100
0010
0001
0010
0100
0010
,
0001
0010
1000
0100
0010
0100
1000
0001
,
0100
0000
0100
0010
1000
0001
0010
0100
,
2000
0000
0000
0000
3001
0000
0100
0010
,
1000
0001
1000
0001
1000
0001
1000
0001
,
0010
0000
0000
0000
;

//---------------dance-single - ----------------
#NOTES:
     dance-single:
     :
     Challenge:
     16:
     :
0000
0000
0000
0000
,
0000
0000
0000
0000
,
0000
0000
0000
0000
,
0000
0000
0000
0000
,
0000
0000
0000
0000
,
0000
0000
0000
0000
,
0000
0000
0000
0000
1001
0010
1000
0100
,
1000
0010
0001
0010
1000
0000
0001
0100
,
1000
0000
0100
0000
0001
0000
0000
0000
0010
0000
0100
1000
0100
0000
0000
0000
,
0010
0000
0001
0100
0001
0000
1000
0000
0010
0000
0000
0000
0100
0000
0001
0000
,
0010
0000
0100
1000
0100
0000
0010
0000
0001
0000
1000
0010
1000
0000
0001
0000
,
0010
0000
0100
0000
1000
0000
0010
0100
0010
0000
0000
0000
1000
0000
0001
0000
,
0100
0000
0000
0000
0010
0000
1000
0000
0100
0000
1000
0001
1000
0000
0010
0000
,
0110
0000
0001
0100
0001
0010
0100
1000
,
0010
0000
1000
0001
1000
0000
0010
0000
1000
0100
1000
0100
1000
0100
1000
0100
,
1000
0010
0100
1000
0100
0001
0010
0100
,
1000
0000
0000
0000
0010
0000
1000
0000
0100
0000
0010
0001
0010
0000
0100
0000
,
1000
0000
0001
0100
0001
0000
0010
0000
1000
0000
0010
0000
0001
0000
0100
0000
,
0010
0000
1000
0001
1000
0000
0100
0000
0010
0000
0001
0100
0001
0000
1000
0000
,
0010
1000
0010
0100
1000
0100
0001
0010
,
0100
0000
1000
0000
0010
0000
0100
0000
0001
0000
0010
0001
0010
0000
0100
0000
,
1000
0010
1000
0100
0010
0001
0100
0010
,
2010
0000
0000
0000
3001
0000
0100
0000
0001
0000
1000
0010
1000
0000
0100
0000
,
0001
0100
1000
0010
0100
0001
0010
0100
,
1000
0000
0010
0000
0100
0000
0010
0000
1000
0000
0100
0010
0001
0000
0100
0000
,
0010
0000
1000
0001
0010
0000
0100
0000
1000
0000
0010
0000
0100
0000
0001
0000
,
0010
0000
0100
1000
0001
0000
0100
0000
0001
0000
1000
0010
0100
0000
0001
0000
,
0010
0001
0100
0010
1000
0100
1100
0000
,
0001
0000
0010
0000
0001
0000
1000
0000
0100
0000
1000
0010
0100
0000
0000
0000
,
0001
0000
0010
0100
1000
0000
0010
0000
1000
0000
0001
0100
0010
0000
1000
0000
,
0100
0000
1000
0100
1000
0000
0001
0100
0001
0000
0010
0100
0010
0000
0001
0000
,
0101
0000
0001
0100
1000
0100
0001
0010
,
0100
0000
1000
0000
0010
0000
1000
0000
0100
0000
1000
0001
1000
0000
0010
0000
,
0100
0000
0001
0010
0100
0000
1000
0000
0010
0000
1000
0000
0001
0000
0100
0000
,
0010
0000
1000
0100
0001
0000
0100
0000
1000
0000
0010
0100
0010
0000
1000
0000
,
0001
0000
0010
0000
0100
0000
1000
0010
1000
0000
0001
0000
0100
0000
0010
0000
,
1000
0000
0100
0000
0001
0000
0100
0000
1000
0000
0010
0100
0001
0000
1000
0000
,
0100
0000
1000
0001
1000
0000
0010
0000
0100
0000
0001
0000
0010
0000
0100
0000
,
1000
0010
1000
0010
1000
0010
1000
0010
,
0100
0000
0001
0010
0001
0000
0100
0000
1000
0000
0100
0000
0010
0000
1000
0000
,
0100
0000
0010
0000
0001
0000
0100
0000
0010
0000
1000
0001
1000
0000
0010
0000
,
0100
0000
0001
0010
0100
0000
1000
0000
0010
0000
0100
0000
0010
0000
1000
0001
,
2000
0000
3020
0000
0130
0000
0001
0000
0010
0000
0100
1000
0100
0000
0001
0000
,
0100
1000
0001
0100
0010
1000
0001
0010
,
0001
0000
0200
0000
0310
0000
1000
0000
0100
0000
1000
0001
0010
0000
0100
0000
,
1000
0100
0010
0000
0001
0000
1000
0001
0100
0000
0010
0000
1000
0000
0100
0000
,
2000
0000
3002
0000
0013
0000
0100
0000
1000
0000
0000
0010
0100
0000
0001
0000
,
0010
0001
0100
1000
0100
0010
1000
0001
,
0010
0000
0100
0000
1000
0000
0010
0000
1000
0000
0001
0010
0100
0000
1000
0000
,
0010
0000
0001
0010
1000
0000
0100
0000
0010
0000
0001
0000
1000
0000
0001
0000
,
0100
0000
0010
1000
0001
0000
0010
0000
0100
0000
0010
0001
1000
0000
0010
0000
,
0100
0001
0010
0100
1000
0001
0011
0000
,
0100
0000
0010
0000
1000
0000
0001
0000
0010
0000
0100
1000
0001
0000
0000
0000
,
0010
0000
0001
1000
0001
0000
0100
0000
0010
0000
1000
0100
1000
0000
0001
0000
,
0010
0000
0001
1000
0100
0000
1000
0000
0010
0000
0100
0000
0001
0000
1000
0000
,
0010
1000
0100
0001
0100
0010
0100
0001
,
0100
0000
0010
0000
0100
0000
1000
0000
0010
0000
0100
0001
1000
0000
0100
0000
,
1000
0000
0010
0100
0001
0000
0010
0000
0100
0000
1000
0000
0010
0000
1000
0000
,
0100
0000
0010
0001
1000
0000
0010
0000
0100
0000
1000
0100
0001
0000
0010
0000
,
0100
1000
0001
0100
0110
0000
1001
0000
,
0010
0000
1000
0000
0100
0000
0010
0000
0001
0000
1000
0100
1000
0000
0001
0000
,
0100
0001
0010
0001
1000
0100
1000
0010
,
1000
0000
0100
0010
0001
0000
0100
0000
0001
0000
1000
0010
1000
0000
0100
0000
,
0010
0001
0100
0010
1000
0100
1000
0001
,
0011
0000
0000
0000
1100
0000
0000
0000
0010
0000
1000
0001
1000
0000
0100
0000
,
0010
0000
0001
0100
0010
0000
1000
0000
0100
0000
1000
0000
0001
0000
0010
0000
,
0001
0000
1000
0100
0010
0000
0001
0000
0200
0000
0310
1000
0002
0000
0103
0000
,
0010
1000
0100
0010
0001
0000
0100
0001
,
1001
0000
0000
0000
0110
0000
0000
0000
0010
0000
1000
0100
2000
0000
3002
0000
,
0013
0000
0001
0010
0100
0000
1000
0000
0010
0000
1000
0000
0200
0000
0320
0000
,
0031
0000
0100
0010
1000
0000
0200
0000
1300
0000
0020
0000
0130
0000
0002
0000
,
2003
3020
2030
3002
0023
0000
0130
1000
,
0010
0000
1000
0001
0200
0000
0320
0230
,
0301
0010
0001
0010
0100
0010
0001
1000
0100
1000
0010
1000
,
0100
0010
0001
0100
0010
1000
0001
1000
0100
1000
0001
0010
,
0002
0203
0320
2030
3100
0000
2000
3002
,
0013
0000
0002
0103
1000
0000
0010
0100
,
0101
0000
0101
0000
0000
0000
0000
0000
2010
0000
0000
0001
0000
0000
0100
0000
,
0000
0001
0000
0000
0100
0000
0000
0001
0000
0000
0100
0000
3200
0000
0000
0000
,
1300
0010
0100
1000
0100
0001
0010
0100
,
1000
0000
0010
0000
1000
0000
0001
0000
0010
0000
0100
1000
0001
0000
0100
0000
,
0010
0000
1000
0010
0100
0000
0001
0000
0010
0000
1000
0000
0010
0000
0100
0000
,
0010
0000
0001
0100
0001
0000
1000
0000
0100
0000
0010
0001
1000
0000
0010
0000
,
0100
0001
0010
0100
1000
0010
0100
0000
,
0001
0000
0010
0000
1000
0000
0010
0000
0001
0000
0100
0010
1000
0000
0100
0000
,
1000
0000
0010
0100
0001
0000
0010
0000
0100
0000
1000
0000
0001
0000
0100
0000
,
0001
0000
0010
0100
1000
0000
0010
0000
0100
0000
0001
1000
0001
0000
0010
0000
,
0100
1000
0010
0001
0010
0100
0010
0001
,
0010
0000
0100
0000
1000
0000
0100
0000
0001
0000
0010
0100
1000
0000
0001
0000
,
0100
0000
0001
1000
0001
0000
0010
0000
0100
0000
1000
0000
0010
0000
0100
0000
,
0001
0000
0010
0100
1000
0000
0010
0000
1000
0000
0100
1000
0001
0000
0010
0000
,
0002
0203
0320
2030
3002
0023
0230
2300
,
3010
0010
1000
1000
0001
0001
0100
0100
,
1001
0000
0000
0000
;
