#VERSION:0.83;
#TITLE:Vertigo;
#SUBTITLE:;
#ARTIST:Hylen feat. VGYO;
#TITLETRANSLIT:;
#SUBTITLETRANSLIT:;
#ARTISTTRANSLIT:;
#GENRE:;
#ORIGIN:;
#TAGS:;
#CREDIT:;
#BANNER:Vertigo.png;
#BACKGROUND:Vertigo-bg.png;
#PREVIEWVID:;
#JACKET:Vertigo-jacket.png;
#CDIMAGE:;
#DISCIMAGE:;
#LYRICSPATH:;
#CDTITLE:;
#MUSIC:Vertigo.ogg;
#OFFSET:0.000000;
#SAMPLESTART:34.483002;
#SAMPLELENGTH:20.000000;
#SELECTABLE:YES;
#DISPLAYBPM:150.000000:174.000000;
#BPMS:0.000000=174.000000,
236.000000=170.000000,
244.000000=168.000000,
246.000000=165.000000,
252.000000=159.000000,
253.000000=157.000000,
254.000000=150.000000;
#STOPS:;
#DELAYS:;
#WARPS:;
#TIMESIGNATURES:0.000000=4=4;
#TICKCOUNTS:0.000000=4;
#COMBOS:0.000000=1;
#SPEEDS:0.000000=1.000000=0.000000=0;
#SCROLLS:0.000000=1.000000;
#FAKES:;
#LABELS:0.000000=Song Start;
#BGCHANGES:;
#KEYSOUNDS:;
#ATTACKS:
;

//---------------dance-single - ----------------
#NOTEDATA:;
#CHARTNAME:;
#CHARTHASH:348218685:
#STEPSTYPE:dance-single;
#BANNER:;
#DESCRIPTION:;
#CHARTSTYLE:;
#DIFFICULTY:Beginner;
#METER:3;
#METERF:0.000000;
#RADARVALUES:0.139246,0.272251,0.084028,0.050417,0.000000,116.000000,106.000000,10.000000,6.000000,0.000000,0.000000,0.000000,0.000000,0.000000,0.139246,0.272251,0.084028,0.050417,0.000000,116.000000,106.000000,10.000000,6.000000,0.000000,0.000000,0.000000,0.000000,0.000000;
#CREDIT:;
#NOTES:
0000
0000
0000
0000
,
0000
0000
0000
0000
,
0000
0000
0000
0000
,
0000
0000
0000
0000
,
0000
0000
0000
0000
,
1000
0000
0000
0000
,
0001
0000
0000
0000
,
1000
0000
0000
0000
,
0001
0000
0000
0000
,
1001
0000
0000
0000
,
0000
0000
0000
0000
,
1001
0000
0000
0000
,
0000
0000
0000
0000
,
1001
0000
0000
0000
,
0000
0000
0000
0000
,
1001
0000
0000
0000
,
0000
0000
0000
0000
,
0001
0000
0001
0000
,
1000
0000
1000
0000
,
0001
0000
0001
0000
,
1000
0000
1000
0000
,
0001
0001
0001
0000
,
1000
1000
1000
0000
,
0001
0000
1000
0000
,
1001
0000
0000
0000
,
0001
0000
0000
0000
,
1000
0000
0000
0000
,
0010
0000
0000
0000
,
0100
0000
0000
0000
,
1000
0000
0000
0000
,
0001
0000
0000
0000
,
0010
0000
0000
0000
,
0100
0000
0000
0000
,
1000
0000
1000
0000
,
0001
0000
0001
0000
,
0010
0000
0010
0000
,
0100
0000
0100
0000
,
0010
0000
0001
0000
,
0010
0000
1000
0000
,
0001
0000
0001
0000
,
1000
0000
1000
0000
,
2002
0000
0000
0000
,
0000
0000
0000
0000
,
3003
0000
0000
0000
,
0000
1000
1000
1000
,
0000
0000
0000
0000
,
0000
0001
0001
0001
,
0000
0000
0000
0000
,
0000
1000
1000
1000
,
1000
0000
0000
0000
,
0000
0000
0000
0000
,
1001
0000
0000
0000
,
0000
0000
0000
0000
,
1001
0000
0000
0000
,
0000
0000
0000
0000
,
1001
0000
0000
0000
,
0000
0000
0000
0000
,
0002
0000
0000
0000
,
0003
0000
0000
0000
,
2000
0000
0000
0000
,
3000
0000
0000
0000
,
0020
0000
0000
0000
,
0030
0000
0000
0000
,
0200
0000
0000
0000
,
0300
0000
0000
0000
,
0010
0000
0010
0000
,
1000
1000
1000
0000
,
0010
0000
0010
0000
,
0001
0001
0001
0000
,
0010
0000
0001
0000
,
0010
0000
0001
0000
,
0010
0000
1000
0000
,
0010
0000
1000
0000
,
0001
0000
1000
0000
,
0010
0000
0100
0000
,
0010
0000
0010
0000
,
1000
1000
1000
0000
,
0100
0000
0100
0000
,
0001
0001
0001
0000
,
0010
0010
0010
0000
,
0100
0100
0100
0000
,
1001
0000
0000
0000
,
0000
0000
0000
0000
;

//---------------dance-single - ----------------
#NOTEDATA:;
#CHARTNAME:;
#CHARTHASH:1122331066:
#STEPSTYPE:dance-single;
#BANNER:;
#DESCRIPTION:;
#CHARTSTYLE:;
#DIFFICULTY:Easy;
#METER:7;
#METERF:0.000000;
#RADARVALUES:0.280893,0.340313,0.084028,0.058820,0.000000,234.000000,224.000000,10.000000,7.000000,0.000000,0.000000,0.000000,0.000000,0.000000,0.280893,0.340313,0.084028,0.058820,0.000000,234.000000,224.000000,10.000000,7.000000,0.000000,0.000000,0.000000,0.000000,0.000000;
#CREDIT:;
#NOTES:
0000
0000
0000
0000
,
0000
0000
0000
0000
,
0000
0000
0000
0000
,
0000
0000
0000
0000
,
0000
0000
0000
0000
,
1000
0010
1000
1000
,
0001
0010
0001
0001
,
0010
0010
0100
0100
,
0001
1000
0001
1000
,
0000
0000
0001
0000
0000
0001
0000
0000
,
1000
0000
0000
1000
0000
0000
0010
0000
,
0000
0000
1000
0000
0000
1000
0000
0000
,
0001
0000
0000
0001
0000
0000
0100
0000
,
0000
0000
0010
0000
0000
0010
0000
0000
,
0001
0000
0000
0001
0000
0000
1000
0000
,
0000
0000
0100
0000
0000
0100
0000
0000
,
1000
0000
0000
1000
0000
0000
0010
0000
,
0000
1000
0010
1000
,
0001
0010
0100
0010
,
0000
0001
0010
0001
,
1000
0010
0100
0010
,
0000
0010
0010
0010
,
0001
0001
1000
1000
,
0001
0010
0100
1000
,
0010
0100
0001
1001
,
0000
1000
0100
1000
,
0001
0100
0001
0001
,
0000
0001
0100
0001
,
1000
0100
1000
1000
,
0000
0010
0001
0100
,
0010
1000
0100
0100
,
0000
0010
0010
0001
,
1000
1000
0010
1001
,
0000
0001
0010
0001
,
1000
0010
1000
1000
,
0000
1000
0010
1000
,
0001
0010
0001
0001
,
0000
0100
1000
0010
,
0100
0001
0010
0010
,
0000
0100
0100
1000
,
0001
0001
0100
1001
,
0220
0000
0000
0000
,
0000
0000
0000
0000
,
0330
0001
0010
0010
,
0000
0000
1001
0000
0000
1001
0000
0000
,
0000
1000
0010
0010
,
0000
0100
0100
0100
,
0000
0010
0001
1000
,
0000
0001
0001
0001
,
0000
0000
0100
0000
0000
0100
0000
0000
,
0010
0000
0000
0010
0000
0000
0100
0000
,
0000
0000
0001
0000
0000
0001
0000
0000
,
1000
0000
0000
1000
0000
0000
0001
0000
,
0000
0000
1000
0000
0000
1000
0000
0000
,
0001
0000
0000
0001
0000
0000
1000
0000
,
0000
0000
0100
0000
0000
0100
0000
0000
,
0010
0000
0000
0010
0000
0000
0100
0000
,
0000
1000
0001
0100
,
0001
1000
0010
1000
,
0000
0001
1000
0100
,
1000
0001
0010
0001
,
0000
1000
0001
1000
,
0000
0001
1000
0001
,
2002
0000
0000
0000
,
3003
0000
0000
0000
,
0001
0010
0002
0000
,
1000
0000
1003
0000
,
1000
0010
2000
0000
,
0001
0000
3001
0000
,
0010
0100
0020
0000
,
0100
0000
0130
0000
,
0001
0000
0001
0000
,
0010
0100
0010
0100
,
0000
1000
0001
1000
,
1001
0000
1001
0000
,
0001
0000
0010
0000
,
0100
0100
0100
0000
,
1000
0000
0010
0000
,
0100
0100
0100
0000
,
0000
0010
0010
0001
,
0100
0100
1000
1000
,
1001
0000
0000
0000
,
0000
0000
0000
0000
;

//---------------dance-single - ----------------
#NOTEDATA:;
#CHARTNAME:;
#CHARTHASH:2147483647:
#STEPSTYPE:dance-single;
#BANNER:;
#DESCRIPTION:;
#CHARTSTYLE:;
#DIFFICULTY:Medium;
#METER:12;
#METERF:0.000000;
#RADARVALUES:0.469356,0.578533,0.193264,0.151250,0.189063,391.000000,368.000000,23.000000,18.000000,0.000000,0.000000,0.000000,0.000000,0.000000,0.469356,0.578533,0.193264,0.151250,0.189063,391.000000,368.000000,23.000000,18.000000,0.000000,0.000000,0.000000,0.000000,0.000000;
#CREDIT:;
#NOTES:
0000
0000
0000
0000
,
0000
0000
0000
0000
,
0000
0000
0000
0000
,
0000
0000
0000
0000
,
0000
0000
0000
0000
,
0001
0010
0001
0000
0100
0010
0100
0000
,
0010
0100
0010
0000
1000
0100
1000
0000
,
0001
0100
0001
0000
1000
0100
1000
0000
,
0010
1000
0010
1000
0001
0100
0001
0000
,
1001
0000
0010
0000
0000
0010
0000
0000
,
0001
0000
0000
0001
0000
0000
0010
0010
,
0000
0000
0100
0000
0000
0100
0000
0000
,
1000
0000
0000
1000
0000
0000
0010
0010
,
0000
0000
1000
0000
0000
1000
0000
0000
,
0010
0000
0000
0010
0000
0000
0100
0100
,
0000
0000
0001
0000
0000
0001
0000
0000
,
0010
0000
0000
0010
0000
0000
0100
0100
,
1000
1000
0010
0010
,
1000
1000
0001
0001
,
1000
0010
1000
1000
,
0001
0010
0001
0001
,
1000
0010
1000
0000
0001
0010
0001
0000
,
1000
0100
1000
0000
0001
0100
0001
0000
,
1000
0010
1000
0010
0100
0001
0100
0001
,
0010
0100
0100
1000
0010
0010
0010
0000
,
1000
0010
1000
0010
0000
1000
1000
1000
,
0010
0100
0010
0100
0000
0001
0000
0001
,
0010
0001
0010
0001
0000
1001
0000
0000
,
1000
0000
0100
0000
1000
0000
0100
0000
0000
0000
1000
0100
1000
0000
0000
0000
,
0001
0010
0001
0010
0000
0001
0001
0001
,
0100
0010
0100
0010
0000
1000
0000
1000
,
0010
1000
0010
1000
0000
1001
0000
0000
,
0001
0000
0100
0000
0001
0000
0100
0000
0001
0100
0001
0100
0001
0000
0000
0000
,
0010
0001
0010
0001
0000
0010
0010
0010
,
0001
1000
0001
1000
0000
0010
0000
0010
,
1000
0010
1000
0010
0000
0110
0000
0000
,
0100
0000
0001
0000
0100
0000
0001
0000
0000
0000
0100
0001
0100
0000
0000
0000
,
0010
1000
0010
1000
0000
0010
0010
0010
,
1000
0001
1000
0001
0000
0010
0000
0010
,
0001
0010
0001
0010
0000
0110
0000
0000
,
1000
0000
0100
0000
1000
0000
0100
0000
1000
0100
1000
0100
1000
0000
0000
0000
,
2002
0000
0000
0000
,
0000
0000
0000
0000
,
3003
0000
0010
0100
0001
1000
0001
1000
,
0000
0000
1100
0000
0000
2200
0000
0000
,
3300
0000
0010
0100
1000
0001
1000
0001
,
0000
0101
0101
0000
0101
0000
0202
0000
,
0303
0000
1000
0001
1000
1000
1000
1000
,
0000
0010
0011
0011
,
0000
0000
1000
0000
0000
1000
0000
0000
,
0001
0000
0000
1000
0000
0000
0001
0001
,
0000
0000
0001
0000
0000
0001
0000
0000
,
1000
0000
0000
0001
0000
0000
1000
1000
,
0000
0000
0010
0000
0000
0010
0000
0000
,
0100
0000
0000
0010
0000
0000
0100
0100
,
0000
0000
0100
0000
0000
0100
0000
0000
,
0010
0000
0000
0100
0000
0000
0010
0010
,
0100
0001
0010
0000
0001
1000
0100
0000
,
0010
0001
0100
0000
0001
1000
0010
0000
,
1000
0100
1000
0000
0100
0010
0100
0000
,
0010
0001
0100
0000
0010
1000
0100
0000
,
1000
0001
0010
0000
0001
1000
0010
0000
,
1000
0100
0010
0000
0001
0100
0010
0000
,
2002
0000
0000
0000
,
3003
0000
0000
0000
,
0000
0000
0000
0010
0001
0010
0002
0000
0000
0000
0000
0000
,
0103
0010
0100
0010
0000
0000
1000
0100
1000
0100
0000
0000
,
0000
0000
0000
1000
0010
1000
0020
0000
0000
0000
0000
0000
,
0130
0010
0100
0010
0000
0000
0100
0001
0100
0001
0000
0000
,
0000
0000
0000
1000
0000
1000
0000
2000
0000
3000
0000
0000
,
0100
0010
0100
0010
0000
0000
0001
0100
0001
0100
0000
0000
,
0000
0020
0230
0302
,
0023
0230
2300
3002
,
0003
1010
0011
0011
,
0101
1100
0110
1001
,
0000
0001
0000
1000
0000
0001
0000
1000
0000
0001
0000
1000
,
0000
0001
0000
1000
0000
0001
0000
0010
0000
0100
0000
0000
,
0000
1000
0000
0001
0000
1000
0000
0001
0000
1000
0000
0001
,
0000
1000
0000
0001
0000
1000
0000
0010
0000
0100
0000
0000
,
0000
0000
0010
0010
0010
0010
,
1000
1000
1000
0001
0001
0001
,
1001
0000
0000
0000
,
0000
0000
0000
0000
;

//---------------dance-single - ----------------
#NOTEDATA:;
#CHARTNAME:;
#CHARTHASH:668727299:
#STEPSTYPE:dance-single;
#BANNER:;
#DESCRIPTION:;
#CHARTSTYLE:;
#DIFFICULTY:Hard;
#METER:15;
#METERF:0.000000;
#RADARVALUES:0.641013,0.816752,0.453751,0.117639,0.390730,534.000000,480.000000,54.000000,14.000000,0.000000,0.000000,0.000000,0.000000,0.000000,0.641013,0.816752,0.453751,0.117639,0.390730,534.000000,480.000000,54.000000,14.000000,0.000000,0.000000,0.000000,0.000000,0.000000;
#CREDIT:;
#NOTES:
0000
0000
0000
0000
,
0000
0000
0000
0000
,
0000
0000
0000
0000
,
0000
0000
0000
0000
,
0000
0000
0000
0000
,
0010
1000
0010
1000
0100
0010
0001
0010
,
0001
0100
0001
0100
0010
1000
0100
0000
,
0010
0001
0010
0001
0100
0010
1000
0010
,
1000
0100
1000
0100
0010
0001
0100
0000
,
1001
0000
0010
0000
0000
0010
0000
0000
,
1000
0000
0000
1000
0000
0000
0001
0001
,
1001
0000
0010
0000
0000
0010
0000
0000
,
0001
0000
0000
0001
0000
0000
1000
1000
,
1001
0001
0100
0100
,
1000
1000
0010
0010
,
1000
0010
1000
0000
0001
0100
0001
0000
,
1000
0010
1000
0100
0010
0001
1000
0000
,
0010
0100
0010
0100
0001
0010
0001
0000
,
0010
0100
0010
0100
1000
0010
1000
0000
,
0001
0010
0100
1000
0010
0100
0001
0000
,
1000
0010
0100
0001
0010
0100
1000
0000
,
0100
0010
0001
0100
0010
1000
0100
0010
,
0001
0100
0010
1000
0100
0010
0001
1000
,
0010
0100
0010
0100
0001
1000
0001
1000
,
0001
0010
0100
0010
0100
0000
1000
0010
1000
0000
0010
0000
1010
0000
0000
0000
,
1000
0000
0001
0000
1000
0000
0001
0000
0000
0000
1000
0001
0100
0000
0010
0000
,
1000
0000
0010
0000
1000
0000
0001
0000
0000
0000
0010
0001
0010
0100
0010
0000
,
0001
1000
0001
0100
0000
1001
0000
0000
,
1000
0000
0010
0000
1000
0000
0010
0000
0000
0000
1000
0001
0100
0000
0000
0000
,
0001
0000
1000
0000
0001
0000
1000
0000
0000
0000
0010
1000
0001
0000
0000
0000
,
0010
0000
0001
0000
1000
0000
0001
0000
0000
0000
0010
0001
0100
0001
0010
0000
,
0001
0100
0001
0100
0000
1001
0000
0000
,
0100
0000
0010
0000
0100
0000
0010
0000
0001
0010
0100
1000
0010
0000
0100
0000
,
0001
0000
1000
0000
0001
0000
1000
0000
0000
0000
0001
1000
0100
0000
0010
0000
,
0001
0000
0010
0000
0001
0000
1000
0000
0000
0000
0010
1000
0010
0100
0010
0000
,
1000
0001
1000
0100
0000
1001
0000
0000
,
0001
0000
0010
0000
0001
0000
0010
0000
0000
0000
0001
1000
0100
0000
0000
0000
,
1000
0000
0001
0000
1000
0000
0001
0000
0000
0000
0010
0001
1000
0000
0000
0000
,
0010
0000
1000
0000
0001
0000
1000
0000
0000
0000
0010
1000
0100
1000
0010
0000
,
1000
0100
1000
0100
0000
1001
0000
0000
,
0100
0000
0010
0000
0100
0000
0010
0000
1000
0010
0100
0001
0010
0000
0100
0000
,
2002
0000
0000
0000
,
0000
0000
0000
0000
,
3003
0000
0010
0100
1000
1100
1000
1100
,
0000
0000
0001
1000
0000
0001
2000
0000
,
3000
0000
0010
0100
0001
0101
0001
0101
,
0000
1010
1010
0000
1010
0000
2020
0000
,
3030
0000
0001
0001
1000
1010
1000
1010
,
0000
0000
0000
0000
1000
0000
0010
0000
0100
0010
0100
0010
0100
0010
0100
0010
,
2000
0000
0001
0000
0000
0001
0000
0000
,
0010
0000
0000
0010
0000
0000
3001
0001
,
0020
0000
0001
0000
0000
0001
0000
0000
,
0100
0000
0000
0100
0000
0000
0031
0001
,
0200
0000
0010
0000
0000
0010
0000
0000
,
1000
0000
0000
1000
0000
0000
0301
0001
,
0020
0000
1000
0000
0000
1000
0000
0000
,
0001
0000
0000
0001
0000
0000
0130
0100
,
1000
0010
0100
0010
1000
0010
1000
0000
,
0001
0010
0001
0010
0100
0010
0001
0000
,
0100
0001
0100
0001
1000
0010
1000
0000
,
0100
1000
0100
1000
0010
0100
0010
0000
,
0100
0001
0010
0000
0100
1000
0010
0000
,
1000
0001
0010
0000
0001
1000
0010
0000
,
1000
0000
0001
0000
1000
0000
0001
0000
1000
0100
1000
0100
0010
0001
0100
0010
,
0200
0000
0000
0300
,
0010
0000
0000
0010
1000
0010
0200
0000
0000
0000
0000
0000
,
0301
0010
0001
0010
0100
0010
0100
1000
0100
1000
0010
1000
,
0000
0000
0000
0001
0010
0001
0020
0000
0000
0000
0000
0000
,
0130
0010
0100
0010
0000
0000
0001
0100
0001
0010
0100
0010
,
0000
0000
0000
0101
0000
0101
0000
0202
0000
0303
0000
0000
,
1000
0100
0010
0001
0010
0001
0010
0100
1000
0001
0000
0000
,
0001
0100
0010
0100
0001
0010
0100
0010
0100
1000
0010
0100
,
0001
0100
0001
0010
0100
1000
0010
0100
1000
0100
0001
0100
,
0000
0000
0110
0001
0110
1000
0110
0001
,
0110
1000
0110
0001
1000
0001
1000
0000
,
0000
0011
0000
0010
0000
0110
0000
0110
0000
0110
0000
0100
,
0000
1100
0000
1100
0000
0110
0000
0010
0000
0110
0000
0000
,
0000
1100
0000
0100
0000
0110
0000
0110
0000
0110
0000
0010
,
0000
0011
0000
0011
0000
0110
0000
0100
0000
1100
0000
0100
,
0000
0000
1010
0011
0011
0110
,
1100
1100
0101
0011
1010
1100
,
0110
0000
0000
0000
,
0000
0000
0000
0000
;

//---------------dance-double - ----------------
#NOTEDATA:;
#CHARTNAME:;
#CHARTHASH:28428992:
#STEPSTYPE:dance-double;
#BANNER:;
#DESCRIPTION:;
#CHARTSTYLE:;
#DIFFICULTY:Easy;
#METER:7;
#METERF:0.000000;
#RADARVALUES:0.267689,0.374345,0.075625,0.058820,0.000000,223.000000,214.000000,9.000000,7.000000,0.000000,0.000000,0.000000,0.000000,0.000000,0.267689,0.374345,0.075625,0.058820,0.000000,223.000000,214.000000,9.000000,7.000000,0.000000,0.000000,0.000000,0.000000,0.000000;
#CREDIT:;
#NOTES:
00000000
00000000
00000000
00000000
,
00000000
00000000
00000000
00000000
,
00000000
00000000
00000000
00000000
,
00000000
00000000
00000000
00000000
,
00000000
00000000
00000000
00000000
,
00100000
00000000
00100000
00000000
,
01000000
00000000
01000000
00000000
,
00001000
00000000
00001000
00000000
,
00010000
00000000
00010000
00000000
,
00000000
00000000
00001000
00000000
00000000
00001000
00000000
00000000
,
00100000
00000000
00000000
00100000
00000000
00000000
01000000
00000000
,
00000000
00000000
10000000
00000000
00000000
10000000
00000000
00000000
,
00100000
00000000
00000000
00100000
00000000
00000000
01000000
00000000
,
00000000
00000000
00001000
00000000
00000000
00001000
00000000
00000000
,
00010000
00000000
00000000
00010000
00000000
00000000
00000010
00000000
,
00000000
00000000
00001000
00000000
00000000
00001000
00000000
00000000
,
00000001
00000000
00000000
00000001
00000000
00000000
00000100
00000000
,
00000000
00000010
00001000
00000010
,
00000100
00000010
00001000
00000100
,
00000000
00010000
00001000
00100000
,
00010000
01000000
00010000
00100000
,
00000000
01000000
01000000
01000000
,
10000000
10000000
00010000
00010000
,
10000000
01000000
00100000
00010000
,
00011000
00000000
00000000
00000000
,
00000010
00001000
00000001
00000100
,
00000001
00000100
00001000
00000000
,
00010000
00001000
00100000
00010000
,
10000000
01000000
00010000
00000000
,
00001000
00010000
01000000
10000000
,
00100000
01000000
00100000
00000000
,
00010000
00001000
00000100
00000001
,
00000010
00000100
00000010
00000000
,
00000001
00000100
00000010
00001000
,
00010000
01000000
00100000
00000000
,
10000000
01000000
00100000
00010000
,
00001000
00000100
00000010
00000000
,
00000001
00000100
00000010
00001000
,
00000100
00010000
00001000
00010000
,
01000000
10000000
00100000
01000000
,
00010000
10000000
01000000
10010000
,
02200000
00000000
00000000
00000000
,
00000000
00000000
00000000
00000000
,
03300000
00010000
00100000
00001000
,
00000000
00000000
00011000
00000000
00000000
00011000
00000000
00000000
,
00000000
00000010
00001000
00000001
,
00000000
00000100
00000100
00000100
,
00000000
00000010
00001000
00000100
,
00000000
00010000
00010000
00010000
,
00000000
00000000
00001000
00000000
00000000
00001000
00000000
00000000
,
00010000
00000000
00000000
00010000
00000000
00000000
00000010
00000000
,
00000000
00000000
00010000
00000000
00000000
00010000
00000000
00000000
,
00001000
00000000
00000000
00001000
00000000
00000000
01000000
00000000
,
00000000
00000000
00001000
00000000
00000000
00001000
00000000
00000000
,
00010000
00000000
00000000
00010000
00000000
00000000
00001000
00000000
,
00000000
00000000
00000100
00000000
00000000
00000100
00000000
00000000
,
00000010
00000000
00000000
00000010
00000000
00000000
00001000
00000000
,
00000000
00000100
00010000
00001000
,
01000000
00100000
10000000
01000000
,
00000000
00100000
00001000
00010000
,
00000010
00000100
00000001
00000010
,
00000000
00000100
00000000
00000100
,
00000000
00010000
00000000
00010000
,
00022000
00000000
00000000
00000000
,
00033000
00000000
00000000
00000000
,
00010000
00001000
00020000
00000000
,
00001000
00000000
00031000
00000000
,
00100000
00010000
20000000
00000000
,
01000000
00000000
31000000
00000000
,
00100000
01000000
00200000
00000000
,
00001000
00000000
00301000
00000000
,
00010000
00000100
00000010
00000001
,
00000100
00000010
00000100
00000000
,
00000000
00000010
00001000
00000100
,
00011000
00000000
00011000
00000000
,
00100000
00000000
00010000
00000000
,
01000000
01000000
01000000
00000000
,
00100000
00000000
01000000
00000000
,
00010000
00001000
00001000
00000000
,
00000000
00000010
00000010
00000001
,
00000100
00000100
00001000
00001000
,
00011000
00000000
00000000
00000000
,
00000000
00000000
00000000
00000000
;

//---------------dance-double - ----------------
#NOTEDATA:;
#CHARTNAME:;
#CHARTHASH:1668495858:
#STEPSTYPE:dance-double;
#BANNER:;
#DESCRIPTION:;
#CHARTSTYLE:;
#DIFFICULTY:Medium;
#METER:12;
#METERF:0.000000;
#RADARVALUES:0.469356,0.578533,0.184862,0.151250,0.189063,391.000000,369.000000,22.000000,18.000000,0.000000,0.000000,0.000000,0.000000,0.000000,0.469356,0.578533,0.184862,0.151250,0.189063,391.000000,369.000000,22.000000,18.000000,0.000000,0.000000,0.000000,0.000000,0.000000;
#CREDIT:;
#NOTES:
00000000
00000000
00000000
00000000
,
00000000
00000000
00000000
00000000
,
00000000
00000000
00000000
00000000
,
00000000
00000000
00000000
00000000
,
00000000
00000000
00000000
00000000
,
00001000
00010000
00001000
00000000
00100000
00010000
00100000
00000000
,
01000000
10000000
01000000
00000000
00100000
00010000
00100000
00000000
,
00001000
00010000
00001000
00000000
00000100
00000001
00000100
00000000
,
00000001
00000010
00000001
00000010
00000100
00001000
00000100
00000000
,
00001100
00000000
00010000
00000000
00000000
00010000
00000000
00000000
,
00001000
00000000
00000000
00001000
00000000
00000000
01000000
01000000
,
00000000
00000000
00100000
00000000
00000000
00100000
00000000
00000000
,
00010000
00000000
00000000
00010000
00000000
00000000
00001000
00001000
,
00000000
00000000
00000010
00000000
00000000
00000010
00000000
00000000
,
00000100
00000000
00000000
00000100
00000000
00000000
00010000
00010000
,
00000000
00000000
00001000
00000000
00000000
00001000
00000000
00000000
,
01000000
00000000
00000000
01000000
00000000
00000000
00100000
00100000
,
10000000
10000000
01000000
01000000
,
00100000
00100000
00010000
00010000
,
00001000
00001000
00000100
00000100
,
00000010
00000010
00000001
00000001
,
00000010
00000100
00000010
00000000
00000100
00001000
00000100
00000000
,
00010000
00001000
00010000
00000000
00100000
01000000
00100000
00000000
,
10000000
01000000
00100000
01000000
00100000
00010000
01000000
00100000
,
01000000
00001000
00001000
00010000
00001000
00001000
00001000
00000000
,
00000010
00000100
00000010
00000100
00000000
00001000
00001000
00001000
,
00000010
00000100
00000010
00000100
00000000
00001000
00000000
00100000
,
01000000
00100000
01000000
00100000
00000000
10010000
00000000
00000000
,
00100000
00000000
00010000
00000000
00100000
00000000
00010000
00000000
00000000
00000000
10000000
00010000
10000000
00000000
00000000
00000000
,
00100000
01000000
00100000
01000000
00000000
00001000
00010000
00001000
,
00000010
00000100
00000010
00000100
00000000
00001000
00000000
00001000
,
00000010
00001000
00000010
00001000
00000000
00001001
00000000
00000000
,
00000001
00000000
00000100
00000000
00000001
00000000
00000100
00000000
00000010
00000100
00000010
00000100
00000010
00000000
00000000
00000000
,
00001000
00000100
00001000
00000100
00000000
00010000
00010000
00010000
,
00001000
01000000
00001000
01000000
00000000
00100000
00000000
00100000
,
01000000
00100000
01000000
00100000
00000000
10010000
00000000
00000000
,
00100000
00000000
00010000
00000000
00100000
00000000
00010000
00000000
00000000
00000000
01000000
00010000
01000000
00000000
00000000
00000000
,
00001000
00010000
00001000
00010000
00000000
00001000
00001000
00001000
,
00010000
00000100
00010000
00000100
00000000
00000010
00000000
00000010
,
00000001
00000010
00000001
00000010
00000000
00001001
00000000
00000000
,
00000010
00000000
00000100
00000000
00000010
00000000
00000100
00000000
00000001
00001000
00000001
00001000
00000001
00000000
00000000
00000000
,
00002002
00000000
00000000
00000000
,
00000000
00000000
00000000
00000000
,
00003003
00000000
00010000
00001000
00010000
01000000
00010000
01000000
,
00000000
00000000
11000000
00000000
00000000
22000000
00000000
00000000
,
33000000
00000000
00100000
00010000
01000000
00100000
01000000
00100000
,
00000000
01010000
01010000
00000000
00011000
00000000
00022000
00000000
,
00033000
00000000
00000010
00001000
00000100
00000010
00000100
00000010
,
00000000
00000001
00000100
00001000
,
00000000
00000000
01000000
00000000
00000000
01000000
00000000
00000000
,
00010000
00000000
00000000
00010000
00000000
00000000
00100000
00100000
,
00000000
00000000
00001000
00000000
00000000
00001000
00000000
00000000
,
00000100
00000000
00000000
00000100
00000000
00000000
00000001
00000001
,
00000000
00000000
00000010
00000000
00000000
00000010
00000000
00000000
,
00001000
00000000
00000000
00001000
00000000
00000000
00010000
00010000
,
00000000
00000000
01000000
00000000
00000000
01000000
00000000
00000000
,
10000000
00000000
00000000
10000000
00000000
00000000
00100000
00100000
,
01000000
00010000
00100000
00000000
00001000
00010000
00000100
00000000
,
00000010
00000001
00000100
00000000
00000010
00001000
00000100
00000000
,
00010000
00001000
00100000
00000000
00010000
01000000
10000000
00000000
,
01000000
00010000
00100000
00000000
00001000
00010000
00000100
00000000
,
00001000
00000100
00000001
00000000
00000100
00001000
00000010
00000000
,
00000100
00000010
00010000
00000000
00001000
00010000
00001000
00000000
,
00022000
00000000
00000000
00000000
,
00033000
00000000
00000000
00000000
,
00001001
00000000
00000000
00001000
00000100
00001000
00000200
00000000
00000000
00000000
00000000
00000000
,
00000310
00000001
00000010
00000001
00000000
00000000
00000100
00000010
00000100
00000010
00000000
00000000
,
00000000
00000000
00000000
00010000
00001000
00010000
00002000
00000000
00000000
00000000
00000000
00000000
,
01003000
00010000
01000000
00010000
00000000
00000000
00100000
01000000
00100000
01000000
00000000
00000000
,
00000000
00000000
00000000
10000000
00000000
10000000
00000000
20000000
00000000
30000000
00000000
00000000
,
01000000
00100000
01000000
00100000
00000000
00000000
00001000
01000000
00001000
01000000
00000000
00000000
,
00000000
00002000
00023000
00230000
,
00320000
00032000
00003020
00002030
,
00003000
00011000
00101000
01001000
,
00010010
00010100
00011000
00011000
,
00000000
00010000
00000000
01000000
00000000
00010000
00000000
01000000
00000000
00010000
00000000
01000000
,
00000000
10000000
00000000
00100000
00000000
01000000
00000000
00010000
00000000
00100000
00000000
00000000
,
00000000
00001000
00000000
00000100
00000000
00001000
00000000
00000100
00000000
00001000
00000000
00000100
,
00000000
00000001
00000000
00000010
00000000
00000100
00000000
00001000
00000000
00000010
00000000
00000000
,
00000000
00000000
00001000
00000010
00001000
00001000
,
00000100
00010000
00010000
00001000
01000000
01000000
,
10010000
00000000
00000000
00000000
,
00000000
00000000
00000000
00000000
;

//---------------dance-double - ----------------
#NOTEDATA:;
#CHARTNAME:;
#CHARTHASH:2147483647:
#STEPSTYPE:dance-double;
#BANNER:;
#DESCRIPTION:;
#CHARTSTYLE:;
#DIFFICULTY:Hard;
#METER:15;
#METERF:0.000000;
#RADARVALUES:0.647015,0.816752,0.546182,0.126042,0.382327,539.000000,474.000000,65.000000,15.000000,0.000000,0.000000,0.000000,0.000000,0.000000,0.647015,0.816752,0.546182,0.126042,0.382327,539.000000,474.000000,65.000000,15.000000,0.000000,0.000000,0.000000,0.000000,0.000000;
#CREDIT:;
#NOTES:
00000000
00000000
00000000
00000000
,
00000000
00000000
00000000
00000000
,
00000000
00000000
00000000
00000000
,
00000000
00000000
00000000
00000000
,
00000000
00000000
00000000
00000000
,
10000000
01000000
00010000
01000000
00010000
00001000
00000100
00000000
,
00000001
00000100
00001000
00000100
00001000
00010000
01000000
00000000
,
10000000
00100000
10000000
00100000
00010000
00001000
00000010
00000001
,
00000100
00001000
00000100
00000001
00000010
00001000
00010000
00000000
,
01100000
00000000
00110000
00000000
00000000
00011000
00000000
00000000
,
00001010
00000000
00000000
00000011
00000000
00000000
00000001
00000001
,
00000101
00000000
00001100
00000000
00000000
00011000
00000000
00000000
,
01010000
00000000
00000000
11000000
00000000
00000000
10000000
10000000
,
10100000
00100000
00010000
00010000
,
00001000
00001000
00000010
00000010
,
00000001
00000100
00001000
00000000
00010000
01000000
10000000
00000000
,
00010000
01000000
00010000
01000000
00100000
00010000
00001000
00000000
,
00000010
00000001
00000100
00000010
00001000
00000100
00010000
00000000
,
00100000
10000000
01000000
00100000
00010000
01000000
00001000
00000000
,
00010000
00000010
00000100
00000001
00000010
00000100
00000010
00000000
,
00001000
00100000
01000000
10000000
00100000
01000000
00100000
00000000
,
10000000
00100000
00010000
00001000
00010000
01000000
10000000
00100000
,
01000000
00001000
00010000
01000000
00100000
00001000
01000000
00001000
,
00000100
00000001
00000010
00001000
00010000
01000000
10000000
00100000
,
01000000
00100000
01000000
00100000
01000000
00000000
00010000
01000000
00010000
00000000
01000000
00000000
01010000
00000000
00000000
00000000
,
00010000
00000000
01000000
00000000
00001000
00000000
00010000
00000000
00000000
00000000
00001000
00010000
00001000
00000000
00010000
00000000
,
00001000
00000000
00000100
00000000
00000001
00000000
00000100
00000000
00000000
00000000
00000010
00000100
00000010
00000100
00000010
00000000
,
00001000
00000100
00010000
00000100
00000000
00011000
00000000
00000000
,
00100000
00000000
00010000
00000000
10000000
00000000
00100000
00000000
00000000
00000000
10000000
00100000
10000000
00000000
00000000
00000000
,
00100000
00000000
10000000
00000000
00100000
00000000
01000000
00000000
00000000
00000000
00010000
01000000
00010000
00000000
00000000
00000000
,
00100000
00000000
00001000
00000000
00010000
00000000
00001000
00000000
00000000
00000000
00010000
00001000
00010000
00001000
00010000
00000000
,
00001000
00010000
00000100
00001000
00000000
00001001
00000000
00000000
,
00000001
00000000
00000100
00000000
00001000
00000000
00000100
00000000
00000010
00000100
00000010
00000100
00000010
00000000
00000100
00000000
,
00000010
00000000
00001000
00000000
00000100
00000000
00010000
00000000
00000000
00000000
00001000
00010000
00001000
00000000
00010000
00000000
,
00001000
00000000
00000010
00000000
00000001
00000000
00000010
00000000
00000000
00000000
00000001
00000010
00000001
00000010
00000001
00000000
,
00001000
00000010
00010000
00000010
00000000
00011000
00000000
00000000
,
01000000
00000000
00010000
00000000
01000000
00000000
00010000
00000000
00000000
00000000
10000000
01000000
10000000
00000000
00000000
00000000
,
01000000
00000000
00100000
00000000
01000000
00000000
00100000
00000000
00000000
00000000
00010000
00100000
00010000
00000000
00000000
00000000
,
01000000
00000000
00001000
00000000
00010000
00000000
00001000
00000000
00000000
00000000
00010000
00001000
00010000
00001000
00010000
00000000
,
00001000
00010000
00000010
00001000
00000000
00001001
00000000
00000000
,
00000001
00000000
00000010
00000000
00001000
00000000
00000010
00000000
00000100
00000010
00000100
00000010
00000100
00000000
00010000
00000000
,
00022000
00000000
00000000
00000000
,
00000000
00000000
00000000
00033000
,
00000000
00000000
00100000
00010000
01000000
10000000
01000000
00010000
,
00000000
00000000
00110000
00110000
00000000
00011000
00022000
00000000
,
00033000
00000000
00000010
00001000
00000100
00000001
00000100
00001000
,
00000000
00001100
00001100
00000000
00011000
00000000
00022000
00000000
,
00033000
00000000
00100000
00001000
00010000
00000010
00010000
00001000
,
00000000
00000000
00000000
00000000
00010000
00000000
00001000
00000000
00010000
00001000
00010000
00001000
00010000
00000000
00001000
00000000
,
00200000
00000000
00010000
00000000
00000000
00010000
00000000
00000000
,
10000000
00000000
00000000
10000000
00000000
00000000
00310000
00010000
,
00000020
00000000
00000001
00000000
00000000
00000001
00000000
00000000
,
00001000
00000000
00000000
00001000
00000000
00000000
00000130
00000100
,
00020000
00000000
00000010
00000000
00000000
00000010
00000000
00000000
,
00100000
00000000
00000000
00100000
00000000
00000000
00030100
00000100
,
00002000
00000000
01000000
00000000
00000000
01000000
00000000
00000000
,
00000100
00000000
00000000
00000100
00000000
00000000
01003000
01000000
,
10000000
00000000
00010000
00000000
01000000
00100000
00010000
00000000
,
00001000
00010000
00000100
00000000
00000010
00000001
00000100
00000000
,
00000001
00000010
00000001
00000010
00000100
00010000
00001000
00000000
,
00100000
00010000
00100000
00010000
01000000
00100000
10000000
00000000
,
00010000
10000000
01000000
00000000
00100000
00001000
00010000
00000000
,
00001000
00000100
00000001
00000000
00000010
00000001
00000100
00000000
,
00000010
00000000
00001000
00000000
00000100
00000000
00010000
00000000
00001000
00010000
00001000
00010000
00001000
00010000
00001000
00010000
,
00002000
00000000
00000000
00003000
,
00001000
00000000
00000000
00100000
10000000
00100000
00020000
00000000
00000000
00000000
00000000
00000000
,
01030000
00100000
00010000
00100000
01000000
00001000
00010000
00000100
00000010
00000100
00001000
00000010
,
00000000
00000000
00000000
00000100
00000010
00000100
00000002
00000000
00000000
00000000
00000000
00000000
,
00000013
00000100
00001000
00000010
00000000
00000000
00000100
00000010
00001000
00000100
00010000
01000000
,
00000000
00000000
00000000
11000000
00000000
11000000
00000000
22000000
00000000
33000000
00000000
00000000
,
01000000
00100000
00010000
01000000
00001000
01000000
00100000
00010000
00001000
00000100
00000000
00000000
,
00000100
00000001
00000100
00000010
00001000
00000100
00010000
00001000
00010000
00100000
01000000
00100000
,
10000000
01000000
00010000
01000000
00100000
00001000
00010000
00001000
00000100
00000001
00000010
00000100
,
00000000
00000000
00000110
00010000
00011000
01000000
01010000
00100000
,
01100000
01000000
01010000
00001000
00011000
00000100
00000110
00000000
,
00000000
00000011
00000000
00000010
00000000
00000110
00000000
00000110
00000000
00000110
00000000
00000100
,
00000000
00001100
00000000
00001100
00000000
00011000
00000000
01010000
00000000
01100000
00000000
00000000
,
00000000
10100000
00000000
01000000
00000000
01100000
00000000
01100000
00000000
01100000
00000000
00010000
,
00000000
00110000
00000000
00110000
00000000
00011000
00000000
00001010
00000000
00000011
00000000
00000101
,
00000000
00000000
00000011
00000101
00000110
00001010
,
00001100
00011000
01010000
11000000
10100000
00110000
,
00011000
00000000
00000000
00000000
,
00000000
00000000
00000000
00000000
;

//---------------dance-single - ----------------
#NOTEDATA:;
#CHARTNAME:;
#CHARTHASH:0:
#STEPSTYPE:dance-single;
#BANNER:;
#DESCRIPTION:;
#CHARTSTYLE:;
#DIFFICULTY:Challenge;
#METER:16;
#METERF:0.000000;
#RADARVALUES:0.792264,0.782720,0.369723,0.336112,0.558786,660.000000,616.000000,44.000000,40.000000,0.000000,0.000000,0.000000,0.000000,0.000000,0.792264,0.782720,0.369723,0.336112,0.558786,660.000000,616.000000,44.000000,40.000000,0.000000,0.000000,0.000000,0.000000,0.000000;
#CREDIT:;
#DISPLAYBPM:150.000000:174.000000;
#NOTES:
// measure 0
0000
0000
0000
0000
,  // measure 1
0000
0000
0000
0000
,  // measure 2
0000
0000
0000
0000
,  // measure 3
0000
0000
0000
0000
,  // measure 4
0000
0000
0000
0000
,  // measure 5
0010
1000
0010
0100
0001
0010
1000
0000
,  // measure 6
0100
0010
0001
0100
0001
1000
0010
0000
,  // measure 7
1000
0100
0010
0100
1000
0001
0010
0000
,  // measure 8
0001
0100
0010
0100
0001
1000
0010
1000
,  // measure 9
0101
0000
2100
0000
0001
3002
0000
0010
,  // measure 10
0023
0000
0100
0230
0000
1300
0001
0100
,  // measure 11
1010
0000
0021
0000
0100
0230
0000
1000
,  // measure 12
2300
0000
0001
3002
0000
0013
0001
0100
,  // measure 13
1001
0000
0120
0000
1000
2030
0000
0001
,  // measure 14
3002
0000
0100
0203
0000
0310
1000
0100
,  // measure 15
1100
0000
0012
0000
0100
0203
0000
0010
,  // measure 16
0320
0000
0000
0000
1000
0000
2030
0000
0000
0000
3001
0000
1000
0010
0100
0001
,  // measure 17
0020
0000
0031
0100
0010
0001
0010
0100
,  // measure 18
0001
1000
0100
0001
0100
0010
0001
1000
,  // measure 19
0002
0000
0103
1000
0100
0010
1000
0001
,  // measure 20
0010
1000
0010
0100
1000
0001
0100
0010
,  // measure 21
2000
0000
3100
0010
0001
0100
1000
0100
,  // measure 22
0010
0100
1000
0100
0001
0010
0100
1000
,  // measure 23
0010
0000
0010
0000
0100
0000
0100
0000
0001
0010
0001
1000
0001
1000
0100
1000
,  // measure 24
0020
0000
0000
0001
0000
0000
0130
0000
0000
0000
0110
0000
1001
0000
0000
0000
,  // measure 25
1000
0100
0010
0000
0001
0000
0100
0010
1000
0000
0001
0000
0001
0000
0001
0000
,  // measure 26
0010
0001
0100
0000
0010
0000
1000
0001
0100
0000
0010
0000
1010
0000
0000
0000
,  // measure 27
1000
0001
0010
0000
0100
0000
1000
0010
0100
0000
0202
0000
0303
0000
1000
0000
,  // measure 28
1000
0001
0010
0000
0001
0000
0100
0010
1000
0000
0100
0000
0100
0000
0010
0000
,  // measure 29
0001
0100
0010
0000
1000
0000
0001
1000
0100
0000
0010
0000
0010
0000
0010
0000
,  // measure 30
0001
1000
0010
0000
1000
0000
0100
0010
0001
0000
0100
0000
0110
0000
0000
0000
,  // measure 31
1000
0001
0010
0000
0001
0000
0100
0010
1000
0000
2200
0000
3300
0000
0001
0000
,  // measure 32
0001
0100
0010
0000
1000
0000
0001
0000
1000
0100
0001
0100
1000
0000
0010
0000
,  // measure 33
0100
0001
0010
0000
0001
1000
0100
0000
1000
0000
0010
0000
0010
0000
0010
0000
,  // measure 34
1000
0100
0010
0001
0100
0000
0010
0000
1000
0000
0001
0000
0011
0000
0100
0000
,  // measure 35
0001
0010
0100
0000
1000
0010
0100
0000
0001
0000
1010
0000
1000
0000
0001
0000
,  // measure 36
0010
0001
1000
0000
0010
0100
0002
0000
0000
0000
1000
0000
1000
0000
1003
0000
,  // measure 37
0100
1000
0010
1000
0100
0010
0002
0000
0000
0000
0100
0000
0100
0000
0103
0000
,  // measure 38
0001
0010
0100
0000
1000
0001
0100
0000
0010
0000
1000
0000
0101
0000
0010
0000
,  // measure 39
0100
0001
0010
0000
0100
1000
0001
0000
0100
0000
1001
0000
0010
0000
0000
0000
,  // measure 40
1000
1000
0001
0001
0100
0100
0010
0010
,  // measure 41
1000
0100
1000
0100
0010
0001
0010
0001
,  // measure 42
1000
0100
1000
0000
0001
0100
0001
0000
1000
0010
1000
0000
0001
0010
0001
0000
,  // measure 43
2010
0000
3100
0100
1000
1000
0001
0001
,  // measure 44
0010
0001
0010
0100
1000
0000
0010
1000
0100
0010
0001
0000
0100
0010
1000
0000
,  // measure 45
0102
0000
0013
0010
0001
0001
1000
1000
,  // measure 46
0010
1000
0001
1000
0100
0000
0010
0001
1000
0001
0100
0000
0010
0100
0001
0000
,  // measure 47
1200
0000
1300
1000
0010
0010
0100
0100
,  // measure 48
0001
0000
0001
0000
0010
0000
0010
0000
0100
0000
0100
0000
1000
0001
0100
0010
,  // measure 49
1000
0000
0101
0010
1000
0100
1000
0001
,  // measure 50
0010
1000
0010
0100
1000
0010
0001
0010
,  // measure 51
0110
0000
1001
0100
0010
0100
0001
0010
,  // measure 52
1000
0010
0100
0001
0100
0010
0100
1000
,  // measure 53
1100
0000
1010
0001
1000
0010
0100
1000
,  // measure 54
0100
0001
0010
0100
0001
0100
1000
0001
,  // measure 55
1001
0000
0101
0010
0100
1000
0100
0010
,  // measure 56
1000
0001
0010
1000
0010
0100
1000
0001
,  // measure 57
0011
0000
0110
0100
1000
0001
1000
0010
,  // measure 58
0100
1000
0100
0001
1000
0010
0001
0010
,  // measure 59
1000
0001
0010
1000
0010
0100
1000
0010
,  // measure 60
0100
0001
0010
0001
1000
0010
0100
1000
,  // measure 61
0100
0001
0010
0100
0001
0100
1000
0010
,  // measure 62
1000
0001
0100
0010
1000
0100
0010
0001
,  // measure 63
1000
0000
1000
0000
0001
0000
0001
0000
0010
0100
0010
0100
1000
0001
0100
0010
,  // measure 64
2000
0000
0010
0000
0000
0000
0000
0100
0000
0000
0000
0000
3000
0000
0000
0000
,  // measure 65
1001
0000
0000
0010
0000
0010
1000
0100
1000
0100
1000
0100
,  // measure 66
0010
0001
0010
0001
0010
0001
1000
0100
0010
0001
0000
0100
,  // measure 67
0110
0000
0000
0001
0010
0001
1000
0010
1000
0010
0100
0001
,  // measure 68
1000
0100
1000
0001
0000
0100
0101
0000
0000
2200
3300
0000
,  // measure 69
0011
0000
0000
1000
0000
1000
0010
0100
0001
0010
0100
1000
,  // measure 70
0001
0100
0001
0100
0000
0100
0010
1000
0001
1000
0100
0010
,  // measure 71
0001
0100
0010
1000
0000
0001
1000
0000
0001
0010
0000
0100
,  // measure 72
1000
0000
0010
1000
0000
0100
0010
0000
0001
0202
0303
0000
,  // measure 73
1010
1100
0110
0011
,  // measure 74
1001
0000
0000
1010
0000
0000
0001
0100
1000
0100
0001
0100
,  // measure 75
0002
0100
0000
1000
0000
1000
0000
0010
0000
0100
0000
0100
,  // measure 76
0000
1000
0000
0010
0000
1000
0000
0100
0000
0013
0001
0100
,  // measure 77
0020
1000
0000
1000
0000
0001
0000
0100
0000
0001
0000
1000
,  // measure 78
0000
1000
0000
0001
0000
0100
0000
0100
0000
1030
0001
0010
,  // measure 79
0100
0000
0000
1001
1000
0100
0020
0000
0032
0000
2003
0000
,  // measure 80
3020
0000
0100
0000
0001
0000
1000
0000
0001
0000
0130
0000
,  // measure 81
0110
0000
0000
0000
;
