#TITLE:Valerie;
#ARTIST:Mark Ronson ft. Amy Winehouse;
#BANNER:Valerie-bn.png;
#BACKGROUND:Valerie-bg.png;
#JACKET:Valerie-jacket.png;
#MUSIC:Valerie.ogg;
#SAMPLESTART:26.9;
#SAMPLELENGTH:20;
#DISPLAYBPM:103:110;
#BPMS:0=105.74,8=108,12=107,14=109,16=106,18=107.65,21=105.64,28=106.78,32=106.125,34=105,40=106.561,44=105.134,46=105.975,51=104.275,56=106.75,58=105.86,63=105.4,64=106.31,67=108.1,70=104.51,76=105.245,87=104,88=105.573,93=106.54,96=104.167,100=104.95,102=104.333,104=105.02,108=105.7,128=105.043,132=104.873,136=105.222,138=104.123,140=105.47,142=107.8,143=110,145=103,148=104.867,152=104.25,153=105.094,154=107.016,164=104.556,169=106.571,172=104.2,173=109.55,174=103.4,176=108.75,177=104.85,179=109.2,181=107.85,182=105.3,184=103.95,188=105.4,192=106.71,196=106.345,198=109.135,200=103.859,204=105.249;
#BGCHANGES:;

//---------------dance-single - ----------------
#NOTES:
     dance-single:
     :
     Beginner:
     2:
     :
0000
0000
0000
0000
,
0000
0000
0000
0000
,
0010
0000
0000
0000
,
0100
0000
0000
0000
,
0110
0000
0001
0000
,
1000
0000
0010
0000
,
0100
0000
0000
0000
,
0001
0000
0000
0000
,
1000
0000
0010
0000
,
1000
0000
0100
0000
,
0010
0000
0000
0000
,
0001
0000
0000
0000
,
0100
0000
0000
0000
,
0010
0000
0000
0000
,
1000
0000
0000
0000
,
0001
0000
0000
0000
,
0010
0000
0000
0000
,
0100
0000
0000
0000
,
1000
0000
0001
0000
,
0100
0100
0100
0000
,
0010
0000
0000
0000
,
0000
0000
0001
0001
,
0001
0000
0000
0000
,
0000
0000
1000
1000
,
1000
0000
0000
0000
,
0000
0000
0010
0010
,
0010
0000
0000
0000
,
0100
0000
0001
0000
,
1001
0000
0000
0000
,
1000
0000
0000
0000
,
0001
0000
0000
0000
,
0100
0000
0010
0000
,
1000
0000
0100
0000
,
1000
0000
0001
0000
,
0010
0000
0100
0000
,
1000
0000
0001
0000
,
0100
0000
0000
0000
,
0010
0000
0000
0000
,
1000
0000
0000
0000
,
0001
0000
0000
0010
,
0010
0000
0000
0000
,
0001
0000
0000
0000
,
1000
0000
0001
0000
,
0010
0010
0010
0000
,
0001
0000
0000
0000
,
0000
0000
0100
0100
,
0100
0000
0000
0000
,
0010
0000
1000
1000
,
1000
0000
0001
0000
,
0100
0000
0010
0000
,
0100
0100
0000
0000
,
0001
0001
0001
0001
,
0001
0000
0000
0000
;

//---------------dance-single - ----------------
#NOTES:
     dance-single:
     :
     Easy:
     6:
     :
0000
0000
0000
0000
,
0000
0000
0000
0000
,
0010
1000
0100
0001
,
0010
0001
0100
1000
,
0110
0001
0010
0001
,
1000
0000
0010
0100
,
0001
0000
1000
1001
,
0010
0100
0001
1000
,
0100
0010
0001
0100
,
0010
1000
0001
1000
,
0100
0010
0001
1001
,
0100
0010
1000
0100
,
0020
0001
0100
0031
,
2000
0001
0100
3000
,
0002
0010
1000
0013
,
0200
0001
0010
0300
,
0002
0010
1000
0003
,
0200
0010
1000
0301
,
2000
3000
0002
0003
,
0010
0001
0100
1000
,
0010
0110
0100
0001
,
0010
0100
1000
0010
,
1000
0001
0010
0100
,
1000
0010
1000
0100
,
0010
0001
0100
0010
,
1000
0100
1000
0001
,
0010
0100
0010
0001
,
0100
0010
1000
0100
,
1001
0000
0000
0001
,
1000
0000
0000
1000
,
0020
0030
0200
0300
,
0001
1000
0001
1000
,
0110
0010
1000
0100
,
0001
0010
0001
0100
,
0010
1000
0100
0000
,
0010
0001
1000
0001
,
2000
0010
0100
3010
,
0002
1000
0010
0003
,
0200
0010
0001
0310
,
0002
1000
0100
0003
,
0020
1000
0100
0030
,
2000
0010
0100
3001
,
0200
0300
0020
0030
,
1000
0010
0001
0100
,
0010
0110
0001
0010
,
0001
0100
1000
0010
,
1000
0100
0001
0010
,
0001
0100
0010
1000
,
0100
1000
0010
0100
,
0010
1000
0100
0001
,
0100
1001
0010
1000
,
0001
0100
0010
2000
,
0002
0000
0000
0000
,
0000
0000
0000
0000
,
0000
0000
0000
3003
;

//---------------dance-single - ----------------
#NOTES:
     dance-single:
     :
     Medium:
     9:
     :
0000
0000
0000
0000
,
0000
0000
0000
0000
,
0010
1000
0000
1000
0000
0001
0000
0001
,
0000
0100
0000
0100
0000
0001
1000
0010
,
0110
0000
0001
0000
0010
0000
0100
1000
,
0001
0000
0000
0010
0001
1000
0001
0100
,
0010
1000
0000
1000
0010
0100
1001
0000
,
0001
0010
0000
0010
0000
0001
1000
0100
,
1000
0000
0010
0100
0001
0000
0010
0100
,
1000
0000
0010
1000
0001
0000
0010
0100
,
1000
0000
0001
0000
0100
0010
1001
0000
,
0010
1000
0000
0001
0000
1000
0100
0010
,
0001
1000
0000
0001
0000
1000
0100
0010
,
0001
0100
0000
0010
0000
0100
0001
0010
,
0100
0010
0000
0001
0000
1000
0010
1000
,
0000
0100
0000
0010
0000
0001
1000
0000
,
1010
0000
0001
1000
0010
1000
0100
0000
,
0000
0001
0001
1000
0011
0000
0010
0100
,
1000
0010
0100
0001
0000
0010
0001
0000
,
0011
0000
0000
0000
1100
0000
0000
0000
0011
0000
0000
0000
1000
0001
1000
0001
,
2000
0010
0001
3100
,
0020
0000
0031
0000
1000
0001
0010
0100
,
2000
0001
0010
3100
,
1000
0010
0000
0010
1000
0000
0001
0100
,
0002
0010
1000
0103
,
0020
0000
0130
0000
0010
0001
1000
0001
,
0200
0001
1000
0310
,
0100
0001
0000
0001
0100
0000
0010
1000
,
1001
0001
0010
0011
,
1100
0001
0100
1010
,
0101
0010
0002
1003
,
0020
0000
2030
0000
3200
0000
0310
0001
,
1000
0000
0010
0100
0001
0000
0110
0000
,
1001
0000
0010
0001
1000
0000
0010
1000
,
0100
0010
0001
0000
1000
0001
1001
0000
,
0002
0023
0230
2300
,
3010
0000
1000
0001
0100
0000
1010
0000
,
0100
0000
0010
0001
1000
0000
0011
0000
,
0001
0000
1000
0010
0100
0000
0101
0000
,
0010
0000
0000
0000
0001
0000
1000
0000
0001
0000
0000
0000
0100
0010
0100
0010
,
0100
0000
0001
1000
0010
1000
0100
0000
,
1100
0000
0001
0010
1000
0000
0100
0010
,
0002
1003
0020
0130
,
0101
0000
0000
0000
1100
0000
0000
0000
0101
0000
0000
0000
1000
0001
1000
0001
,
1000
0010
0000
0100
0000
0001
1000
0100
,
0010
0001
0000
0100
0000
0001
1000
0010
,
1000
0100
0000
0010
0000
0001
0100
0000
,
0010
1000
0000
1000
0001
0010
0100
0000
,
1000
0010
0000
1000
0100
0010
0001
0000
,
0100
0001
0000
0010
0001
0100
0100
0100
,
0010
1000
0001
0000
0010
0100
1000
0000
,
1010
0000
0101
0000
1100
1000
0010
2000
,
0002
0000
0000
0000
,
0000
0000
0000
0000
,
0000
0000
0000
3003
;

//---------------dance-single - ----------------
#NOTES:
     dance-single:
     :
     Hard:
     10:
     :
0000
0000
0000
0000
,
0000
0000
0000
0000
,
0010
0000
0000
0100
0000
0000
0001
0000
0000
0000
1000
0000
1000
0000
0100
0000
,
0010
0000
0000
0001
0000
0000
1000
0000
0000
0000
0100
0000
0100
0000
0010
0000
,
0110
0000
0001
0100
0010
0000
1000
0001
,
0100
0000
0000
0000
0000
0000
0001
1000
0001
0000
0010
0000
0100
0000
1000
0000
,
0010
0000
0100
0000
0001
0000
0000
0000
1000
0001
1000
0000
1001
0000
0000
0000
,
0010
0000
0000
1000
0000
0000
0100
0000
0000
0000
0001
0000
0001
0000
1000
0000
,
0010
1000
0100
0010
0002
0000
0013
0001
,
0100
0000
0000
0010
1000
0000
0010
0000
1000
0000
0100
0000
0010
0000
0001
0000
,
1000
0000
0001
0000
0200
0000
0000
0000
0310
0000
0000
1000
0000
0000
0001
0000
,
0011
0000
0000
0000
1100
0000
0000
0000
0001
0100
0001
0100
0000
0000
0000
0010
,
1000
0100
0010
0001
0100
0000
0101
0100
,
0010
1000
0001
1000
0100
0000
1010
0010
,
1000
0100
0001
0100
1000
0000
1100
0010
,
1000
0100
0010
0001
0100
0010
1000
0000
,
1001
0000
0010
0100
0010
0000
1000
0000
0100
0000
0010
0000
0001
0000
0000
0000
,
0000
0000
0110
0000
0110
0000
1000
0100
1000
0000
0000
0000
0010
0000
0100
0000
,
0001
1000
0020
0000
1000
0000
0031
0000
,
0010
0100
0000
0010
0100
0000
0001
0000
1000
0000
0010
0000
1000
0000
0001
0000
,
0010
0000
0011
0000
0000
0000
1000
0000
1000
0001
0000
0100
0000
0000
0010
0000
,
1000
0000
1010
0000
0000
0000
0001
0000
0001
1000
0000
0100
0000
0000
0010
0000
,
0001
0000
0101
0000
0000
0000
0010
0000
0010
1000
0000
0100
0000
0000
1000
0000
,
0001
0000
1001
0000
0000
0000
0100
0000
0100
0001
0000
0000
1000
0000
0010
0000
,
0100
0000
0101
0000
0000
0000
0010
0000
0010
0001
0000
1000
0000
0000
0100
0000
,
1000
0000
1100
0000
0000
0000
0001
0000
0001
0010
0000
0100
0000
0000
0010
0000
,
0001
0000
0011
0000
0000
0000
1000
0000
1000
0010
0000
0100
0000
0000
0001
0000
,
0010
0000
0110
0000
0000
0000
0001
0000
0001
1000
0000
0000
0100
0000
0010
0000
,
1001
1000
0010
0101
,
1010
0000
0000
0000
0000
0000
1000
0001
1000
0000
0010
0000
0110
0000
0000
0000
,
1010
0000
0002
0000
,
2003
0000
3002
0000
1003
0000
1001
0100
,
0001
0010
0001
1000
0020
0000
1030
0001
,
0100
0000
0000
0001
0010
0000
0100
0000
1000
0000
0010
0000
1000
0000
0001
0000
,
0100
0010
2000
0000
3001
0100
0100
0010
,
2000
0000
0000
0000
3200
0000
0000
0000
0320
0000
0000
0000
0031
1000
0001
1000
,
0001
0100
0010
1000
0100
0000
0110
0010
,
0001
1000
0010
1000
0100
0000
1100
0001
,
0010
1000
0010
0001
0100
0000
0101
1000
,
0100
0000
1000
0000
0010
0000
0100
0000
0001
0000
1000
0000
0010
0100
0010
0100
,
0010
0000
1000
0001
1000
0000
0100
0000
0010
0000
0001
0000
0100
0000
0000
0000
,
0000
0000
1001
0000
1001
0000
0001
0100
0001
0000
0000
0000
0010
0000
0100
0000
,
2000
0010
3010
0100
0002
1000
1003
0001
,
0011
0000
0000
0000
0110
0000
0000
0000
1100
0000
0000
0000
0001
1000
0001
1000
,
0001
0000
0101
0000
0000
0000
1000
0000
1000
0010
0000
0100
0000
0000
0010
0000
,
1000
0000
1100
0000
0000
0000
0001
0000
0001
0010
0000
1000
0000
0000
0100
0000
,
0010
0000
0011
0000
0000
0000
0100
0000
0100
0001
0000
1000
0000
0000
0010
0000
,
1000
0000
1001
0000
0000
0000
0010
0000
0010
0001
0000
0000
0001
0000
0100
0000
,
0010
0000
0110
0000
0000
0000
1000
0000
1000
0100
0000
0010
0000
0000
0001
0000
,
0100
0000
1010
0000
0000
0000
1000
0000
1000
0001
1000
0000
0010
0000
0010
0000
,
0010
0000
0100
0001
0100
0000
0010
0000
1000
0001
0000
0001
0000
0000
0100
0000
,
0110
1001
0110
1001
0020
0230
0302
2003
,
0002
0000
0000
0000
,
0000
0000
0000
0000
,
0000
0000
0000
3003
;

//---------------dance-single - ----------------
#NOTES:
     dance-single:
     :
     Challenge:
     12:
     :
0000
0000
0000
0000
,
0000
0000
0000
0000
,
0010
0000
1000
0100
0000
1000
0100
0000
1000
0001
0010
0000
0010
0000
0001
0000
,
0100
0000
0010
1000
0000
0010
1000
0000
0001
1000
0001
0000
0001
0000
0100
0000
,
0110
0000
0000
0000
0010
1000
0000
0200
0010
0000
0000
0000
1300
0000
0001
0100
,
0010
0000
1000
0001
0000
0000
1000
0100
1000
0010
0000
0001
0000
0000
1000
0010
,
0000
0010
0100
0000
0001
0000
1000
0000
0100
0010
0001
0000
1001
0000
0000
0000
,
0010
0000
1000
0001
0000
1000
0001
0000
0010
0001
0100
0000
0100
0000
0010
0000
,
1000
0000
0100
0000
0010
0000
0001
1000
0001
0000
0000
0000
0101
0000
0100
0010
,
0000
0010
0000
1000
0001
0010
0000
0001
0000
1000
0010
0000
0100
0000
0001
2000
,
0000
0000
0010
0000
3100
0000
0010
0000
0001
1000
0001
1000
0000
1000
0100
0000
,
0010
0000
0001
0000
1000
0000
0001
0000
1000
0100
1000
0100
0000
0000
0010
0001
,
1000
0000
1000
0000
1000
0001
0000
0100
0010
0000
0000
0000
1010
0000
1000
0001
,
0000
0001
0100
0000
0100
0000
0010
1000
0000
0100
1000
0000
0001
1000
0000
0010
,
0100
0000
0001
0000
0001
0000
0010
0001
1000
0000
0000
0000
1100
0000
1000
0010
,
0000
0100
0010
0000
0010
0000
1000
0001
0000
1000
0000
0000
0100
0010
0001
1000
,
0010
0000
0100
0001
0100
0001
0000
0012
0000
0000
1000
0000
1003
0000
0010
0000
,
0100
0000
0110
0000
0110
0000
0001
1000
0100
0000
0000
0000
1100
0000
0010
0001
,
0000
0001
1000
0000
0020
0000
0100
0000
1030
0001
0100
0000
1001
0000
0010
0000
,
1000
0100
0000
0100
0010
0001
0000
1000
0000
0001
0000
0000
0010
0100
0010
0100
,
0010
0000
0011
0000
0001
0000
1000
0000
1000
0100
0000
1100
0000
0001
0100
0000
,
0010
0000
1010
0000
0001
0000
1000
0000
0100
0010
0000
0010
0001
0000
1000
0100
,
0000
1000
0001
0000
0001
0000
0100
0000
0010
1000
0000
1010
0000
0010
0100
0000
,
0001
0000
0101
0000
1000
0000
1100
0000
0010
0100
0000
0010
1000
0000
0001
0000
,
0100
0001
1000
0000
0010
0000
0110
0000
0100
0001
0000
0101
0000
0010
1000
0000
,
0100
0000
1100
0000
0001
0000
0011
0000
1000
0001
0000
0001
0010
0000
0100
1000
,
0000
1000
0010
0000
0010
0000
0110
0000
0001
1000
0000
1001
0000
0001
0100
0000
,
0010
0000
1010
0000
0001
0000
0011
0000
0010
0001
0000
1000
0100
0000
1000
0000
,
1001
0010
0000
0010
0000
0010
1000
0100
,
0001
0010
0000
0010
0000
0010
0001
1000
,
0010
0000
0100
0000
0000
0000
0100
0000
0001
1000
0001
0000
1001
0000
0000
0000
,
0002
0000
0000
0000
2003
0000
0000
0000
3001
0100
0010
0100
0010
0000
1000
0000
,
0100
0000
1000
0000
0010
0000
1000
0001
0100
0000
0010
0000
1010
0000
0001
1000
,
0000
1000
0000
0010
0100
0001
0000
0011
0000
0001
1000
0000
1000
0000
0100
0010
,
0000
0010
0001
0000
0001
0000
0100
0000
0010
1000
0100
0000
1001
0000
0100
0000
,
0001
0000
0010
0100
1000
0000
1000
0000
0010
0100
0001
0000
0001
0010
0100
1000
,
0010
0000
0100
0000
0001
1000
0000
1000
0100
0000
0000
0000
0110
0000
0010
0001
,
0000
0001
1000
0000
0010
0000
1000
0100
0000
0010
0001
0000
0100
0010
0000
0100
,
0000
0001
1000
0000
1000
0000
0100
0010
0001
0000
0000
0000
0011
0000
0010
0100
,
0000
0010
0001
0000
1000
0000
0001
0100
0000
0010
0000
0000
1000
0100
0010
0001
,
0100
0000
0001
1000
0001
1000
0000
2100
0000
0000
0010
0000
3010
0000
0100
0000
,
0001
0000
1001
0000
1001
0000
0100
0010
1000
0000
0000
0000
1010
0000
1000
0001
,
0000
0001
0010
0000
0002
0000
0000
0000
0103
0010
1000
0000
1001
0000
0100
0000
,
0001
1000
0000
1000
0100
0010
0000
0011
0000
0011
0000
0000
0001
0100
0010
0100
,
0001
0000
1000
0000
0100
0010
0001
0000
1000
0001
0000
0101
0000
0010
0100
0000
,
0001
0000
1000
0000
0010
1000
0001
0000
0010
0100
0000
0100
1000
0000
0010
0100
,
0000
0001
0010
0000
0001
0000
1000
0000
0100
0010
0000
0011
0000
1000
0001
0100
,
0010
0000
0110
0000
0100
0000
0101
0000
0001
1000
0000
0010
1000
0000
0001
0000
,
0010
0100
1000
0000
0001
0000
0100
0000
0010
1000
0000
1010
0000
0001
0010
0100
,
1000
0000
1100
0000
0010
0000
0011
0000
0001
0010
0100
0000
0100
0000
0100
0000
,
1000
0000
0010
0100
0001
0000
1000
0000
0001
0100
0000
0010
0000
0000
0110
0000
,
0101
0000
1100
0000
0101
0000
1100
0000
1001
0000
1001
0000
0001
1000
0001
2000
,
0002
0000
0000
0000
,
0000
0000
0000
0000
,
0000
0000
0000
3003
;
