#TITLE:Valanga;
#ARTIST:DJ TOTTO;
#BANNER:Valanga-bn.png;
#BACKGROUND:Valanga-bg.png;
#JACKET:Valanga-jacket.png;
#MUSIC:Valanga.ogg;
#SAMPLESTART:20.645;
#SAMPLELENGTH:20;
#DISPLAYBPM:186;
#BPMS:0=186;
#BGCHANGES:;

//---------------dance-single - ----------------
#NOTES:
     dance-single:
     :
     Beginner:
     5:
     :
0000
0000
0000
0000
,
0000
0000
0000
0000
,
0000
0000
0000
0000
,
0000
0000
0000
0000
,
0001
0000
0000
0000
,
0000
0000
0000
0000
,
1000
0000
0000
0000
,
0000
0000
0000
0000
,
0010
0000
0000
0000
,
0000
0000
0000
0000
,
0100
0000
0000
0000
,
0000
0000
0000
0000
,
0001
0000
0000
0000
,
0010
0000
0000
0000
,
0100
0000
0000
0000
,
1000
0000
0000
0000
,
1001
0000
1001
0000
,
1001
0000
1001
0000
,
0110
0000
0110
0000
,
0110
0000
0100
0100
,
0100
0000
0110
0000
,
1001
0000
0110
0000
,
0001
0001
0001
0001
,
0001
0001
0001
0000
,
1001
0000
1001
0000
,
1001
0000
1001
0000
,
0110
0000
0110
0000
,
0110
0000
1000
1000
,
1000
0000
0110
0000
,
1001
0000
0110
0000
,
0010
0010
0010
0010
,
0000
1000
1000
0000
,
1001
0000
0000
1001
,
0000
0000
0100
0000
,
0110
0000
0000
0110
,
0000
0000
0001
0000
,
1001
0000
0000
1001
,
0000
0000
1000
0000
,
0110
0000
0000
0110
,
0000
0000
0010
0000
,
1001
0000
1001
0000
,
1001
0000
0100
0100
,
0100
0000
0110
0000
,
0110
0000
0001
0001
,
0001
0000
0110
0000
,
1001
0000
0010
0010
,
0010
0000
0110
0000
,
1001
0000
0110
0000
,
0020
0000
0000
0000
,
0000
0030
0010
0010
,
0010
0000
0001
0000
,
0100
0000
0100
0000
,
1000
1000
1000
0000
,
1001
0000
0110
0000
,
0001
0001
0001
0000
,
1001
0000
0110
0000
,
0100
0000
0110
0000
,
1001
0000
0100
0100
,
0100
0000
0010
0000
,
1000
0000
0001
0000
,
1000
1000
1000
0000
,
1001
0000
0110
0000
,
0001
0001
0001
0000
,
0110
0000
0010
0010
,
0010
0000
1001
0000
,
0000
0000
0000
0000
,
1001
0000
1001
0000
,
1001
0000
1001
0000
,
0110
0000
0110
0000
,
0110
0000
0100
0100
,
0100
0000
0110
0000
,
1001
0000
0110
0000
,
1000
1000
1000
1000
,
1000
1000
1000
0000
,
1001
0000
1001
0000
,
1001
0000
1001
0000
,
0110
0000
0110
0000
,
0110
0000
0110
0000
,
1001
0000
1001
0000
,
0110
0000
0110
0000
,
1001
0000
0000
0110
,
0000
0000
0000
0000
0000
0000
0000
0002
,
0000
0000
0000
0000
,
0000
0000
0000
0000
,
0000
0000
0000
0000
,
0000
0000
0000
0000
,
0003
0000
0000
0000
;

//---------------dance-single - ----------------
#NOTES:
     dance-single:
     :
     Easy:
     8:
     :
0000
0000
0000
0000
,
0000
0000
0000
0000
,
0000
0000
0000
0000
,
0000
0000
0000
0000
,
0001
0100
0010
0010
,
1000
0001
0010
0001
,
0010
0001
1000
0001
,
0010
1000
0001
0001
,
0010
0010
0001
1000
,
0001
1000
0010
0010
,
1000
0001
0001
0100
,
0100
0100
0100
0100
,
1000
0100
0100
0001
,
0100
1000
1000
0100
,
1000
0010
0010
0010
,
1000
0100
0100
1000
,
1010
0001
1100
0001
,
0011
0100
0110
0010
,
1001
0010
1100
0001
,
0110
0010
0011
0011
,
1100
0100
0101
1000
,
1010
0001
1100
1100
,
0001
0001
1000
1000
,
0010
0100
0010
0100
,
1001
1000
0110
0001
,
0011
0100
1010
0100
,
0011
1000
0110
0001
,
0101
0010
1010
1010
,
0101
1000
1001
0100
,
0011
0100
1000
0001
,
0101
0101
0010
1000
,
0100
0010
0110
1001
,
0001
0000
0000
1000
0000
0000
0010
0000
,
0000
0100
0000
0000
0101
0000
1100
0000
,
1000
0000
0000
0010
0000
0000
0100
0000
,
0000
0001
0000
0000
0011
0000
1100
0000
,
0010
0000
0000
1000
0000
0000
0100
0000
,
0000
0001
0000
0000
0011
0000
1010
0000
,
0100
0000
0000
0001
0000
0000
1000
0000
,
0000
0010
0000
0000
0110
0000
1010
0000
,
0001
0010
0001
0100
,
0010
1000
1001
1001
,
0010
1000
0100
0010
,
0001
0100
0110
0110
,
0001
0010
1000
0100
,
0010
0001
1001
1010
,
0100
0010
1000
0001
,
0010
0100
1010
0101
,
0020
0000
0000
0000
,
0000
0030
0011
1100
,
0010
1000
0100
0010
,
0001
0001
0010
0100
,
1100
0101
1100
0101
,
2000
3000
1001
1010
,
1100
0001
1000
0010
,
0110
0110
0010
0100
,
0202
0300
0010
0013
,
0200
0300
1001
0110
,
1000
0010
0001
0100
,
0010
0100
0001
1000
,
0101
1100
0101
1100
,
0020
0030
1000
0110
,
1010
0101
0010
0100
,
1000
1001
0101
0011
,
0002
0000
0000
2000
0000
0000
0000
0000
,
0000
0000
0000
3003
,
0110
0001
0011
0100
,
1001
0010
1100
1000
,
1100
0011
1100
0011
,
1100
0101
1000
0001
,
0010
1001
0010
1001
,
0100
0010
1010
1100
,
0001
0001
1000
1000
,
0010
0100
0010
0100
,
0110
0001
1001
0100
,
0011
1000
1010
0010
,
1001
0010
1100
0010
,
0101
0100
0110
1000
,
1100
1100
0101
0101
,
1010
1010
0011
0011
,
1000
0000
0000
0010
0000
0000
0100
0000
,
0000
0001
0000
0000
1000
0100
0020
0002
,
0000
0000
0000
0000
,
0000
0000
0000
0000
,
0000
0000
0000
0000
,
0000
0000
0000
0000
,
0033
0000
0000
0000
;

//---------------dance-single - ----------------
#NOTES:
     dance-single:
     :
     Medium:
     13:
     :
0000
0000
0000
0000
,
0000
0000
0000
0000
,
0000
0000
0000
0000
,
0000
0000
0000
0000
,
0001
0010
0100
1000
0000
0000
0010
0000
,
0000
0000
1100
0000
0101
0000
0010
1000
,
0001
0010
0001
1000
0000
1000
0100
0010
,
0000
0001
0100
0000
1001
0000
0010
1000
,
0100
1000
0010
1000
0001
1000
0100
0000
,
0000
0001
1000
0000
0011
0010
0100
0000
,
1000
0010
1000
0010
1000
0100
0010
0001
,
0000
0100
0010
0000
0110
0000
0001
1000
,
0010
0100
0000
1010
0000
1000
0001
0000
,
0000
0010
0001
0000
0001
1000
0100
0010
,
0001
1000
0010
0100
0001
1000
0010
0100
,
0001
0010
0100
1000
0100
0010
0001
0000
,
1000
0010
1010
0000
0001
0100
0101
0000
,
0001
0010
0011
0000
1000
0100
1100
0000
,
0010
0100
1001
0000
0001
1000
0110
0000
,
0001
1000
1100
0000
0101
0001
1000
0100
,
1000
0010
1010
0000
0100
0001
0011
0000
,
0010
1000
0110
0000
0101
0001
0010
0100
,
1000
0010
1000
0001
0010
0100
1000
0000
,
0010
1000
0001
1000
0010
0100
0001
0000
,
0010
0100
1100
0000
0001
1000
0110
0000
,
0001
0010
1001
0000
1000
0100
0011
0000
,
0001
0100
0110
0000
0010
1000
1010
0000
,
0010
0100
1001
0000
1010
0001
1000
0100
,
0010
0001
0101
0000
1000
0100
1001
0000
,
0010
0100
1010
0000
0101
0001
0010
1000
,
0100
1000
0001
0000
0001
0010
0100
1000
,
0000
1010
0000
1001
0010
0100
0010
0100
,
0001
0001
0000
0010
0010
0000
0100
0100
,
0000
1000
1000
0000
0010
0100
0001
1000
,
0100
0100
0000
0010
0010
0000
0001
0001
,
0000
1000
1000
0000
0001
1000
0010
0100
,
0010
0010
0000
1000
1000
0000
0100
0100
,
0000
0001
0001
0000
1000
0001
0010
0100
,
1000
1000
0000
0010
0010
0000
0001
0001
,
0000
0100
0100
0000
0010
1000
0001
0100
,
0001
0011
0000
1000
1010
0000
0010
0110
,
0000
0100
0101
0000
1000
0001
0010
0100
,
1000
1010
0000
0001
0011
0000
0100
0101
,
0000
0010
1010
0000
0010
1000
0100
0001
,
0100
1100
0000
0010
0110
0000
0001
1001
,
0000
1000
1100
0000
0001
0010
0100
1000
,
0001
1001
0000
0100
0110
0000
0010
1010
,
0000
1000
1100
0000
1000
0010
0001
0100
,
0020
0000
0000
0000
,
0000
0000
0030
0001
1000
0001
1000
0100
,
0010
0001
0010
0001
0010
0001
0100
0020
,
0000
2030
0000
3001
1000
0010
1000
0001
,
0200
0000
0000
0320
0000
0000
0230
0000
0000
0320
0000
0000
1030
0000
0100
0000
,
0002
0000
0003
0010
0001
1000
0010
0100
,
0010
0000
1001
0000
0110
0010
1000
0100
,
1000
0000
0001
0000
0000
0000
0010
0000
0001
0000
0000
0100
0000
0000
0010
0000
,
2000
0000
0000
0000
3000
0000
0010
0000
1000
0000
0000
0001
0000
0000
0100
0000
,
0020
0000
0030
1000
0001
1000
0100
0010
,
0001
0100
0001
0100
0001
0100
0010
2000
,
0000
3200
0000
0310
0001
0100
0001
1000
,
0020
0000
0000
0230
0000
0000
0320
0000
0000
0230
0000
0000
0301
0000
0010
0000
,
2000
0000
3000
0100
1000
0010
0100
0001
,
0010
0000
0011
0000
1100
0001
1000
0020
,
0000
0130
0010
1000
0001
1000
0100
0000
,
0011
0000
0001
2020
0000
0000
0000
0000
,
0000
0000
0030
0000
3001
0010
0100
1000
,
0010
1000
1100
0000
0100
0001
0011
0000
,
0100
0010
1001
0000
1000
0001
1010
0000
,
0010
1000
1100
0000
0110
0001
0100
0010
,
0100
0010
1010
0000
0101
0010
1000
0001
,
1000
0100
1001
0000
0001
0010
1100
0000
,
0010
0100
1001
0000
0101
0001
1000
0100
,
0110
0000
1001
0000
1000
0001
0100
0010
,
1000
0100
1100
0000
0010
0001
0011
0000
,
0100
0010
1010
0000
0001
1000
1001
0000
,
1000
0010
1100
0000
0001
0100
0101
0000
,
0010
1000
0110
0000
1010
0001
1000
0100
,
1000
0010
0100
0001
1000
0100
0010
0001
,
0100
0010
1010
0000
0100
0010
0110
0000
,
1000
0001
0011
0000
1000
0001
0110
0000
,
0001
0011
0000
0100
0110
0000
0010
1010
,
0000
1000
1001
0000
1000
0100
0020
0002
,
0000
0000
0000
0000
,
0000
0000
0000
0000
,
0000
0000
0000
0000
,
0000
0000
0000
0000
,
0033
0000
0000
0000
;

//---------------dance-single - ----------------
#NOTES:
     dance-single:
     :
     Hard:
     15:
     :
0000
0000
0000
0000
,
0000
0000
0000
0000
,
0000
0000
0000
0000
,
0000
0000
0000
0000
,
0001
0010
1000
0001
0100
1000
0001
0010
,
1000
0001
0100
1000
0010
0100
0001
1000
,
0100
0001
1000
0010
0001
1000
0100
0001
,
1000
0010
0001
1000
0100
0001
0100
1000
,
0010
0001
1000
1000
0001
0100
0100
0010
,
1000
0010
0010
0001
1000
0001
0100
0100
,
0100
0001
1000
0010
0010
1000
0001
0100
,
1000
0001
0001
0010
1000
0010
0100
0100
,
1000
0010
1000
0100
0100
0001
0001
0010
,
0010
0001
0001
1000
0010
0100
0100
1000
,
0010
0001
0100
0001
1000
1000
0100
0010
,
0001
0010
0001
0010
0001
0100
0001
0100
0001
1000
0001
1000
0001
0000
0000
0000
,
1010
0001
0101
0000
1100
0001
0011
0000
,
1001
0000
0100
0000
0110
0000
0001
1000
0001
0000
0100
0000
0010
0000
0000
0000
,
1010
0100
0011
0000
1001
0010
0110
0000
,
1100
0000
0001
0000
0101
0000
0000
0000
0010
0001
0100
0000
0010
0000
1000
0000
,
1001
0010
0101
0000
0011
1000
0110
0000
,
1100
0000
0001
0000
1010
0000
0000
0000
0001
0010
0100
0000
1000
0001
0100
0000
,
0010
0100
0001
1000
0001
0010
0100
1000
,
0010
0001
0010
0100
0010
1000
0010
0000
,
0110
0100
1001
0000
1010
0001
0101
0000
,
1100
0010
0011
0000
1100
0001
1010
0000
,
1001
0000
0001
0000
0101
0000
0000
0000
0011
0000
0100
0000
0110
0000
0000
1000
,
0001
0000
0010
0000
0100
0000
0000
0000
1000
0010
1000
0000
0001
0100
0001
0000
,
0011
0100
0110
0000
1100
0001
0101
0000
,
1001
0000
0100
0000
1010
0000
0000
0001
0010
0001
1000
0000
0010
0000
0100
0000
,
0001
0100
0010
1000
0200
2300
3002
0023
,
0031
0000
0200
0000
0310
0000
2000
0000
3001
0010
0001
0010
0100
1000
0100
1000
,
0010
1010
0000
0011
0011
0000
1100
1100
,
0000
0000
0101
0000
0101
0000
0000
0000
1000
0010
1000
0010
0100
0001
0100
0001
,
0010
0011
0000
1010
1010
0000
0101
0101
,
0000
0000
1100
0000
1100
0000
0000
0000
0001
1000
0001
1000
0100
0010
0100
0010
,
0001
0101
0000
1010
1010
0000
1001
1001
,
0000
0000
0110
0000
0110
0000
0000
0000
0010
1000
0010
1000
0001
0100
0001
0100
,
0010
0110
0000
1010
1010
0000
1100
1100
,
0000
0000
0011
0000
0011
0000
0000
0000
1000
0100
1000
0100
0010
0001
0010
0001
,
1000
0100
0001
1000
0010
0001
1000
0100
,
0001
0000
1000
0000
0010
0000
0001
0000
0100
0010
0100
0010
1000
0001
1000
0001
,
1000
0010
0001
1000
0100
0001
1000
0010
,
0001
0000
0000
1000
0000
0000
0100
0000
0000
0001
0000
0000
1000
0000
0100
0000
1000
0000
0001
0000
0100
0000
0001
0000
,
1000
0010
0001
1000
0100
0001
1000
0010
,
0001
0000
1000
0000
0100
0000
0001
0000
0010
0100
0010
0001
1000
0100
1000
0001
,
1000
0100
0001
1000
0010
0001
1000
0100
,
0001
0000
1000
0000
0010
0000
0001
0000
0010
0001
1000
0100
1000
0010
0001
0100
,
0020
0000
0000
0000
,
2000
0000
0000
0000
3030
0000
0001
0010
0001
0000
0100
0000
0010
0000
1000
0000
,
0001
0000
0010
0100
1000
0000
0010
0000
1000
0000
0001
0000
0100
0000
0202
0000
,
0303
0000
2200
0000
3300
0000
0001
1000
0010
0000
0100
0000
0010
0000
1000
0000
,
1010
0000
0000
1100
0000
0000
0101
0000
0000
0011
0000
0000
1001
0000
0100
0000
,
0110
0000
1000
0000
0010
0000
1000
0001
0100
0000
0001
0000
0010
0000
0100
0000
,
1000
0000
0010
0100
0010
0000
0000
0000
1000
0000
0001
0000
1000
0000
0100
0000
,
0010
0000
0001
0000
0100
0000
0001
0000
0010
0000
0100
1000
0000
1000
0001
0000
,
0200
0000
0010
0000
0310
0000
1010
0000
0101
0000
1000
0001
0000
0001
0100
0000
,
0020
0000
0000
0000
0030
0000
1000
0001
1000
0000
0100
0000
0010
0000
0001
0000
,
0100
0000
0001
0010
0001
0000
1000
0010
1000
0000
0100
0000
0010
0000
0022
0000
,
0033
0000
2020
0000
3030
0000
0001
0100
0010
0000
0010
0000
0010
0000
0010
0000
,
1001
0000
0000
1010
0000
0000
1100
0000
0000
0011
0000
0000
0101
0000
0010
0000
,
0110
0000
0010
0000
1000
0000
0100
0010
0001
0000
0100
0000
0001
0000
1000
0000
,
0010
0000
1000
0001
1000
0000
0000
0000
0010
0000
1000
0000
0100
0000
0002
0000
,
0000
0000
1000
0000
1003
0010
0100
0000
0001
0000
0001
0000
0200
0000
0000
0000
,
0320
1000
1030
0002
0100
0100
0103
0010
,
1000
0100
1000
0000
0001
0100
0001
0000
1000
0100
0010
0001
0010
0100
1000
0000
,
0010
0000
0100
0000
0101
0000
0000
0001
1000
0000
0100
0000
1100
0000
0000
0010
,
1000
0000
0001
0000
0011
0000
0000
0100
0010
0000
1000
0000
1001
0000
0000
0010
,
1000
0000
0100
0000
1010
0000
0000
0001
0010
0000
1000
0000
0110
0000
0000
0100
,
0010
0000
1000
0000
0101
0000
0000
0001
1000
0001
0100
0000
0010
1000
0001
0000
,
0010
0000
0100
0000
0110
0000
0000
0001
0100
0000
0010
0000
1010
0000
0000
1000
,
0100
0000
1000
0000
1100
0000
0000
0001
0010
0100
1000
0000
0001
1000
0010
0000
,
0100
1000
0010
0001
1000
0100
0010
0001
,
0100
0000
0010
0000
1000
0000
0001
0000
0010
0000
0001
0100
0001
0000
1000
0100
,
1000
0000
0010
0000
0100
0000
0001
0010
0001
0000
1000
0000
0100
0000
0000
0000
,
0010
0000
0001
0000
1000
0000
0010
0100
0010
0000
1000
0000
0001
0000
0000
0000
,
0100
0000
0001
0000
0010
0000
0100
1000
0100
0000
0010
0000
0001
0000
1000
0000
,
0010
0000
1000
0000
0001
0010
0001
0000
0100
0000
0010
0000
1000
0001
1000
0000
,
0100
0000
0010
0000
0001
0000
0100
0000
0001
0000
0010
0000
1000
0000
0100
0010
,
0001
0000
0100
0000
0001
0000
0010
0000
1000
0100
1000
0010
1000
0001
1000
0000
,
1100
0101
0000
1100
0101
0000
1010
0011
,
0000
0000
1010
0000
0011
0000
0000
0000
0010
1000
0001
1000
0100
0020
0002
0000
,
0000
0000
0000
0000
,
0000
0000
0000
0000
,
0000
0000
0000
0000
,
0000
0000
0000
0000
,
0033
0000
0000
0000
;

//---------------dance-single - ----------------
#NOTES:
     dance-single:
     :
     Challenge:
     18:
     :
0000
0000
0000
0000
,
0000
0000
0000
0000
,
0000
0000
0000
0000
,
0000
0000
0000
0000
,
0001
1000
0010
1000
0100
0010
0001
0100
,
1000
1000
0010
0100
0001
0100
0001
0010
,
0001
1000
1000
0010
0100
0010
0001
0100
,
0100
0000
1000
0000
0001
0000
0010
0000
0001
0010
1000
0100
0010
1000
0001
0100
,
0010
0001
1000
0100
1000
0010
0100
0001
,
0010
0001
1000
1000
0100
0001
0010
0100
,
0100
0000
0010
0001
0010
0000
0100
0010
0001
0000
0001
0000
1000
0000
1000
0000
,
0100
0000
0100
0000
0001
0000
0010
0000
0010
0100
1000
0100
1000
0100
0001
0010
,
0100
0010
1000
0001
0010
1000
0100
0001
,
0010
0010
1000
0100
1000
0001
0001
0100
,
0100
0001
0001
1000
1000
0010
0010
0100
,
0001
0010
1000
0100
0001
0010
1000
0100
0001
0010
1000
0100
0001
0000
0000
0000
,
1010
0000
1100
0000
0101
0000
0001
0010
1000
0000
0110
0000
0011
0000
0100
0010
,
1000
0000
1100
0000
1001
0000
0010
0100
0001
0010
1000
0000
0101
0000
0100
0010
,
0100
0000
1001
0000
0011
0000
0010
0001
1000
0000
0110
0000
1001
0000
1000
0100
,
0001
0000
0011
0000
1100
0000
0010
0000
1000
0100
0001
0000
0010
0001
1000
0001
,
0100
0000
0110
0000
0101
0000
0010
1000
0100
0000
1001
0000
0011
0000
0100
0001
,
1000
0000
0101
0000
1010
0000
0010
1000
0001
0010
0001
0100
0010
1000
0001
1000
,
0100
0000
0001
0010
0001
0000
1000
0010
1000
0000
0001
0100
0001
0000
1000
0100
,
1000
0000
0010
1000
0001
0000
0010
0100
1000
0000
0010
0100
0001
0000
1000
0100
,
0010
0000
1001
0000
0011
0000
0100
0010
1000
0000
1100
0000
0101
0000
0001
0010
,
1000
0000
1100
0000
0011
0000
0100
0010
1000
0001
0010
0000
0101
0000
0100
0010
,
1000
0000
1100
0000
0110
0000
0001
0010
0100
0000
1001
0000
0110
0000
0010
1000
,
0100
0000
0110
0000
0011
0000
0100
0001
0010
0100
1000
0010
1000
0001
0100
0010
,
1000
0000
1100
0000
0110
0000
1000
0001
0100
0000
0101
0000
1001
0000
0001
0010
,
1000
0000
1010
0000
0011
0000
0100
0001
0010
0100
1000
0001
1000
0010
1000
0100
,
0010
0000
0001
0100
0001
0000
1000
0100
1000
0000
1001
0000
0101
0000
0001
1000
,
0100
0000
0110
0000
0010
0000
0011
0000
1000
0100
0010
0001
1000
0100
0010
0001
,
0100
0010
1000
0000
0000
0000
0100
0010
0001
0000
0000
0000
1000
0001
0010
0000
,
0000
0000
0001
0100
1000
0000
0000
0000
1000
0010
0001
1000
0100
0001
0100
0010
,
1000
0100
0010
0000
0000
0000
0001
0100
0010
0000
0000
0000
0100
0001
1000
0000
,
0000
0000
0000
0000
0000
0000
0010
0000
0000
1000
0000
0000
0001
0000
0000
0000
0000
0000
0000
0000
0000
0000
0000
0000
0100
0000
0000
0000
0010
0000
0000
0000
0100
0000
0000
0000
0010
0000
0000
0000
0100
0000
0000
0000
0010
0000
0000
0000
,
0100
0001
0010
0000
0000
0000
0001
1000
0100
0000
0000
0000
1000
0010
0100
0000
,
0000
0000
0001
0010
1000
0000
0000
0000
0100
0001
1000
0010
0001
0010
0100
1000
,
0001
0010
0100
0000
0000
0000
1000
0001
0100
0000
0000
0000
0001
0010
0100
1000
,
0010
0001
0100
1000
0100
1000
0001
0010
0001
0010
0100
1000
0001
0100
0010
1000
,
0100
0010
0001
0000
0110
0000
0010
1000
0001
0000
0011
0000
1000
0100
0010
0000
,
1001
0000
0100
0001
1000
0000
1100
0000
0001
1000
0010
0100
1000
0100
0001
0010
,
0100
1000
0010
0000
0101
0000
0001
1000
0100
0000
0110
0000
0010
0001
0100
0000
,
1010
0000
0000
0000
0000
0000
0010
0000
0000
1000
0000
0000
0001
0000
0000
0000
0000
0000
1100
0000
0000
0000
0000
0000
1000
0000
0000
0000
0100
0000
0000
0000
0001
0000
0000
0000
1000
0000
0000
0000
0010
0000
0000
0000
0001
0000
0000
0000
,
0010
0100
1000
0000
0011
0000
0100
0001
0010
0000
0101
0000
0001
0010
1000
0000
,
0110
0000
0001
0100
1000
0000
1010
0000
0010
1000
0001
1000
0100
0001
0100
0010
,
0100
1000
0001
0000
0011
0000
1000
0010
0001
0000
1010
0000
0100
0010
1000
0000
,
0110
0000
0001
0010
0100
0000
1001
0000
0010
0001
1000
0010
0100
0001
1000
0100
,
0020
0000
0000
0000
0000
0000
0000
0000
0000
0000
0000
0000
0031
0010
0100
1000
,
0020
0000
0000
0000
0030
0000
1000
0100
0001
0100
1000
0000
0010
0100
0001
0000
,
0010
0000
0001
0100
1000
0000
0001
0010
1000
0000
0100
0000
0010
0000
0011
0000
,
0100
0000
1010
0000
0001
0000
1000
0010
0001
0010
1000
0000
0100
0010
0001
0000
,
0110
0000
0010
1000
0000
1000
0100
0000
0100
0010
0000
0010
0001
0000
1001
0000
,
1100
0000
0010
0000
0100
0000
1000
0010
1000
0001
0010
0001
1000
0001
1000
0100
,
0010
0001
1000
0001
0100
0000
0010
1000
0100
0010
0001
0100
0010
0000
0101
0000
,
1000
0100
0010
0000
0001
1000
0001
0010
0100
0000
1000
0010
0000
1000
0001
0000
,
0011
0000
0100
0000
1000
0010
1000
0001
0010
0000
0100
1000
0000
0010
0100
0000
,
1001
0000
0010
0000
0100
0000
0010
1000
0100
1000
0010
1000
0100
0010
0001
0100
,
0001
0000
1000
0100
0001
0000
1000
0010
0001
0000
0100
0010
1000
0000
1100
0000
,
0001
0000
0101
0000
0010
0000
1000
0001
1000
0010
1000
0100
0010
0001
0100
0000
,
1010
0000
0001
1000
0000
0001
0010
0000
0100
1000
0000
0010
0100
0000
1001
0000
,
0110
0000
0010
0000
1000
0000
0100
0010
0001
0100
0001
0010
1000
0100
1000
0001
,
0010
0000
0001
0100
1000
0000
0010
1000
0100
0000
0010
0001
1000
0010
0100
0000
,
0001
0000
1010
0000
0100
1000
0010
0000
1100
0000
0110
0000
0011
0000
0100
0010
,
1000
0001
0100
0010
0001
0100
0001
1000
0010
1000
0100
1000
0010
0001
0100
0010
,
0001
0100
0001
0010
0001
1000
0100
1000
0010
1000
0100
0010
0100
0010
1000
0001
,
0010
0000
1001
0000
0110
0000
0100
0001
0010
0000
1100
0000
0011
0000
1000
0001
,
0100
0000
0110
0000
1010
0000
0001
0100
1000
0000
0011
0000
1100
0000
0010
0100
,
0010
0000
0101
0000
1100
0000
0001
0010
1000
0000
1100
0000
1001
0000
0010
1000
,
0001
0000
0011
0000
0110
0000
1000
0010
1000
0100
1000
0100
0010
0001
0010
0001
,
0100
0000
0110
0000
1001
0000
0010
1000
0100
0000
1001
0000
0011
0000
1000
0001
,
0010
0000
1001
0000
1010
0000
0100
0010
1000
0100
1000
0100
0010
0001
0010
0001
,
0100
0000
0001
0010
0001
0000
1000
0010
1000
0000
0001
0100
0001
0000
1000
0100
,
1000
0000
0010
0100
0010
0000
1000
0001
1000
0001
0100
0010
0001
0010
0100
1000
,
0001
0000
0011
0000
1001
0000
1000
0100
0010
0000
1010
0000
0110
0000
1000
0100
,
1000
0000
0011
0000
1010
0000
0010
1000
0001
0000
1001
0000
0101
0000
0100
0010
,
1000
0000
0110
0000
1001
0000
0010
0001
1000
0000
1100
0000
1010
0000
0001
1000
,
0010
1000
0010
1000
0001
0010
0001
0010
0100
1000
0100
1000
0001
0100
0001
0100
,
0010
0000
1001
0000
0011
0000
0100
0001
0010
0000
1100
0000
0101
0000
0010
1000
,
0100
0000
0011
0000
0110
0000
0100
1000
0010
0001
0100
1000
0001
1000
0100
0010
,
0001
0100
0001
0000
0000
0000
1000
0010
1000
0000
0000
0000
0001
0010
0001
0000
,
0000
0000
1000
0100
1000
0000
0010
0100
0001
0010
0100
1000
0100
0020
0002
0000
,
0000
0000
0000
0000
,
0000
0000
0000
0000
,
0000
0000
0000
0000
,
0000
0000
0000
0000
,
0033
0000
0000
0000
;
