#VERSION:0.83;
#TITLE:VIKING SHIP;
#SUBTITLE:;
#ARTIST:BEMANI Sound Team "Gekidan Record";
#TITLETRANSLIT:;
#SUBTITLETRANSLIT:;
#ARTISTTRANSLIT:;
#GENRE:;
#ORIGIN:;
#CREDIT:;
#BANNER:VIKING SHIP-bn.png;
#BACKGROUND:VIKING SHIP-bg.png;
#PREVIEWVID:;
#JACKET:VIKING SHIP-jacket.png;
#CDIMAGE:;
#DISCIMAGE:;
#LYRICSPATH:;
#CDTITLE:;
#MUSIC:VIKING SHIP.ogg;
#OFFSET:0.000000;
#SAMPLESTART:16.615000;
#SAMPLELENGTH:20.000000;
#SELECTABLE:YES;
#DISPLAYBPM:130.000000;
#BPMS:0.000=130.000;
#STOPS:;
#DELAYS:;
#WARPS:;
#TIMESIGNATURES:0.000=4=4;
#TICKCOUNTS:0.000=4;
#COMBOS:0.000=1;
#SPEEDS:0.000=1.000=0.000=0;
#SCROLLS:0.000=1.000;
#FAKES:;
#LABELS:0.000=Song Start;
#BGCHANGES:;
#KEYSOUNDS:;
#ATTACKS:
;

//---------------dance-single - ----------------
#NOTEDATA:;
#CHARTNAME:;
#STEPSTYPE:dance-single;
#DESCRIPTION:;
#CHARTSTYLE:;
#DIFFICULTY:Hard;
#METER:14;
#RADARVALUES:0.473025,0.586226,0.192205,0.733874,0.768821,379.000000,357.000000,22.000000,84.000000,0.000000,0.000000,0.000000,0.000000,0.000000,0.473025,0.586226,0.192205,0.733874,0.768821,379.000000,357.000000,22.000000,84.000000,0.000000,0.000000,0.000000,0.000000,0.000000;
#CREDIT:;
#DISPLAYBPM:130.000000;
#NOTES:
0000
0000
0000
0000
,
0000
0000
0000
0000
,
0000
0000
0000
0000
,
0000
0000
0000
0000
,
0000
0000
0000
0000
,
1100
0000
0000
0101
0000
0000
1000
0001
1000
0001
0000
0100
,
0020
0000
2030
0000
3001
0000
0011
0000
0000
0100
0010
1000
,
0002
0000
0000
0000
0013
0100
2000
0000
3020
0000
0230
0000
,
0301
1000
0000
1010
0000
0000
0100
0010
0100
0010
0100
0010
,
1000
0000
1000
0100
0000
0100
0010
0001
0010
0001
0000
1000
,
0020
0000
2030
0000
3200
0000
0310
0000
0001
0100
0001
1000
,
0010
0000
0010
0100
0000
0100
0001
1000
0001
1000
0000
0100
,
0020
0000
0032
0000
0103
0010
1000
0000
1000
0010
0100
0001
,
1000
0000
1000
0010
0000
0010
0100
0001
1000
0001
0000
0100
,
0002
0000
0023
0000
0230
0000
0301
0000
0100
1000
0010
1000
,
0002
0000
1003
0010
0100
0010
1000
0000
1001
0000
0110
0000
,
0001
0010
0100
2000
0000
0000
3001
1000
0000
0010
0100
0000
,
1002
0000
0000
0203
0000
0310
2000
0001
0000
3100
0000
0010
,
0002
1000
0000
0103
0000
0100
0020
0000
0000
0000
1030
0001
,
0200
0000
0000
0302
0000
1003
0002
0010
0000
0103
0000
0010
,
2000
0100
0000
3001
0000
1000
0001
0000
0000
1010
0000
0000
,
0102
0000
0000
1003
0000
1000
0100
0010
0001
0100
0000
0010
,
1000
0000
0001
1000
0001
0010
0200
1000
0000
0320
0000
0031
,
1000
0000
0000
1100
0000
0010
1000
0100
1000
0001
0000
0001
,
1000
0100
0010
0001
0010
0200
2000
0000
0300
0000
3001
1000
,
0001
0000
0100
0010
0000
0100
0020
0000
0000
0000
1030
0001
,
1000
0000
0001
0100
0001
0100
0020
0000
0000
0000
1030
0010
,
1000
0000
0000
0001
0000
1000
0001
0000
0100
0000
0100
0010
,
2000
0000
0000
3001
0000
1000
0020
0000
0000
0000
0130
0001
,
0100
0000
0000
0010
0000
0010
2000
0000
0000
0000
3001
1000
,
0001
0000
0100
0010
0100
0010
2000
0000
0000
3000
1000
0001
,
0010
0000
0000
0001
0000
0001
0100
0000
0100
0010
0000
0010
,
1000
0000
0000
1000
0000
0001
1000
0010
0100
0001
0010
0100
,
1000
0000
0000
0011
0000
0000
0110
0000
0000
1000
0001
0100
,
0010
1000
0010
0200
0000
0000
0301
0010
0001
2000
0000
0000
,
3100
0010
0001
0020
0000
0000
0031
1000
0001
1000
0100
1000
,
0010
0100
0000
0001
1000
0001
0010
0100
0000
1000
0001
1000
,
0010
0000
0010
1000
0001
1000
0200
0000
0000
0300
0100
0010
,
0001
1000
0001
0200
0000
0000
0310
0100
0010
2000
0000
0000
,
3001
1000
0001
0020
0000
0000
0130
0010
0100
1000
0001
0100
,
0001
1000
0000
0010
0100
0010
1000
0001
0000
1000
0100
0010
,
0001
0000
1000
0100
1000
0001
0200
0000
0000
0310
0000
0000
,
2020
0030
0002
0003
,
0200
3300
1001
1001
,
0202
0300
0020
0030
,
2000
3003
1001
1001
,
2200
3000
0002
0003
,
0020
0330
0110
0110
,
0022
0030
2003
3200
,
2300
0000
0000
3002
0000
0000
1003
0010
1000
0010
1000
0010
,
0200
0320
2030
3002
,
0023
0230
2300
3002
,
2003
3002
0203
0320
,
0032
0023
2030
3200
,
1300
0001
1000
0020
0000
0000
0130
0010
0100
0002
0000
0000
,
0013
0001
1000
0020
0000
0000
0130
0001
1000
0200
0000
0000
,
1300
0001
0100
0010
0000
0020
0200
0000
0000
0000
0000
0000
,
0000
0000
0000
0000
,
0000
0000
0000
0000
,
0000
0000
0000
0000
,
0000
0000
0000
0000
,
0330
0000
0000
0000
;

//---------------dance-single - ----------------
#NOTEDATA:;
#CHARTNAME:;
#STEPSTYPE:dance-single;
#DESCRIPTION:;
#CHARTSTYLE:;
#DIFFICULTY:Medium;
#METER:11;
#RADARVALUES:0.393147,0.452993,0.297044,0.559142,0.480513,315.000000,281.000000,34.000000,64.000000,0.000000,0.000000,0.000000,0.000000,0.000000,0.393147,0.452993,0.297044,0.559142,0.480513,315.000000,281.000000,34.000000,64.000000,0.000000,0.000000,0.000000,0.000000,0.000000;
#CREDIT:;
#DISPLAYBPM:130.000000;
#NOTES:
0000
0000
0000
0000
,
0000
0000
0000
0000
,
0000
0000
0000
0000
,
0000
0000
0000
0000
,
0000
0000
0000
0000
,
1001
0000
0000
0110
0000
0000
1000
0001
1000
0001
0000
0100
,
0010
0000
0000
0000
0010
0000
0000
0000
0010
0000
0000
0000
2020
0000
0000
0000
0000
3030
0000
0000
0010
0000
0100
0000
,
0020
0000
0000
0000
1030
0001
1000
0000
1000
0000
1000
0000
,
0010
0100
0000
0202
0000
0000
0000
0000
0000
0303
0000
0000
,
1100
0000
0000
0011
0000
0000
1000
0010
1000
0010
0000
0100
,
0001
0000
0000
0000
1000
0000
0000
0000
0001
0000
0000
0000
0202
0000
0000
0000
0000
0303
0000
0000
0100
0000
0010
0000
,
0100
0000
0000
1001
0000
0000
0001
0010
0001
0010
0000
0100
,
1000
0000
0010
0000
1000
0001
2000
0000
0000
3100
0000
0000
,
1010
0000
0000
0011
0000
0000
0001
1000
0001
1000
0000
0100
,
1000
0000
0000
0000
0010
0000
0000
0000
0100
0000
0000
0000
0220
0000
0000
0000
0000
0330
0000
0000
0010
0000
1000
0000
,
0020
0000
0000
0000
0130
0001
0100
0000
0010
0000
1000
0000
,
0001
1000
0000
2100
0000
0000
0010
0000
0000
3010
0000
0000
,
1001
0000
0000
0010
0000
0010
1000
0000
0000
0100
0000
0100
,
0010
0000
0000
0001
0000
0001
0200
0000
0000
0000
0310
0100
,
0020
0000
0000
1030
0000
1000
0001
0000
0000
0100
0000
0100
,
0002
2000
0000
0000
0000
0000
3003
0000
0000
1100
0000
0000
,
0101
0000
0000
0001
0000
0001
0100
0000
0100
0010
0000
0010
,
1000
0000
0100
1000
0000
0001
0200
0000
0000
0310
0000
0010
,
2000
0000
0000
3100
0000
0100
0010
0000
0010
0001
0000
0001
,
0100
0000
0010
0100
0000
0010
0200
0000
0000
0000
0301
1000
,
0001
0000
0001
0100
0000
0000
2020
0000
0000
3030
1000
0001
,
1000
0000
1000
0100
0000
0000
0022
0000
0000
0033
0010
0001
,
0010
0000
0010
0100
0000
0000
1000
0000
1000
0001
0000
0000
,
0110
0000
0000
0010
0000
1000
0002
0000
0000
0000
0013
0100
,
2000
0000
0000
3001
0000
1000
0200
0000
0000
0000
0310
0001
,
0010
0000
0001
1000
0000
0001
2000
0000
0000
0000
3100
0010
,
0002
0000
0000
0103
0000
0010
1000
0000
1000
0000
0001
1000
,
0001
0000
0000
0001
0000
1000
0010
0000
0100
0010
0000
0100
,
0020
2030
3002
0203
,
0301
1000
0000
1100
0000
0000
0010
0100
0000
0101
0000
0000
,
1000
0001
0000
0110
0000
0000
0010
0000
1000
0010
0000
0100
,
0001
0010
0000
0002
0000
0000
1003
0100
0000
2000
0000
0000
,
3010
0000
1000
0001
0000
1000
0200
0000
0000
0000
1300
0001
,
1000
0010
0000
1010
0000
0000
0001
0100
0000
0011
0000
0000
,
0100
0010
0000
1001
0000
0000
1000
0000
0010
1000
0000
0001
,
1000
0100
0000
0020
0000
0000
0031
0010
0000
0200
0000
0000
,
1300
0000
0010
0100
0000
0001
2000
0000
0000
3100
0000
0000
,
0022
0030
0200
0300
,
2000
3003
1001
1001
,
2020
3000
0200
0030
,
0002
0303
1001
1001
,
2200
0300
0002
3000
,
0020
0033
1001
1001
,
0202
0300
0100
0013
,
2000
0002
0000
3003
,
2000
0010
0100
3001
,
0020
0001
0100
1030
,
0002
0100
1000
0013
,
0200
1000
0010
0301
,
1000
0000
1000
0200
0000
0000
0310
0000
0010
0002
0000
0000
,
0103
0000
0100
0020
0000
0000
1030
0000
1000
0002
0000
0000
,
1003
0100
0010
0001
0000
0002
2000
0000
0000
0000
0000
0000
,
0000
0000
0000
0000
,
0000
0000
0000
0000
,
0000
0000
0000
0000
,
0000
0000
0000
0000
,
3003
0000
0000
0000
;

//---------------dance-single - ----------------
#NOTEDATA:;
#CHARTNAME:;
#STEPSTYPE:dance-single;
#DESCRIPTION:;
#CHARTSTYLE:;
#DIFFICULTY:Easy;
#METER:6;
#RADARVALUES:0.263346,0.320852,0.297044,0.401884,0.000000,211.000000,177.000000,34.000000,46.000000,0.000000,0.000000,0.000000,0.000000,0.000000,0.263346,0.320852,0.297044,0.401884,0.000000,211.000000,177.000000,34.000000,46.000000,0.000000,0.000000,0.000000,0.000000,0.000000;
#CREDIT:;
#DISPLAYBPM:130.000000;
#NOTES:
0000
0000
0000
0000
,
0000
0000
0000
0000
,
0000
0000
0000
0000
,
0000
0000
0000
0000
,
0000
0000
0000
0000
,
1000
0100
0001
0100
,
0010
0010
0010
0000
,
1001
0000
0110
0000
,
2000
0002
0000
3003
,
0010
0001
0100
1000
,
0001
0100
0010
1000
,
1000
0001
1000
0100
,
0010
0001
0100
0100
,
1000
0001
1000
0100
,
0001
0010
0100
1000
,
1001
0000
0110
0001
,
0200
0020
0000
0330
,
1000
0100
0001
0001
,
1000
0010
0010
0000
,
0100
0001
1000
0001
,
0220
0000
0300
0130
,
1001
0010
1000
1000
,
0100
0010
0010
0001
,
0010
0100
1000
1000
,
0001
0100
0100
0010
,
2001
0001
0200
3300
,
1002
1000
0200
0303
,
0120
0001
2000
3030
,
0210
1000
0002
0303
,
1002
0010
2000
3003
,
0210
0001
0020
0330
,
1000
0001
1000
0100
,
0010
0001
0100
0010
,
1001
0110
1001
0110
,
0002
0103
2000
3100
,
0002
0103
0110
0110
,
0020
1030
0002
0013
,
1000
0100
0002
0003
,
2000
3010
0002
0013
,
2000
3100
1001
1001
,
0002
0013
2000
3100
,
0010
0100
2000
3001
,
2002
3003
0200
0300
,
0020
0030
1001
1001
,
0220
0330
2000
3000
,
0002
0003
0110
0110
,
2002
3003
2000
3000
,
0200
0300
0110
1001
,
0220
0330
0010
1000
,
0002
0020
0000
0033
,
1000
1000
0100
0100
,
0010
0010
0001
0001
,
0100
0100
0010
0010
,
1000
1000
0001
0001
,
0010
1001
0100
0100
,
0001
0110
1000
1000
,
0010
0110
1001
0000
;

//---------------dance-single - ----------------
#NOTEDATA:;
#CHARTNAME:;
#STEPSTYPE:dance-single;
#DESCRIPTION:;
#CHARTSTYLE:;
#DIFFICULTY:Beginner;
#METER:3;
#RADARVALUES:0.147274,0.176589,0.069893,0.017473,0.000000,118.000000,110.000000,8.000000,2.000000,0.000000,0.000000,0.000000,0.000000,0.000000,0.147274,0.176589,0.069893,0.017473,0.000000,118.000000,110.000000,8.000000,2.000000,0.000000,0.000000,0.000000,0.000000,0.000000;
#CREDIT:;
#DISPLAYBPM:130.000000;
#NOTES:
0000
0000
0000
0000
,
0000
0000
0000
0000
,
0000
0000
0000
0000
,
0000
0000
0000
0000
,
0000
0000
0000
0000
,
1001
0000
0000
0000
,
0000
0000
0001
0001
,
0001
0000
1000
0000
,
0010
0010
0000
0000
,
1000
0000
0001
0000
,
1000
0000
0100
0000
,
0010
0000
0001
0000
,
0100
0000
0010
0000
,
0100
0000
0001
0000
,
0010
0000
0100
0000
,
1000
0000
0001
0000
,
0100
0100
0000
0000
,
1001
0000
0010
0000
,
1000
1000
1000
0000
,
0100
0000
0010
0000
,
0002
0000
0003
0000
,
1001
0000
0010
0000
,
0100
0100
0100
0000
,
0001
0000
1000
0000
,
0001
0000
1000
0000
,
1001
0000
0000
0001
,
0001
0000
0000
0000
,
1001
0000
0000
1000
,
1000
0000
0010
0000
,
1001
0000
0000
0100
,
0100
0000
0010
0010
,
0010
0000
1000
0000
,
0001
0000
0100
0000
,
0001
0001
0001
0001
,
0001
0000
1000
0000
,
0010
0000
0100
0100
,
0100
0000
0010
0000
,
1000
0000
1001
0000
,
1000
0000
0001
0000
,
1000
0000
0010
0010
,
0010
0000
0100
0000
,
0001
0001
0001
0000
,
1001
0000
0000
0000
,
0000
0000
1000
1000
,
1000
0000
0000
0000
,
0001
0000
0100
0100
,
0100
0000
0000
0000
,
0000
0000
0010
0010
,
0010
0000
0001
0000
,
0100
0100
0000
0000
,
1000
0000
1000
0000
,
0100
0000
0100
0000
,
0001
0000
0001
0000
,
0010
0000
0010
0000
,
0001
0001
0001
0000
,
1000
1000
1000
0000
,
0010
0010
0020
0000
,
0000
0000
0000
0030
;

//---------------dance-single - ----------------
#NOTEDATA:;
#CHARTNAME:;
#STEPSTYPE:dance-single;
#DESCRIPTION:;
#CHARTSTYLE:;
#DIFFICULTY:Challenge;
#METER:16;
#RADARVALUES:0.658989,0.719459,0.489250,0.445567,1.218756,528.000000,472.000000,56.000000,51.000000,0.000000,0.000000,0.000000,0.000000,0.000000,0.658989,0.719459,0.489250,0.445567,1.218756,528.000000,472.000000,56.000000,51.000000,0.000000,0.000000,0.000000,0.000000,0.000000;
#CREDIT:;
#DISPLAYBPM:130.000000;
#NOTES:
// measure 0
0000
0000
0000
0000
,  // measure 1
0000
0000
0000
0000
,  // measure 2
0000
0000
0000
0000
,  // measure 3
0000
0000
0000
0000
,  // measure 4
0000
0000
0000
0000
,  // measure 5
2100
0000
0000
3002
0000
0000
0013
0001
0100
1000
0000
0010
,  // measure 6
1010
0000
0101
0000
1100
0000
0011
0000
0000
0100
0010
1000
,  // measure 7
2002
0000
0003
0000
3010
0100
0110
0000
0101
0000
1100
0000
,  // measure 8
0010
0010
0100
0101
0000
0000
1000
0100
0001
1000
0010
0001
,  // measure 9
0100
0000
0100
0010
0000
0010
1000
0001
0010
0001
0100
0010
,  // measure 10
1000
0000
0100
1000
0001
0010
0100
0000
0010
0001
0100
1000
,  // measure 11
0001
0000
0010
0001
0100
0001
1000
0100
0001
0010
0100
1000
,  // measure 12
0010
0000
0010
0100
0001
1000
0001
0010
0001
0010
0100
1000
,  // measure 13
0010
0000
0010
1000
0000
0001
1000
0100
0010
0100
0001
0100
,  // measure 14
1000
0000
1000
0001
0010
0001
0100
0000
0100
0001
0010
0100
,  // measure 15
1100
0000
1000
0010
0100
0001
0010
0000
0011
0000
0101
0000
,  // measure 16
1000
0100
0010
1001
0000
0010
1000
1000
0100
0010
0010
0001
,  // measure 17
0101
0000
0001
0010
0000
0100
1000
0001
1000
0010
0000
0100
,  // measure 18
0001
1000
0001
0000
0000
0000
0100
0000
0000
0000
0100
0000
0010
0000
1000
0000
0001
0000
1000
0000
0100
0000
0010
0000
,  // measure 19
0001
0000
0000
0000
0100
0000
0010
0000
0000
0000
0100
0000
0001
1000
0001
0000
0000
0000
0010
0000
0000
0000
0100
0000
,  // measure 20
1000
0000
1000
0001
0100
0010
0001
0010
1000
0200
0010
0310
,  // measure 21
0110
0000
0001
1000
0010
0001
0010
0100
0010
1000
0000
0100
,  // measure 22
0010
0000
0000
0000
0010
0000
0001
0000
0100
0000
1000
0000
0010
1000
0010
0000
0000
0000
0100
0000
0000
0000
0001
0000
,  // measure 23
0020
0000
0000
0031
0000
0100
0001
1000
0001
0010
0000
0100
,  // measure 24
1000
0100
0010
0001
0100
0010
1000
0100
0001
1000
0010
0001
,  // measure 25
1001
0000
1001
0100
0000
0010
1000
0001
0010
0001
0100
1000
,  // measure 26
1100
0000
1100
0001
1000
0001
0100
0010
1000
0100
0010
0001
,  // measure 27
0011
0000
0011
0010
0000
0001
1000
0100
1000
0100
0010
0001
,  // measure 28
0101
0000
0101
0100
0000
0010
1000
1000
1000
0001
0001
0001
,  // measure 29
1001
0000
1001
1000
0000
0100
1000
0001
0010
0100
0001
0100
,  // measure 30
0110
0000
0110
0001
0100
0001
1000
0100
0010
0001
0100
1000
,  // measure 31
1010
0000
1010
1000
0000
0001
0100
0010
0100
0001
0010
1000
,  // measure 32
1100
0000
1100
0001
0000
1000
0001
0100
0010
0100
1000
0100
,  // measure 33
0001
1000
1000
0100
0010
0001
0010
0001
0100
0010
0100
1000
,  // measure 34
0100
0100
0100
0001
0010
0100
1000
1000
1000
0001
1000
0010
,  // measure 35
1000
0000
1000
0000
1000
0000
0020
0000
0000
0000
0130
0001
1000
0000
0001
0000
0010
0000
0001
0000
0100
0000
1000
0000
,  // measure 36
0001
0001
0001
0010
0100
1000
0010
0010
0010
1000
0001
0100
,  // measure 37
0001
0001
1000
0010
1000
0100
0002
1000
1000
0103
0001
0010
,  // measure 38
0100
0100
0100
1000
0010
1000
0001
0001
0001
0010
0100
1000
,  // measure 39
0010
0000
0010
0000
0010
0000
0200
0000
0000
0000
0301
1000
0001
0000
0010
0000
1000
0000
0001
0000
0100
0000
1000
0000
,  // measure 40
0010
0010
0010
0100
0001
0010
0100
1000
0001
1000
0100
0010
,  // measure 41
0001
0100
0001
1000
0100
1000
0020
0100
0100
1030
0001
0100
,  // measure 42
0220
0330
2020
3030
,  // measure 43
2200
0000
3300
0000
2002
3003
2020
3030
,  // measure 44
0202
0000
0000
0303
0000
0000
0022
0000
0000
0033
0000
1000
,  // measure 45
2200
0000
3300
0000
0220
0330
0022
0033
,  // measure 46
2002
3003
2020
3030
,  // measure 47
0022
0000
0033
0000
0220
0330
2002
3003
,  // measure 48
2200
0000
3300
0000
0202
0303
2020
3030
,  // measure 49
1100
1000
0001
0102
0000
0000
0010
0010
0010
0010
0010
0013
,  // measure 50
0001
0000
1000
0010
0000
1000
0100
0000
0010
0100
0000
0001
,  // measure 51
0100
0000
1000
0010
0000
1000
0001
0000
0010
0001
0000
0100
,  // measure 52
0010
0000
0010
1000
0100
0010
0001
0000
0001
1000
0001
0100
,  // measure 53
0001
0000
1000
0001
0010
0100
1000
0000
0010
0100
0001
0010
,  // measure 54
0100
1000
0001
0102
0000
0000
1003
0100
0010
0001
0100
1000
,  // measure 55
0010
1000
0100
2010
0000
0000
3001
1000
0010
1000
0100
0001
,  // measure 56
0010
0001
0100
1000
0000
0110
2002
0000
0000
0000
0000
0000
,  // measure 57
0000
0000
0000
0000
,  // measure 58
0000
0000
0000
0000
,  // measure 59
0000
0000
0000
0000
,  // measure 60
0000
0000
0000
0000
,  // measure 61
3003
0000
0000
0000
;
