#TITLE:VENDETTA!;
#ARTIST:kkypr;
#BANNER:VENDETTA!-bn.png;
#BACKGROUND:VENDETTA!-bg.png;
#JACKET:VENDETTA!-jacket.png;
#MUSIC:VENDETTA!.ogg;
#SAMPLESTART:12.75;
#SAMPLELENGTH:20;
#DISPLAYBPM:150;
#BPMS:0=150;
#BGCHANGES:;

//---------------dance-single - ----------------
#NOTES:
     dance-single:
     :
     Beginner:
     4:
     :
0000
0000
0000
0000
,
0000
0000
0000
0000
,
0000
0000
0000
0000
,
0000
0000
0000
0000
,
0001
0000
0000
1000
,
1000
0000
0001
0000
,
0100
0000
0000
0010
,
0010
0000
0000
0000
,
1000
0000
0001
0001
,
0001
0000
0100
0000
,
0010
0000
1000
0000
,
0100
0100
0100
0000
,
1000
0000
1000
0000
,
0001
0000
0001
0000
,
0010
0000
0010
0000
,
0100
0000
0100
0000
,
1000
0000
0001
0000
,
0010
0010
0000
0000
,
0001
0000
0100
0000
,
1000
1000
1000
0000
,
0010
0010
0010
0000
,
0100
0100
0100
0000
,
0001
0000
1000
0000
,
0001
0001
0001
0000
,
1001
0000
0000
0010
,
0010
0000
1000
0000
,
0100
0100
0000
0000
,
1000
0000
0001
0000
,
0010
0010
0010
0000
,
0001
0000
0100
0000
,
1000
0000
0100
0100
,
0100
0000
0010
0000
,
0001
0001
0000
1000
,
1000
0000
0010
0000
,
0110
0000
0000
0001
,
0001
0000
0010
0000
,
0110
0000
0000
0100
,
0100
0000
0010
0000
,
1001
0000
1000
1000
,
1000
0000
0010
0000
,
0100
0000
0000
1001
,
0000
0000
0000
0000
,
0001
0000
0000
0110
,
0000
0000
0000
0100
,
0100
0000
0000
0000
,
0000
0000
0000
0110
,
0000
0000
0000
1001
,
0000
0010
0010
0010
,
0010
0000
1000
0000
,
0100
0000
1000
1000
,
1000
0000
0001
0000
,
0100
0100
0100
0000
,
0001
0000
0001
0000
,
1000
0000
1000
0000
,
0010
0000
0010
0000
,
0100
0000
0100
0000
,
0001
0000
0010
0000
,
0001
0001
0000
0000
,
0010
0000
0001
0000
,
1000
1000
1000
0000
,
0100
0100
0100
0000
,
1000
0000
0001
0000
,
0010
0000
0001
0000
,
0100
0100
0100
0000
,
1001
0000
0000
0110
,
0000
0000
0000
0000
,
1000
0000
0001
0000
,
0110
0000
0000
0000
,
1001
0000
0000
0000
;

//---------------dance-single - ----------------
#NOTES:
     dance-single:
     :
     Easy:
     7:
     :
0000
0000
0000
0000
,
0000
0000
0000
0000
,
0000
0000
0000
0000
,
0000
0000
0000
0000
,
0001
1000
0000
0001
0000
0000
0000
0000
,
0000
0000
0000
0000
1001
0000
1000
0010
,
1000
0001
0000
0100
0000
0000
0110
0000
,
1000
0100
0000
0000
0000
0000
0110
0000
,
0001
0010
0001
1000
,
2200
0300
0001
3001
,
0010
0001
0100
0000
0010
0000
1000
0000
,
0100
0000
1000
0001
1000
0000
1001
0000
,
0010
2000
3001
0010
,
0001
0200
0310
1000
,
0100
0020
0031
0100
,
0010
2000
3001
1000
,
0010
1000
0101
0001
,
1000
0100
2000
0000
3000
0000
0001
0000
,
0010
0001
1000
0000
1000
0000
0001
0000
,
1000
0000
0010
0000
0100
0001
0100
0000
,
0010
0000
1000
0001
0100
0000
0110
0000
,
0100
0000
0100
0000
0001
1000
0001
0000
,
0010
0000
0001
1000
0001
0000
1100
0000
,
0010
0010
0100
0001
,
1001
0000
0000
0110
,
0010
1000
0100
1000
,
0001
0100
0010
0000
0000
0000
0101
0000
,
0001
0000
0010
0001
1000
0000
0100
0000
,
1000
0001
1000
0000
0110
0000
1001
0000
,
0010
1000
0100
0000
0001
0000
1001
0000
,
1000
0001
0100
0010
0100
0000
0001
0000
,
0010
0100
1000
0000
0101
0000
1100
0000
,
0001
1000
0010
0000
0000
0000
0120
0000
,
1030
0001
0010
0001
,
0100
0010
0000
0000
0000
0000
0110
0000
,
0001
0100
1000
0010
,
1000
0001
0000
0000
0000
0100
0010
0000
,
1000
0100
0001
0010
,
0001
0100
0000
0000
1001
0000
1100
0000
,
0010
1000
0001
0000
0101
0000
0200
0000
,
0320
0000
0030
0000
0000
1000
0001
0000
,
0200
0000
0000
0301
,
0002
0000
0003
0000
0000
1000
0001
0000
,
0000
0000
0000
0000
0000
1000
0010
1000
,
0010
0000
0000
0200
,
0302
0000
0003
0000
0000
1000
0001
0000
,
0000
0101
0000
1100
,
0000
1001
0110
1001
,
0010
1000
0100
0001
,
0202
0300
1000
1003
,
0010
0000
1000
0000
0001
0000
0010
0001
,
1000
0000
0010
0100
0010
0000
1001
0000
,
1000
0200
0310
0001
,
0100
0002
1003
0010
,
0100
0020
1030
0001
,
0010
0200
1300
0010
,
1000
0000
0001
0010
0001
0000
0100
0000
,
0010
1000
0002
0000
0003
0000
1100
0000
,
0010
1000
0100
0000
1001
0000
0001
0000
,
0010
0000
0001
0000
0100
0010
1000
0000
,
0100
0000
1000
0001
1000
0000
0101
0000
,
0010
0000
0010
0000
0010
1000
0001
0000
,
0010
0000
0001
0100
0001
0000
0110
0000
,
1000
0001
0100
0100
,
0020
1000
0130
0110
,
0001
0010
0001
1000
,
0100
0010
0001
0100
,
0001
0010
1000
0100
,
1001
0000
0000
0000
;

//---------------dance-single - ----------------
#NOTES:
     dance-single:
     :
     Medium:
     10:
     :
0000
0000
0000
0000
,
0000
0000
0000
0000
,
0000
0000
0000
0000
,
0000
0000
0000
0000
,
0001
1000
0010
1000
0001
0000
0100
0000
,
0010
1000
0100
0000
1001
0000
0001
1000
,
0100
0010
0001
0100
0010
0000
0110
0000
,
0001
1000
0000
0001
0000
0000
0000
0000
0000
0000
0000
0000
0110
0000
0000
0000
,
0010
1000
0100
1000
0001
0010
0001
0100
,
0020
0030
0101
1100
,
0001
0100
0010
0000
1000
0100
1000
0000
,
0001
0010
0001
1000
0100
0000
1001
0000
,
0010
1000
0002
0000
0013
0000
0001
0100
,
0010
1000
0200
0000
0310
0000
0001
1000
,
0001
1000
0020
0000
0130
0000
0001
0010
,
0001
1000
0002
0000
0103
0000
0010
1000
,
0100
0010
0001
0100
0010
0000
1000
0001
,
1000
0100
0020
0000
0030
0000
0001
1000
,
0100
1000
0001
0000
1010
0000
0100
1000
,
0010
1000
0010
1000
0100
0010
0001
0000
,
0100
0001
0010
0100
1000
0000
0101
0000
,
1000
0001
1000
0001
0010
0001
0100
0000
,
0010
1000
0100
1000
0001
0010
0100
0000
,
1000
0001
1000
0000
0010
0100
0010
0000
,
1001
0000
0010
0000
0110
0000
0001
1000
,
0100
1000
0001
0000
0010
0100
1000
0000
,
0001
0010
1000
0000
0000
0100
0100
0000
,
1000
0001
1000
0000
0010
0100
0001
0000
,
0010
0001
1000
0000
0100
1000
0001
0000
,
1000
0010
0001
0000
0100
0010
0100
0001
,
0010
0100
1000
0100
1000
0000
0001
0000
,
0010
0001
1000
0010
1000
0100
0001
0000
,
0010
0001
0100
0000
0000
0000
0011
0000
,
1000
0010
1000
0000
0100
0010
0001
0000
,
1000
0001
0000
0000
0000
0000
0010
0100
,
0010
0100
1000
0000
0010
1000
0001
0000
,
0100
0010
0000
0000
0000
1000
1000
0001
,
1000
0000
0100
0010
0001
0000
0100
0001
,
1000
0100
0000
0000
1000
0001
0100
0000
,
0010
1000
0100
0000
1001
0000
0020
0000
,
0230
0000
0300
0000
0000
0001
1000
0000
,
0001
0000
0100
0000
0001
0000
0010
0100
,
1000
0000
0010
0000
1000
0001
0100
0000
,
0010
0000
1000
0000
0100
0010
0001
1000
,
0001
0000
0100
0010
1000
0000
0002
0000
,
1003
0000
0010
0000
1000
0001
0100
0000
,
0010
1100
0010
0101
,
0010
2000
3002
2003
,
3100
0010
0001
0100
0001
1000
0010
1000
,
0200
0300
1010
0011
,
0100
0001
2000
0000
3010
0100
0001
0000
,
0010
0001
1000
0001
0100
0000
0110
0000
,
1000
0001
0020
0000
0130
0000
1000
0010
,
1000
0001
0200
0000
0310
0000
1000
0010
,
0100
0001
0020
0000
0130
0000
1000
0010
,
0100
0010
2000
0000
3001
0000
1000
0100
,
0010
0001
0100
0010
0100
0000
0101
0000
,
1000
0001
0020
0000
0030
0000
0001
1000
,
0100
1000
0001
0000
0001
0000
0001
1000
,
0010
1000
0100
0010
0001
0100
1000
0000
,
0010
1000
0100
0010
0001
0000
1100
0000
,
0010
1000
0010
1000
0010
0100
0001
0000
,
1000
0001
0010
0001
1000
0000
1001
0000
,
0010
0100
0001
0000
0010
0100
1000
0000
,
0010
1000
0001
1000
0100
0000
0011
0000
,
1000
0000
0110
0000
0010
0100
0001
0000
,
1000
0001
0010
0001
0100
0000
1010
0000
,
0100
1000
0001
1000
0010
0000
0100
0000
,
1001
0000
0000
0000
;

//---------------dance-single - ----------------
#NOTES:
     dance-single:
     :
     Hard:
     13:
     :
0000
0000
0000
0000
,
0000
0000
0000
0000
,
0000
0000
0000
0000
,
0000
0000
0000
0000
,
0001
0100
0010
0010
0100
1000
1000
0001
,
0100
0001
1000
0100
1000
0010
0001
0010
,
1000
0001
0100
0100
0010
1000
0010
0001
,
0010
1000
0001
0100
0000
0000
0000
0000
0000
0000
0000
0000
0110
0000
0000
0000
,
0001
0001
0001
1000
0010
1000
0100
0010
,
0002
0000
0100
0000
0103
0000
0000
0000
0010
1000
0000
0000
0001
1000
0000
0000
,
0100
0100
0010
0001
1000
0001
0100
1000
,
0100
0000
0010
0000
0100
0000
0001
0000
1000
0000
0000
0000
1000
0001
0000
0000
,
0010
0000
0001
0000
0102
0000
0000
0000
1003
0000
0000
0000
0100
1000
0000
0000
,
0001
0100
1020
0000
1030
0000
0001
0100
,
0010
1000
2100
0000
3001
0000
0010
0100
,
1000
0010
1000
0001
0010
0100
1000
0001
,
0010
0001
0000
0000
1000
0000
0100
0000
1001
0000
0000
0000
0100
0000
0010
0000
,
1000
0100
0000
0000
0011
0000
0000
0000
0010
0000
0001
1000
0001
0000
0100
0000
,
0010
1000
1000
0001
0100
0000
0010
0100
,
0001
0010
1000
0010
0100
1000
0001
0001
,
1000
0010
0100
0001
1000
0010
0010
0100
,
0001
0000
0010
0000
0001
0000
1000
0000
0001
0000
0100
0000
0100
0000
0010
1000
,
0001
0010
0100
0001
0100
1000
0010
1000
,
0100
1000
0001
0010
0001
0100
1000
0000
,
1010
0001
0100
0010
0110
0000
1000
0001
,
0010
1000
0010
0100
0010
1000
0010
0001
,
0100
0010
1000
0100
0001
0100
0010
0001
,
1000
0010
1000
0001
0010
0100
0010
0001
,
0100
0010
1000
0001
0001
0010
1000
0010
,
0100
1000
0001
0010
0001
0100
0010
1000
,
0100
0001
0010
0001
1000
0100
1000
0001
,
0100
0010
0100
0001
0010
1000
0010
0100
,
0010
0001
0001
0100
0010
1000
1001
0000
,
0011
1000
0100
1000
0001
0010
0100
0010
,
0001
0100
1000
0000
0010
1000
0001
0100
,
0001
0010
1000
0010
0100
0001
0100
1000
,
0010
0100
0001
0010
1000
0100
0100
0010
,
0001
1000
1000
0010
1000
0100
0010
0001
,
0100
0101
0000
0010
1000
0100
1000
0001
,
0010
0100
1000
0010
1000
0001
0200
0000
,
0320
0000
0030
0000
1000
0001
1100
0000
,
0010
0001
1000
0100
1000
0001
0100
0010
,
0010
1000
0100
0001
0100
0010
0011
0000
,
1000
0000
0001
0000
0010
0000
0100
0000
1000
0000
0010
0000
0100
0001
1000
0001
,
0100
0001
1000
0010
0010
1000
0001
0100
,
0010
0100
0001
0010
1000
0001
1010
0000
,
0001
0000
0010
0000
1000
0000
0100
0000
0010
0000
0001
0000
0100
0010
0000
0000
,
1000
0000
0001
0000
0010
0001
0000
0000
1000
0001
0000
0000
1000
0100
0000
0000
,
0010
0001
0100
0010
0001
0010
1000
0001
,
2000
0000
0100
0000
3100
0000
0000
0000
1000
0001
0000
0000
0010
0001
0000
0000
,
0100
0010
0120
0000
1030
0010
1000
0001
,
0010
0000
1000
0000
0010
0000
0001
0000
0100
0000
0000
0000
0100
0010
0000
0000
,
1000
0000
0001
0000
0201
0000
0000
0000
0310
0000
0000
0000
1000
0001
0000
0000
,
0010
0100
1200
0000
0310
0000
0001
1000
,
0100
0010
0001
0100
1001
0000
1000
0001
,
0010
0001
0100
0010
0100
1000
0100
0001
,
0001
0010
0000
0000
0001
0000
1000
0000
0101
0000
0000
0000
0010
1000
0000
0000
,
0100
0010
0000
0000
1001
0000
0000
0000
0010
0000
1000
0100
1000
0000
0001
0000
,
0010
0100
1000
0010
1000
0000
0001
0001
,
0001
1000
0100
0010
0001
0100
1000
0001
,
0001
1000
0010
1000
0100
0001
0100
0010
,
0100
0001
0100
1000
0010
0100
0001
1000
,
0010
0100
0010
1000
1000
0100
1000
0001
,
0010
0001
1000
0010
1000
0001
0100
0000
,
0110
0010
1000
0100
0001
0100
1000
0010
,
0010
1000
1000
0100
0001
0001
0100
0010
,
0001
0010
1000
0010
0001
1000
0100
0100
,
1000
0001
0100
0001
0010
1000
0100
0010
,
1001
0000
0000
0000
;
