#TITLE:Until the End;
#ARTIST:Philip Webb;
#BANNER:Until the End.png;
#BACKGROUND:Until the End-bg.png;
#JACKET:Until the End-jacket.png;
#MUSIC:Until the End.ogg;
#SAMPLESTART:37.68;
#SAMPLELENGTH:20;
#DISPLAYBPM:172;
#BPMS:0=172;
#BGCHANGES:;

//---------------dance-single - ----------------
#NOTES:
     dance-single:
     :
     Beginner:
     3:
     :
0000
0000
0000
0000
,
0000
0000
0000
0000
,
0000
0000
0000
0000
,
0000
0000
0000
0000
,
0000
0000
0000
0000
,
0010
0000
0000
0000
,
0001
0000
0000
0000
,
0100
0000
0000
0000
,
1000
0000
0000
0000
,
0010
0000
0010
0000
,
1000
0000
0000
0000
,
0001
0000
0001
0000
,
0100
0100
0100
0000
,
1000
0000
1000
0000
,
0010
0010
0010
0000
,
1000
0000
1000
0000
,
0010
0000
0010
0000
,
0100
0000
0100
0000
,
0001
0000
0000
0000
,
1000
1000
1000
0000
,
1000
0000
0000
0000
,
0001
0001
0001
0000
,
0001
0000
0000
0000
,
0100
0100
0100
0000
,
0001
0001
0001
0000
,
0010
0000
0000
0000
,
0100
0000
0000
0000
,
1000
1000
1000
0000
,
0001
0000
0000
0000
,
0100
0000
0100
0000
,
0010
0000
0010
0000
,
1000
0000
1000
0000
,
0001
0000
0000
0000
,
0100
0000
0100
0000
,
1000
0000
0000
0000
,
0001
0000
0001
0000
,
0010
0000
0000
0000
,
0100
0000
0100
0000
,
1000
0000
1000
0000
,
1000
0000
0000
0000
,
0001
0000
0001
0000
,
1000
0000
0000
0000
,
0100
0000
0000
0000
,
1001
0000
0000
0000
,
0000
0000
0000
0000
,
0100
0000
0000
0000
,
0000
0000
0000
0000
,
1001
0000
0000
0000
,
0000
0000
0000
0000
,
1000
0000
0000
0000
,
0000
0000
0000
0000
,
0001
0001
0001
0000
,
1000
0000
0000
0000
,
0100
0000
0100
0000
,
0010
0000
0010
0000
,
0001
0000
0001
0000
,
1000
0000
0000
0000
,
0100
0000
0100
0000
,
0001
0000
0000
0000
,
1000
0000
1000
0000
,
0010
0000
0000
0000
,
0100
0000
0100
0000
,
0001
0000
0001
0000
,
0001
0000
0000
0000
,
1000
0000
1000
0000
,
0001
0000
0000
0000
,
0100
0000
0000
0000
,
1000
1000
1000
0000
,
1000
0000
0000
0000
,
0001
0001
0001
0000
,
0001
0000
1000
0000
,
0010
0000
0000
0000
,
0100
0000
0000
0000
,
0010
0000
0000
0000
,
0100
0000
0000
0000
,
1001
0000
0000
0000
,
0000
0000
0000
0000
;

//---------------dance-single - ----------------
#NOTES:
     dance-single:
     :
     Easy:
     4:
     :
0000
0000
0000
0000
,
0000
0000
0000
0000
,
0000
0000
0000
0000
,
0000
0000
0000
0000
,
0000
0000
0000
0000
,
1000
0000
0000
0000
,
0001
0000
0000
0000
,
0010
0000
0010
0000
,
0100
0000
0100
0000
,
1000
0000
0000
0000
,
0001
0000
0000
0000
,
1000
0000
0100
0000
,
1000
1000
1000
0000
,
0010
0000
0001
0000
,
0010
0010
0010
0000
,
0001
0000
1000
0000
,
0001
0001
0001
0000
,
0100
0000
0001
0000
,
1000
0000
0000
0000
,
0001
0000
0100
0000
,
0001
0001
0001
0000
,
0010
0000
1000
0000
,
0010
0010
0010
0000
,
1000
0000
0001
0000
,
1000
1000
1000
0000
,
0002
0003
2000
3000
,
0020
0030
0000
0000
,
1001
0000
1001
0000
,
1001
0000
0000
0000
,
2000
3000
0002
0003
,
2000
3000
0000
0000
,
0110
0000
0110
0000
,
0110
0000
0000
0000
,
0020
0030
0200
0300
,
0020
0030
0000
0000
,
1000
0000
1000
0000
,
0001
0001
1000
0000
,
0001
0000
0001
0000
,
1000
1000
0001
0000
,
1000
0000
0001
0000
,
1000
0001
1000
0000
,
0010
0000
0100
0000
,
0010
0100
0010
0000
,
2000
0000
0000
0000
,
0000
0000
0000
3000
,
0002
0000
0000
0000
,
0000
0000
0000
0003
,
0020
0000
0000
0000
,
0000
0000
0000
0030
,
0200
0000
0000
0000
,
0000
0000
0300
0000
,
1001
0000
1001
0000
,
1001
0000
0000
0000
,
2000
3000
0002
0003
,
2000
3000
0000
0000
,
0110
0000
0110
0000
,
0110
0000
0000
0000
,
0020
0030
0200
0300
,
0020
0030
0000
0000
,
1000
0000
1000
0000
,
0001
0001
1000
0000
,
0001
0000
0001
0000
,
1000
1000
0001
0000
,
1000
0000
0001
0000
,
1000
0002
1000
0000
,
0010
0000
0100
0000
,
0013
0010
0010
0000
,
1000
0000
0001
0000
,
1000
0001
1000
0000
,
0010
0000
0100
0000
,
0002
0003
2000
3000
,
0001
0001
0001
0001
,
1000
1000
1000
1000
,
0010
0010
0010
0010
,
0100
0100
0100
0100
,
1001
0000
0000
0000
,
0000
0000
0000
0000
;

//---------------dance-single - ----------------
#NOTES:
     dance-single:
     :
     Medium:
     9:
     :
0000
0000
0000
0000
,
0000
0000
0000
0000
,
0000
0000
0000
0000
,
0000
0000
0000
0000
,
0000
0000
0000
0000
,
1000
0000
0100
0010
0001
0000
1000
0000
,
0001
0000
0100
0010
1000
0000
0100
0000
,
0010
0000
0001
1000
0001
0000
0100
0000
,
0010
0000
1000
0000
0100
0010
0001
0000
,
1000
0000
0010
0000
0100
0001
1000
0000
,
0100
1000
0100
0000
0010
0000
0001
0000
,
2000
3100
0020
0031
,
1000
0000
0001
0000
1000
0010
0100
0000
,
0002
0013
2000
3100
,
0010
0001
1000
0100
0010
0000
0001
0000
,
1000
0002
0000
0000
1003
0000
0100
0000
,
0010
0000
0001
0000
1000
0001
1000
0000
,
2000
0000
0000
3100
0010
0000
0001
0000
,
1000
0000
0010
0000
0100
0001
1000
0000
,
0002
0013
0200
1300
,
0001
0000
0100
0000
0010
1000
0001
1000
,
0002
0000
1003
0100
,
0010
0000
0001
1000
0100
0000
0010
0001
,
1000
0002
0000
0000
0103
0020
0030
0000
,
1000
0000
0100
0000
0010
0001
1000
0000
,
0002
0000
0000
1003
0100
0000
0010
0000
,
0001
0000
1000
0000
0001
0100
0010
1000
,
1010
0000
1100
0000
,
1001
0000
0000
0000
1000
0100
0010
0001
,
0200
0001
0010
0301
,
2000
0000
3001
0000
1000
0100
0010
0000
,
0011
0000
1001
0000
,
1000
1100
0010
0011
,
1001
0000
0110
0000
,
2000
0100
0001
3100
,
1000
0000
0100
0000
0010
0000
0001
1000
,
0001
0000
0100
0010
1000
0000
0100
0000
,
0010
0000
0001
0000
1000
0000
0001
1000
,
0001
0100
0010
1000
,
1001
0000
1100
0000
,
0010
0001
1000
0001
,
1000
0100
0001
0100
,
1000
0100
1000
0000
0001
0010
0001
0000
,
0020
0000
0000
0030
,
0002
0000
0000
0003
,
2000
0000
0000
3000
,
0200
0000
2000
3300
,
0002
0000
0000
0003
,
0200
0000
0000
0300
,
0020
0000
0000
0030
,
2000
0000
0002
3003
,
1000
0100
0010
0001
,
1000
0000
0001
0000
0100
0010
1000
0000
,
0001
1000
0100
0010
,
0002
0100
1000
0103
,
1001
0000
1100
0000
,
0010
0001
0011
0000
,
1010
0000
1001
0000
,
0200
0001
1000
0301
,
1000
0100
0010
0001
,
1000
0000
0001
0000
0100
0010
1000
0000
,
0001
0000
0010
0000
0100
0000
1000
0001
,
1000
0000
0100
0000
0010
0000
0001
1000
,
0001
0101
1000
1100
,
1001
0000
0110
0000
,
1010
0100
0101
0000
,
2000
0000
0000
0000
3001
0100
0010
1000
,
1010
0000
1100
0000
,
0010
0001
1001
0000
,
2000
3100
0020
0031
,
1001
0000
0110
0000
,
1000
0000
0100
0000
0001
0000
0100
0001
,
1000
0000
0010
0000
0100
0000
0001
1000
,
0001
0000
0100
0000
0010
0000
1000
0001
,
1000
0100
0010
0001
,
1001
0000
0000
0000
,
0000
0000
0000
0000
;

//---------------dance-single - ----------------
#NOTES:
     dance-single:
     :
     Hard:
     12:
     :
0000
0000
0000
0000
,
0000
0000
0000
0000
,
0000
0000
0000
0000
,
0000
0000
0000
0000
,
0000
0000
0000
0000
,
0002
0000
0000
0003
,
0010
0000
0001
0000
,
1000
0010
1000
0000
0100
1000
0100
0000
,
0010
0001
0010
0000
0001
0100
0001
0010
,
0100
1000
0100
0000
1000
0010
1000
0000
,
0001
0100
0001
0000
0010
0001
0100
0001
,
1000
0000
0000
0000
0010
0000
0000
0001
0010
0000
0000
0000
1000
0000
0000
0100
,
0010
0001
0010
0000
0001
0100
1000
0100
,
0001
0000
0000
0000
0010
0000
0000
1000
0010
0000
0000
0000
0001
0000
0000
0100
,
0010
1000
0010
0000
1000
0100
0001
0100
,
0010
0000
0000
0000
0001
0000
0000
0100
0001
0000
0000
0000
0010
0000
0000
1000
,
0010
0001
0100
0000
1000
0100
0001
0010
,
1000
0000
0010
0001
0000
0100
1000
0100
,
0001
0000
0010
0000
1000
0000
0000
0000
0010
0000
0001
0000
0100
0000
0001
0100
,
0001
0000
0000
0000
0010
0000
0000
1000
0010
0000
0000
0000
0001
0000
0000
0100
,
0010
1000
0010
0000
1000
0100
0001
0100
,
1000
0000
0000
0000
0010
0000
0000
0001
0010
0000
0000
0000
1000
0000
0000
0100
,
0010
0001
0010
0000
0001
0100
1000
0100
,
0010
0000
0000
0000
1000
0000
0000
0100
1000
0000
0000
0000
0010
0000
0000
0001
,
0010
1000
0100
0000
0001
0100
1000
0010
,
0001
0000
0010
1000
0000
0100
0001
0100
,
1000
0000
0010
0000
0001
0000
0000
0000
0010
0000
1000
0000
0100
0000
1000
0100
,
1000
1010
0001
0101
,
0010
0011
0100
1100
,
1000
0010
0001
0000
0001
0010
1000
0000
,
1000
0100
0001
0000
0100
1000
0010
1000
,
0001
0011
1000
1100
,
0010
1010
0100
0101
,
0001
0010
1000
0000
1000
0010
0001
0000
,
0001
0000
0100
0000
1000
0000
0000
0000
0100
0000
0001
0100
0001
0000
0010
0000
,
0100
1000
0100
1000
0100
0010
0001
0010
,
0001
0000
0100
0000
0010
0000
1000
0000
0010
1000
0010
0000
0001
0000
0010
0000
,
0100
0001
0100
0001
0100
0010
1000
0010
,
1000
0000
0100
0000
0010
0000
0001
0000
0010
0001
0010
0000
1000
0000
0010
0000
,
0001
0100
0011
1100
,
1000
0000
0000
0010
1000
0000
0000
0000
0001
0000
0000
0010
0001
0000
0000
0000
,
1000
0100
1010
0101
,
0001
0000
0000
0010
0001
0000
0000
0000
1000
0000
0000
0010
1000
0000
0000
0000
,
0202
0000
0000
0000
,
0000
0000
0000
0300
,
0020
0000
0000
0003
,
2000
0000
0000
0000
,
0000
0000
3030
0000
0100
1000
0020
0000
,
0000
0000
0000
0002
,
0000
0000
0033
0000
0100
0001
0100
0000
,
0020
2000
0000
3030
,
0001
0011
1000
1100
,
0010
1010
0100
0101
,
0001
0010
1000
0000
1000
0010
0001
0000
,
0001
0100
1000
0000
0100
0001
0010
0001
,
1000
1010
0001
0101
,
0010
0011
0100
1100
,
1000
0010
0001
0000
0001
0010
1000
0000
,
1000
0000
0100
0000
0001
0000
0000
0000
0100
0000
1000
0100
1000
0000
0010
0000
,
0100
0001
0100
0001
0100
0010
1000
0010
,
1000
0000
0100
0000
0010
0000
0001
0000
0010
0001
0010
0000
1000
0000
0010
0000
,
0100
1000
0100
1000
0100
0010
0001
0010
,
0001
0000
0100
0000
0010
0000
1000
0000
0010
1000
0010
0000
0001
0000
0010
0000
,
1000
0100
1010
0101
,
0001
0000
0000
0010
0001
0000
0000
0000
1000
0000
0000
0010
1000
0000
0000
0000
,
0001
0100
0011
1100
,
1000
0000
0000
0010
1000
0000
0000
0000
0001
0000
0000
0010
0001
0000
0000
0000
,
1100
1100
1010
1010
,
0101
0101
0011
0011
,
0010
0001
0100
1000
,
0100
0000
0000
0000
0001
0000
0000
0010
0001
0000
0100
0000
0010
0000
1000
0000
,
0001
0010
0001
0000
0100
0001
0100
0000
,
0010
1000
0010
0000
1000
0100
1000
0010
,
0100
0001
0100
0000
0001
0010
0001
0000
,
1000
0100
1000
0000
0010
0001
0100
0001
,
0010
0000
0000
0000
,
0000
0000
0000
0000
;

//---------------dance-single - ----------------
#NOTES:
     dance-single:
     :
     Challenge:
     17:
     :
0000
0000
0000
0000
,
0000
0000
0000
0000
,
0000
0000
0000
0000
,
0000
0000
0000
0000
,
0000
0000
0000
0000
,
0010
1000
0010
0000
0100
0000
0001
0000
0010
0100
0010
0000
0001
0000
1000
0000
,
0010
0100
0010
0000
1000
0000
0001
0000
1000
0100
1000
0000
0001
0100
0000
0001
,
0100
0000
0010
0000
1000
0000
0001
0000
0010
0100
0010
0000
0001
0000
1000
0000
,
0100
1000
0100
0000
0010
0000
0001
0000
1000
0000
0100
0000
0010
0000
0001
0000
,
0100
0001
0100
0000
0010
0000
1000
0000
0001
0010
0001
0000
1000
0000
0010
0000
,
0100
0000
0010
0000
1000
0000
0001
0010
0001
0000
0100
0010
0100
0000
0001
1000
,
0020
0000
0000
0130
0001
0000
0000
0000
2010
0000
0000
3001
0100
0000
0000
0000
,
0110
0000
0000
0010
1000
0000
0100
1000
0001
0000
0001
0000
0001
0000
0001
0100
,
0020
0000
0000
1030
0100
0000
1000
0001
2000
0000
0000
3010
0100
0000
0001
0000
,
0010
0010
0001
0001
0100
0010
0010
1000
,
0200
0000
0000
1300
0001
0000
0100
0000
0020
0000
0000
1030
0001
0000
0010
0000
,
0100
1000
0001
1000
0010
0010
0010
0010
,
0100
0000
0001
0010
0001
0000
1000
0100
1000
0000
0010
0100
0010
0000
1000
0001
,
0100
0000
0010
1000
0010
0000
0100
0000
0001
0000
0010
0000
0010
0000
0010
0001
,
0200
0010
0310
1000
0002
1000
1003
0100
,
0010
0001
0001
1000
1000
0010
0010
0100
,
0001
0000
1000
0000
0010
1000
0100
0000
0010
0000
0001
1000
0001
0000
0100
0000
,
0010
0000
1000
0001
1000
0000
0001
0010
0100
0000
1000
0010
1000
0000
0001
0000
,
0100
0000
0010
1000
0010
0000
0100
0000
0001
0000
1000
0010
1000
0000
0001
0000
,
0010
0000
0001
0000
0100
0000
0010
1000
0010
0000
0100
0001
1000
0000
0001
0000
,
0020
0000
0001
0000
0031
0000
1000
0100
0010
0000
0100
0000
2000
0000
0001
0000
,
3001
0000
0100
0010
0100
0000
0001
0010
0100
0000
1000
0010
1000
0000
0001
0000
,
0011
0001
0100
0010
1010
1000
0001
0010
,
0110
0000
1000
0000
0010
0000
0100
0000
0001
0010
0100
0000
1000
0000
0001
0000
,
0110
0001
0100
0010
1010
1000
0001
0100
,
1001
0000
0010
0000
1000
0000
0001
0000
0010
0100
1000
0000
0001
0000
0100
0010
,
0100
0001
1000
0010
0101
0010
0001
0100
,
0011
1000
0001
0010
1100
1000
0001
0100
,
1001
0000
0100
1000
0100
0000
0010
0000
0001
0000
1000
0010
1000
0000
0001
0000
,
0100
0010
1000
0000
0001
0000
0001
0000
0010
0001
1000
0000
0100
0000
0100
0000
,
0110
0000
0001
0000
0010
0001
1000
0000
0100
0010
0001
0000
0100
0000
0010
0000
,
1000
0000
0001
0000
0010
0001
0100
0000
0010
1000
0100
0000
1000
0000
0001
0000
,
1001
0000
0010
1000
0100
0000
0010
0000
0001
0000
1000
0001
0100
0000
0010
0000
,
1000
0000
0100
0010
0001
0000
0100
0000
0001
1000
0001
0000
0010
0000
0100
1000
,
0200
0000
0010
0000
0310
0001
1000
0000
0002
0000
0100
0000
0103
0010
1000
0000
,
0001
1000
0001
0000
0010
0000
0100
0000
1000
0010
0100
0010
1000
0000
0001
0100
,
0010
0000
1000
0000
0100
0000
0010
0000
0001
1000
0001
0000
0100
0010
1000
0010
,
0100
0000
0001
0000
0010
0100
1000
0000
0010
1000
0001
0000
0100
0000
0010
0000
,
1010
0000
0000
1000
0100
0010
0001
0000
0000
1000
0100
0010
,
0001
0000
0000
1000
0100
0010
0002
0000
0000
2003
0000
0000
,
3010
0000
0000
1000
0100
0010
0001
0000
0000
1000
0100
0010
,
0001
0000
0000
0000
0000
0000
0000
0000
0000
0000
0000
0000
1000
0000
0000
0000
0100
0000
0000
0000
0010
0000
0000
0000
0001
0000
0000
0000
0000
0000
0000
0000
0000
0000
0000
0000
1000
0000
0000
0010
0000
0000
1000
0000
0000
0010
0000
0000
,
1000
0000
0100
0010
0001
0100
0001
1000
,
0010
0000
1000
0100
1000
0001
0010
0100
,
1000
0000
0001
0100
0010
1000
0100
1000
,
0001
0100
0001
0000
1000
0100
1000
0000
0001
0010
0001
0000
1000
0010
1000
0000
,
1100
0000
0100
0010
0001
0000
0100
0000
0101
0000
0010
1000
0001
0000
0100
0000
,
0010
1000
0001
0000
0100
0000
0010
0000
1000
0100
1000
0000
0001
0000
0100
0000
,
1010
0000
0001
1000
0100
0000
0010
0000
0011
0000
0010
0001
1000
0000
0010
0000
,
1001
0000
0001
1000
0100
0000
0010
0000
0001
0100
0001
0000
0010
0000
1000
0000
,
1100
0000
0001
0000
1000
0000
0010
0000
0110
0000
0100
0001
0100
0000
0010
0000
,
1000
0100
0010
0000
0001
0000
0100
0000
0001
1000
0010
0000
0100
0000
0001
0000
,
0010
0001
1000
0000
0001
0000
0010
0000
0100
0010
0001
0000
1000
0000
0100
0000
,
1000
0010
1000
0000
0001
0000
0100
0000
0010
0100
0001
0000
1000
0000
0010
0100
,
0010
0000
1000
0000
0001
0000
0010
0000
0001
0100
0001
0000
1000
0000
0100
0000
,
0010
0100
1000
0000
0001
0000
0100
0000
0010
0100
0001
0000
1000
0000
0100
1000
,
0001
0000
0010
0100
1000
0000
0001
0000
0110
0000
1000
0010
1000
0000
0001
0000
,
0011
0000
0100
1000
0010
0000
0100
0000
0001
0010
0001
1000
0010
0000
0100
0000
,
1010
0001
1000
0100
1100
0010
0100
0001
,
0011
0000
0100
0000
0001
0000
1000
0000
0101
0000
0010
0100
0010
0000
1000
0000
,
0001
0010
0001
0000
1000
0000
0010
0000
0100
0001
0100
0000
0010
0000
1000
0000
,
0100
1000
0100
0000
1000
0001
1000
0000
0010
0100
0001
0100
0010
0000
1000
0000
,
0100
1000
0100
1000
0010
0000
0100
0000
0001
0010
0001
1000
0001
0000
0010
0000
,
0001
0000
0100
0010
1000
0000
0100
0010
0001
0000
1000
0001
0100
0000
0010
1000
,
0001
0000
0010
0100
1000
0000
0010
1000
0001
0000
0100
0001
0010
0000
1000
0100
,
0010
0000
0001
0000
0001
0100
0010
0000
1000
0000
0100
1000
0010
0000
0100
0001
,
1000
0000
0010
0000
0100
0000
0001
0000
0010
0100
1000
0000
0001
0000
0100
0000
,
0010
0100
0001
0000
1000
0000
0010
0100
0001
0000
0010
0100
1000
0000
0001
0100
,
0010
0000
1000
0000
0001
0000
0100
0000
0001
0010
0100
0000
1000
0000
0001
0000
,
0100
0010
1000
0000
0001
0000
0100
0000
0001
0010
0100
1000
0001
0100
0010
2000
,
0002
0000
0000
0000
,
0000
0000
0000
3003
;

//---------------dance-double - ----------------
#NOTES:
     dance-double:
     :
     Easy:
     8:
     :
00000000
00000000
00000000
00000000
,
00000000
00000000
00000000
00000000
,
00000000
00000000
00000000
00000000
,
00000000
00000000
00000000
00000000
,
00000000
00000000
00000000
00000000
,
00000101
00000000
00000100
00000000
,
00001010
00000000
00001000
00000000
,
00011000
00000000
01000000
00000000
,
10000000
00000000
01000000
00000000
,
01010000
00000000
00001000
00000000
,
00000010
00000001
00000100
00001000
,
00020000
00000000
02000000
03030000
,
20000000
32000000
03020000
00031000
,
00000200
00000000
00000002
00000303
,
00000200
00002300
00013000
00100000
,
20000000
00000000
02000000
33000000
,
00020000
00032000
00003200
00000301
,
00000200
00000000
00002300
00013000
,
00200000
00000000
20000000
30300000
,
00100000
00100000
00010000
00001000
,
00000010
00000001
00000100
00000100
,
00001000
00001000
00010000
01000000
,
10000000
01000000
00010000
00010000
,
00002000
00000000
00003100
00000001
,
00000100
00001000
00010000
00110000
,
20000000
00000000
32000000
03010000
,
00011000
00000010
00000001
00000010
,
00002020
00003030
00022000
00033000
,
00220000
00330000
22000000
33000000
,
00010000
01000000
00010000
00001000
,
00002020
00000000
00000000
00003030
,
00022000
00033000
02020000
03030000
,
20000000
32000000
03020000
00031000
,
00002200
00003300
00000022
00000033
,
00002200
00000000
00000000
00003300
,
00020000
00000000
00200000
00330000
,
20000000
30200000
00320000
00031000
,
00000200
00000000
00000002
00000303
,
00000200
00002300
00023000
00130000
,
20000000
00000000
02000000
33000000
,
00020000
00032000
00003020
00000031
,
00000020
00002030
00023000
01030000
,
20000000
00000000
02000000
33000000
,
02020000
03030000
00001000
00000010
,
00000202
00000303
00000100
00001000
,
00022000
00033000
10000000
01000000
,
00220000
00330000
00001000
00000100
,
00000002
00000000
00000000
00000000
00000103
00001000
00000000
00000000
,
00020000
00000000
00000000
00000000
00130000
10000000
00000000
00000000
,
00200000
00000000
00000000
00000000
00310000
00001000
00000000
00000000
,
00000020
00000000
00000000
00000000
00000031
00000100
00000000
00000000
,
00001000
00001000
00010000
00010000
,
00100000
10000000
01000000
00010000
,
00001000
00000100
00000001
00000100
,
00001000
00010000
01000000
10000000
,
01000000
01000000
00010000
00010000
,
00001000
00000010
00000001
00000100
,
00001000
00010000
00100000
10000000
,
00100000
00010000
00001000
00000100
,
00000002
00000103
00001000
00010000
,
01000000
10000000
02000000
03010000
,
00001000
00000020
00000031
00000100
,
00001000
00010000
02000000
13000000
,
01000000
02000000
03010000
00020000
,
00031000
00002000
00003100
00000200
,
00000301
00000002
00000103
00000200
,
00001300
00010000
00100000
10000000
,
00220000
00030000
00002000
00303000
,
00000020
00000032
00000203
00001300
,
00010000
00100000
10000000
01000000
,
00020000
00001000
00001000
00031000
,
00000200
00000001
00000001
00001300
,
00020000
00000000
01000000
01030000
,
20000000
31000000
00020000
00031000
,
00000020
00001030
00000001
00000100
,
00001001
00000000
00000000
00000000
,
00000000
00000000
00000000
00000000
;

//---------------dance-double - ----------------
#NOTES:
     dance-double:
     :
     Medium:
     10:
     :
00000000
00000000
00000000
00000000
,
00000000
00000000
00000000
00000000
,
00000000
00000000
00000000
00000000
,
00000000
00000000
00000000
00000000
,
00000000
00000000
00000000
00000000
,
10000000
00000000
01000000
00010000
00001000
00000000
00000100
00000000
,
00000001
00000000
00000100
00000001
00001000
00000000
00000100
00000000
,
00010000
00000000
00001000
00100000
01000000
00000000
10000000
00000000
,
00010000
00000000
10000000
00000000
01000000
00010000
00000010
00000000
,
00000100
00000000
00000001
00000000
00001000
00000100
00010000
00000000
,
00001000
01000000
00010000
00000000
10000000
00000000
01000000
00000000
,
00020000
00031000
00000200
00000301
,
00001000
00000000
00000100
00000000
00010000
00100000
10000000
00000000
,
02000000
13000000
00020000
01030000
,
00001000
00000100
00000001
00001000
00000010
00000000
00000100
00000000
,
00001000
00020000
00000000
00000000
00130000
00000000
10000000
00000000
,
01000000
00000000
00010000
00000000
00001000
00000100
00000001
00000000
,
00002000
00000000
00000000
00003100
00010000
00000000
01000000
00000000
,
10000000
00000000
00010000
00000000
01000000
00010000
00001000
00000000
,
00000200
00000301
00002000
00003100
,
00010000
00000000
01000000
00000000
10000000
01000000
00010000
00001000
,
00000200
00000000
00000301
00001000
,
00000100
00000000
00001000
00100000
10000000
00000000
01000000
00010000
,
00001000
00000200
00000000
00000000
00000301
00002000
00003000
00000000
,
00000100
00000000
00010000
00000000
01000000
10000000
00010000
00000000
,
20000000
00000000
00000000
30010000
01000000
00000000
00001000
00000000
,
00000100
00000000
00000001
00000000
00001000
00000100
00010000
00001000
,
00110000
00000000
10010000
00000000
,
01010000
00000000
00000000
00000000
00001000
00000100
00000001
00000100
,
00002000
00010000
00000000
01003000
,
00020000
00000000
10030000
00000000
01000000
00010000
00001000
00000000
,
00001010
00000000
00001001
00000000
,
00000100
00011000
00100000
00110000
,
10010000
01000000
00011000
00000000
,
00000200
00000001
00001000
00000301
,
00001000
00000000
00010000
00000000
01000000
00000000
00010000
10000000
,
01000000
00000000
00010000
00001000
00000010
00000000
00000001
00000000
,
00001000
00000000
00000100
00000000
00010000
00000000
00100000
10000000
,
01000000
00010000
00001000
00000100
,
00000101
00000000
00001010
00000000
,
00010000
00100000
10000000
01000000
,
00010000
00001000
00000100
00000001
,
00001000
00000001
00001000
00000000
00000100
00010000
00001000
00000000
,
00200000
00000000
00000000
00300000
,
02000000
00000000
00000000
03000000
,
00020000
00000000
00000000
00030000
,
00002000
00000000
00000200
00003300
,
00000002
00000000
00000000
00000003
,
00002000
00000000
00000000
00003000
,
00020000
00000000
00000000
00030000
,
20000000
00000000
00020000
30030000
,
10000000
01000000
00010000
00001000
,
00000010
00000000
00000001
00000000
00001000
00000001
00000100
00000000
,
00001000
00010000
01000000
10000000
,
00020000
01000000
10000000
01030000
,
00011000
00000000
00001100
00000000
,
00000001
00000100
00000110
00010000
,
00011000
00000000
00110000
00000000
,
20000000
01000000
00010000
31000000
,
00010000
00001000
00000100
00000001
,
00001000
00000000
00000100
00000000
00100000
00010000
10000000
00000000
,
00100000
00000000
01000000
00000000
00001000
00000000
00000100
00000001
,
00001000
00000000
00000100
00000000
00010000
00000000
00100000
10000000
,
01000000
01100000
00010000
00011000
,
00001100
00000000
00001001
00000000
,
00001010
00010000
00011000
00000000
,
00200000
00000000
00000000
00000000
00310000
10000000
01000000
00010000
,
00011000
00000000
00001100
00000000
,
00000001
00000100
00011000
00100000
,
02000000
13000000
00020000
01030000
,
00011000
00000000
00001010
00000000
,
00000001
00000000
00000010
00000000
00000100
00000000
00001000
00010000
,
00100000
00000000
10000000
00000000
01000000
00000000
00010000
00001000
,
00000100
00000000
00000001
00000000
00001000
00000000
00010000
00100000
,
01000000
10000000
01000000
00010000
,
00011000
00000000
00000000
00000000
,
00000000
00000000
00000000
00000000
;

//---------------dance-double - ----------------
#NOTES:
     dance-double:
     :
     Hard:
     13:
     :
00000000
00000000
00000000
00000000
,
00000000
00000000
00000000
00000000
,
00000000
00000000
00000000
00000000
,
00000000
00000000
00000000
00000000
,
00000000
00000000
00000000
00000000
,
00020000
00000000
00000000
00030000
,
00001000
00000000
00001000
00000000
,
00000010
00001000
00000010
00000000
00001000
01000000
00001000
00000000
,
01000000
10000000
01000000
00000000
00010000
00001000
00010000
01000000
,
00100000
00010000
00100000
00000000
00010000
00000100
00010000
00000000
,
00000100
00000001
00000100
00000000
00001000
00010000
00001000
00000100
,
00010000
00000000
00000000
00000000
00100000
00000000
00000000
00010000
00100000
00000000
00000000
00000000
00010000
00000000
00000000
00001000
,
00010000
00000100
00001000
00000000
00000010
00000001
00000010
00000100
,
00001000
00000000
00000000
00000000
00000010
00000000
00000000
00001000
00000010
00000000
00000000
00000000
00001000
00000000
00000000
00010000
,
00001000
01000000
00010000
00000000
00100000
10000000
00100000
01000000
,
10000000
00000000
00000000
00000000
00100000
00000000
00000000
00010000
00100000
00000000
00000000
00000000
00010000
00000000
00000000
00001000
,
00010000
00001000
00000010
00000000
00000001
00000100
00001000
00000100
,
00000001
00000000
00000010
00001000
00000000
00010000
00001000
00000010
,
00001000
00000000
00010000
00000000
00100000
00000000
00000000
00000000
10000000
00000000
01000000
00000000
00010000
00000000
00001000
00010000
,
00001000
00000000
00000000
00000000
00000010
00000000
00000000
00001000
00000010
00000000
00000000
00000000
00001000
00000000
00000000
00010000
,
00001000
01000000
00010000
00000000
00100000
10000000
00100000
01000000
,
00010000
00000000
00000000
00000000
00100000
00000000
00000000
00010000
00100000
00000000
00000000
00000000
00010000
00000000
00000000
00001000
,
00010000
00000100
00001000
00000000
00000010
00000001
00000010
00000100
,
00000001
00000000
00000000
00000000
00000010
00000000
00000000
00001000
00000010
00000000
00000000
00000000
00001000
00000000
00000000
00010000
,
00001000
00010000
00100000
00000000
10000000
01000000
00010000
01000000
,
10000000
00000000
00100000
00010000
00000000
00001000
00010000
00100000
,
00010000
00000000
00001000
00000000
00000010
00000000
00000000
00000000
00000001
00000000
00000100
00000000
00001000
00000000
00010000
00001000
,
00010000
00011000
00000010
00001010
,
00000100
00001100
00010000
00011000
,
00010000
00100000
00010000
00000000
00010000
01000000
00010000
00000000
,
00100000
10000000
01000000
00000000
01000000
10000000
01000000
00010000
,
00001000
00011000
00100000
00110000
,
01000000
01010000
00001000
00011000
,
00001000
00000010
00001000
00000000
00001000
00000100
00001000
00000000
,
00000010
00000000
00000001
00000000
00000100
00000000
00000000
00000000
00000100
00001000
00000100
00000000
00001000
00000000
00010000
00000000
,
01000000
00010000
00001000
00010000
00100000
00010000
00100000
10000000
,
01000000
00000000
00010000
00000000
00001000
00000000
00000100
00000000
00000001
00000100
00000001
00000000
00000010
00000000
00000001
00000000
,
00000100
00001000
00010000
00001000
00000010
00001000
00000010
00000001
,
00000100
00000000
00001000
00000000
00010000
00000000
01000000
00000000
10000000
01000000
10000000
00000000
00100000
00000000
10000000
00000000
,
00100000
11000000
00110000
00011000
,
00010000
00000000
00000000
00000010
00001000
00000000
00000000
00000000
00000001
00000000
00000000
00000010
00000001
00000000
00000000
00000000
,
00000010
00000101
00001010
00011000
,
00001000
00000000
00000000
00100000
00010000
00000000
00000000
00000000
10000000
00000000
00000000
00100000
10000000
00000000
00000000
00000000
,
02020000
00000000
00000000
00000000
,
00000000
00000000
00000000
00030000
,
00020000
00000000
00000000
03000000
,
00002000
00000000
00000000
00000000
,
00000000
00000000
00033000
00000000
00000100
00001000
00000200
00000000
,
00000000
00000000
00000000
00000002
,
00000000
00000000
00000303
00000000
00000100
00001000
00010000
00000000
,
00020000
02000000
00000000
03030000
,
00001000
00011000
00100000
00110000
,
01000000
01010000
00001000
00011000
,
00001000
00000010
00001000
00000000
00001000
00000100
00001000
00000000
,
00000010
00000001
00000100
00000000
00000100
00000001
00000100
00001000
,
00010000
00011000
00000010
00001010
,
00000100
00001100
00010000
00011000
,
00010000
00100000
00010000
00000000
00010000
01000000
00010000
00000000
,
00100000
00000000
10000000
00000000
01000000
00000000
00000000
00000000
01000000
00010000
01000000
00000000
00010000
00000000
00001000
00000000
,
00000100
00001000
00010000
00001000
00000010
00001000
00000010
00000001
,
00000100
00000000
00001000
00000000
00010000
00000000
01000000
00000000
10000000
01000000
10000000
00000000
00100000
00000000
10000000
00000000
,
01000000
00010000
00001000
00010000
00100000
00010000
00100000
10000000
,
01000000
00000000
00010000
00000000
00001000
00000000
00000100
00000000
00000001
00000100
00000001
00000000
00000010
00000000
00000001
00000000
,
00000010
00000101
00001010
00011000
,
00001000
00000000
00000000
00100000
00010000
00000000
00000000
00000000
10000000
00000000
00000000
00100000
10000000
00000000
00000000
00000000
,
00100000
11000000
00110000
00011000
,
00010000
00000000
00000000
00000010
00001000
00000000
00000000
00000000
00000001
00000000
00000000
00000010
00000001
00000000
00000000
00000000
,
00001100
00001100
00011000
00011000
,
00110000
00110000
00011000
00011000
,
00010000
00001000
00000010
00001000
,
00000010
00000000
00000000
00000000
00000001
00000000
00000000
00000100
00000001
00000000
00000100
00000000
00001000
00000000
00010000
00000000
,
00100000
00010000
00100000
00000000
00010000
00000100
00010000
00000000
,
00000100
00000001
00000100
00000000
00001000
00010000
00001000
00000100
,
00000010
00001000
00000010
00000000
00001000
01000000
00001000
00000000
,
01000000
10000000
01000000
00000000
00010000
00001000
00010000
01000000
,
10000000
00000000
00000000
00000000
,
00000000
00000000
00000000
00000000
;
