#TITLE:Until Forever;
#ARTIST:Beatdrop;
#BANNER:Until Forever-bn.png;
#BACKGROUND:Until Forever-bg.png;
#JACKET:Until Forever-jacket.png;
#MUSIC:Until Forever.ogg;
#SAMPLESTART:16.901;
#SAMPLELENGTH:20;
#BPMS:0=142;
#BGCHANGES:;

//---------------dance-single - ----------------
#NOTES:
     dance-single:
     :
     Beginner:
     3:
     :
0000
0000
0000
0000
,
0000
0000
0000
0000
,
0000
0000
0000
0000
,
0000
0000
0000
0000
,
0000
0000
0000
0000
,
0000
0000
0000
0000
,
1000
0000
0001
0000
,
0100
0000
0000
0000
,
0010
0000
0000
0000
,
1000
1000
1000
0000
,
0001
0000
0100
0000
,
0010
0000
1000
0000
,
0001
0000
1000
0000
,
0001
0000
1000
0000
,
0100
0000
0010
0000
,
0001
0000
1000
0000
,
0010
0000
0100
0000
,
0010
0000
0100
0000
,
0001
0000
0000
0000
,
1000
0000
0000
0000
,
0010
0010
0000
0000
,
0100
0000
0000
0000
,
1000
1000
0000
0001
,
0000
1000
0000
0001
,
0000
1000
0000
0100
,
0000
0010
0000
0100
,
0100
0100
0000
0010
,
0000
0100
0000
0010
,
0000
0001
0000
0100
,
0100
0000
0000
0000
,
1000
0000
0000
0000
,
0010
0000
0000
0000
,
0001
0000
0001
0000
,
0001
0000
0000
0000
,
1000
0000
0000
0000
,
0010
0000
0000
0000
,
0100
0000
0100
0000
,
0100
0000
0000
0000
,
1000
0000
0000
0000
,
0001
0000
0000
0000
,
0010
0000
0000
0000
,
0100
0000
0000
0000
,
0010
0000
0000
0000
,
0001
0000
0000
0000
,
1000
0000
0100
0000
,
0010
0000
0000
0000
,
1000
0000
0001
0000
,
0100
0000
0010
0000
,
1000
0000
0100
0000
,
1000
0000
0100
0000
,
0010
0000
0001
0000
,
0100
0000
0010
0000
,
0001
0000
0010
0000
,
0001
0000
0010
0000
,
0100
0000
0000
0000
,
1000
0000
0010
0000
,
0001
0000
0000
0000
;

//---------------dance-single - ----------------
#NOTES:
     dance-single:
     :
     Easy:
     6:
     :
0000
0000
0000
0000
,
0000
0000
0000
0000
,
0000
0000
0000
0000
,
0000
0000
0000
0000
,
0000
0000
0000
0000
,
0000
0000
0000
0000
,
1000
0100
0001
0000
,
1000
0010
0001
0000
,
1000
0000
0001
0000
,
0000
0100
0100
0100
,
0010
0000
1000
0100
,
0010
0000
0001
1000
,
0010
0000
0100
0001
,
1000
0000
0010
0100
,
0001
0000
1000
0001
,
1000
0000
0100
0010
,
0100
0000
0010
1000
,
0100
0010
0001
0010
,
0100
0000
1000
0000
,
0100
0001
1000
0000
,
1000
1000
0001
0001
,
1000
0000
0001
0000
,
0010
0010
0010
0000
,
0100
0100
0100
0000
,
0010
0010
0100
0100
,
1000
0001
1000
0000
,
0100
0100
0100
0000
,
0010
0010
0010
0000
,
0100
0100
0010
0010
,
1000
0001
1000
0000
,
0100
0000
0010
0000
,
0001
0100
1000
0100
,
0001
0000
1000
0000
,
0010
0000
0100
0001
,
1000
0000
0001
0000
,
1000
0100
0001
0100
,
1000
0000
0010
0000
,
0001
0000
0100
0001
,
1001
0000
0100
0000
,
1001
0000
0010
0000
,
1000
1000
1000
0000
,
0010
0010
0010
0000
,
0001
0001
0001
0000
,
1000
0001
1000
0001
,
0100
0000
0010
0000
,
1000
1000
1000
0000
,
0001
0100
1000
0100
,
0010
0000
0001
0000
,
1000
0100
0001
0100
,
1000
0000
0010
0000
,
0001
0100
1000
0100
,
0001
0000
0010
0000
,
0100
1000
0001
0100
,
0010
0000
0100
0000
,
0010
0000
0000
0000
,
1001
0000
0110
0000
,
1001
0000
0000
0000
;

//---------------dance-single - ----------------
#NOTES:
     dance-single:
     :
     Medium:
     9:
     :
0000
0000
0000
0000
,
0000
0000
0000
0000
,
0000
0000
0000
0000
,
0000
0000
0000
0000
,
0000
0000
0000
0000
,
0000
0000
0000
0000
,
0001
0010
1000
0010
,
0100
1000
0001
0010
,
1000
0000
0000
0000
0000
0100
0010
0000
,
0001
1000
0010
0100
,
0001
0000
1000
0100
0010
0000
0001
0000
,
1000
0000
0010
0001
0100
0000
1000
0000
,
0010
0000
0001
0100
0010
0000
1000
0000
,
0001
0000
0010
1000
0001
0000
0100
0000
,
0010
0000
0100
0001
1000
0000
0100
0000
,
0010
0000
1000
0010
0100
0000
0001
0000
,
1000
0000
0100
1000
0010
0000
0100
0000
,
0001
0000
1000
0001
0100
0000
0010
0000
,
0110
0000
0010
0001
,
1000
0100
0010
0000
0001
1000
0010
0000
,
0100
0001
0010
0100
,
1000
0001
0100
0000
0010
1000
0100
0000
,
0001
0000
0100
0001
0100
0000
0010
1000
,
0100
0000
1000
0000
0100
1000
0100
0000
,
0010
0100
0001
0100
,
1000
0100
0010
0100
0010
0001
0100
0000
,
0001
0000
1000
0010
0100
0000
0001
0000
,
0100
0000
0010
0000
1000
0100
0010
0001
,
0100
0010
0001
0010
,
1000
0000
1000
0000
0010
0100
0001
0100
,
0010
1000
0001
0100
,
0010
1000
0001
0100
,
0010
0000
1000
0100
0001
0000
1000
0100
,
0001
0000
1000
0100
0001
0100
1000
0000
,
0010
0000
1000
0100
0000
0001
0100
0000
,
0010
0000
1000
0000
0001
0000
0010
1000
,
0100
0000
0001
0100
1000
0000
0001
0100
,
1000
0000
0001
0100
1000
0100
0001
0000
,
1000
0000
0000
0010
0000
0000
0001
0000
,
1000
0000
0010
0100
0000
1000
0010
0000
,
0100
0000
0001
0100
0000
0000
1000
0000
,
0010
0000
0001
0010
0000
1000
0010
0000
,
0100
0001
1000
0100
,
0001
0010
0100
1000
0100
1000
0010
0100
,
0001
0100
0100
0100
,
1000
0000
0100
0000
0010
0001
0100
0010
,
1000
0000
0001
1000
0100
0000
0010
0000
,
0001
0000
0100
0010
1000
0000
0100
0000
,
0010
0000
1000
0100
0010
0000
0001
0000
,
0100
0000
0010
1000
0100
0000
1000
0000
,
0001
0000
1000
0010
0100
0000
0001
0000
,
0010
0000
0001
0100
0010
0000
1000
0000
,
0001
0000
0010
0001
0100
0000
0010
0000
,
1000
0100
0001
0100
,
1001
0000
0000
0000
,
0010
0000
0000
1000
0000
0000
0001
0000
,
0110
0000
0000
0000
;

//---------------dance-single - ----------------
#NOTES:
     dance-single:
     :
     Hard:
     11:
     :
0000
0000
0000
0000
,
0000
0000
0000
0000
,
0000
0000
0000
0000
,
0000
0000
0000
0000
,
0000
0000
0000
0000
,
0000
0000
0000
0000
,
0001
0000
0000
0100
0000
1000
0100
0000
,
0010
0000
0000
0001
0000
1000
0010
0000
,
1000
0000
0000
0100
0000
0001
0100
0000
,
1000
0010
0001
0100
,
0010
0000
0000
1000
0000
0000
0001
0000
0100
0000
0000
0000
0010
0000
0000
0000
,
0001
0000
1000
0100
0010
0000
0001
0000
,
1000
0000
0000
0001
0000
0000
1000
0000
0100
0000
0000
0000
1000
0000
0000
0000
,
0010
0000
0100
0001
1000
0000
0010
0000
,
0001
0000
0000
0100
0000
0000
0010
0000
0001
0000
0000
0000
1000
0000
0000
0000
,
0010
0000
1000
0001
0010
0000
0100
0000
,
1000
0000
0000
0001
0000
0000
1000
0000
0100
0000
0000
0000
0010
0000
0000
0000
,
0001
0000
1000
0010
0001
0000
0100
0000
,
0001
0000
0010
0100
0000
0000
0001
0000
,
1000
0000
0001
0000
1000
0100
1000
0000
0100
0000
0010
0000
1000
0000
0100
0000
,
1000
0000
0001
0000
0100
0000
0010
0000
1000
0000
0000
0000
0010
1000
0010
0000
,
0100
0001
1000
0100
1000
0000
0000
0000
,
0001
1000
0100
0010
0001
0000
1100
0000
,
0001
1000
1100
0000
1000
0001
0101
0000
,
1000
0000
0001
0000
0010
0001
0100
0000
,
1100
1010
1001
0011
,
0001
1000
0010
0100
0001
0000
0110
0000
,
1000
0001
1100
0000
0001
1000
0011
0000
,
0001
0100
1000
0100
0001
0010
0001
0000
,
1000
0001
0010
0100
1000
0010
1000
0100
,
0010
0000
1000
0010
0000
0010
0001
0000
,
0100
0000
0010
1000
0000
1000
0100
0000
,
0001
0100
0010
0000
0001
0100
1000
0000
,
0001
0010
0100
1000
0010
1000
0001
0100
,
0010
0000
1000
0100
0000
0100
0001
0000
,
0010
0000
1000
0010
0000
0010
0100
0001
,
0010
0100
0010
0100
1000
0001
0100
0010
,
0100
0001
0100
0010
1000
0100
0010
0000
,
0110
0000
0000
1001
0000
0000
1010
0000
,
0100
0000
0001
0010
0000
0010
0100
0000
,
1000
0000
0000
0000
0010
0000
0100
0000
0010
0100
0010
0000
0100
0000
0000
0000
,
0001
0000
1000
0001
0000
1000
0010
0000
,
1000
0001
1000
0000
0100
0100
0100
0100
,
1000
0010
0010
0100
0000
0001
1000
0000
,
0001
0011
1000
1010
,
0100
0000
0000
0000
0001
0000
0000
0000
1000
0010
1000
0010
1000
0000
0000
0000
,
0001
0000
0000
0010
0000
0000
0100
0000
1000
0000
0000
0000
0010
0000
0000
0000
,
1000
0000
0001
0100
0010
0000
1000
0000
,
0100
0000
0000
1000
0000
0000
0001
0000
0010
0000
0000
0000
0001
0000
0000
0000
,
1000
0000
0000
0000
0010
0001
0010
0000
0100
0000
0000
0000
0001
0000
0000
0000
,
1000
0000
0000
0010
0000
0000
0100
0000
0010
0000
0000
0000
1000
0000
0000
0000
,
0001
0000
0010
0001
0100
0000
0010
0000
,
1000
0000
0000
0100
0000
0000
0010
0000
1000
0000
0000
0000
0001
0000
0000
0000
,
1100
0100
1000
0000
0101
0100
0001
0000
,
1001
0000
0000
0000
,
0010
0000
1000
0110
0000
0001
0110
0000
,
1001
0000
0000
0000
;

//---------------dance-single - ----------------
#NOTES:
     dance-single:
     :
     Challenge:
     14:
     :
0000
0000
0000
0000
,
0000
0000
0000
0000
,
0000
0000
0000
0000
,
0000
0000
0000
0000
,
0010
0000
0000
0010
0000
0000
0100
0000
0002
0000
0000
0000
1003
0010
1000
0010
,
1000
0000
0000
0100
0010
0000
0001
1000
0002
0000
0000
0000
0103
0000
0010
0000
,
0101
0000
0000
1000
0000
0010
0000
1000
0002
0000
0000
0000
0013
0100
0010
0100
,
0020
0000
0031
0100
1000
0010
0100
0001
,
1000
0000
0000
1000
0000
0000
0010
0000
0200
0000
0000
0000
0301
0010
0001
0010
,
0002
0203
0320
1030
,
1100
0000
0000
1000
0010
0000
0100
0000
0001
0000
0010
0000
1000
0000
0001
0000
,
0101
0000
0010
1000
0100
0010
0001
0100
,
0110
0000
0000
0010
1000
0000
0001
0000
1000
0000
0100
0000
0010
0000
0001
0000
,
0011
0000
0100
0001
0010
0100
1000
0001
,
1010
0000
0000
0010
0100
0000
0001
0000
0010
0000
0100
0000
1000
0000
0001
0000
,
0011
0000
1000
0001
1000
0010
0100
0001
,
1001
0000
0000
0010
0001
0000
0100
0000
1000
0000
0010
0000
1000
0000
0100
0000
,
1100
0000
0001
0010
1000
0100
1000
0001
,
0110
0000
0000
0010
0001
0000
0100
0000
0001
1000
0001
0000
0100
0010
0100
0010
,
0200
0000
0001
0000
0301
0010
0001
0010
0001
0000
0200
0000
0310
0000
1000
0000
,
0100
1000
0001
0000
0010
0000
0100
0000
1100
0000
0000
0000
1000
0010
1000
0010
,
1000
0002
0013
0110
2001
0100
0001
3100
,
1100
1100
0001
0100
0010
1000
0101
0000
,
1000
0020
1030
0002
1003
0200
0310
0001
,
0200
0000
0310
0000
1000
0000
0001
0000
0010
0000
0001
1000
0001
0000
0100
0000
,
1000
0002
0013
0200
0310
0002
1003
0010
,
2000
0000
3001
0000
0010
0000
0100
0000
1000
0000
0010
0100
0001
0000
1000
0000
,
0010
2000
3100
0020
0031
0200
0301
1000
,
0020
0000
0130
0000
0001
0000
0010
0000
0100
0000
1000
0001
1000
0001
0100
0000
,
0010
2000
3001
0020
0031
0200
0310
1000
,
2010
3001
0100
0102
0013
0100
2100
3010
,
0210
0000
0301
0000
1000
0000
1002
0000
0013
0000
1000
0000
0001
0100
0001
0100
,
0020
0000
1000
0000
1030
0000
0001
0000
2000
0000
0100
0000
3100
0010
0001
0100
,
0002
0000
0010
0000
0013
0000
0100
0000
1000
0000
0010
1000
0001
0000
0100
0000
,
0012
1003
0010
0201
0301
1000
1002
0103
,
0210
0000
0310
0000
1000
0000
1200
0000
0301
0000
0100
0000
1000
0010
1000
0010
,
0200
0000
0010
0000
0310
0000
1000
0000
0002
0000
0010
0000
0013
0100
1000
0001
,
2000
0000
0100
0000
3100
0000
0010
0000
0001
0000
0100
0000
0020
0000
1030
0001
,
2000
0000
3100
0000
0000
0000
2010
0000
3001
0000
0000
0000
0201
0000
0310
1000
,
0002
0103
0010
1010
0000
1100
0101
0001
,
0011
0000
2000
0000
3010
0000
0200
0000
0301
1000
0001
1000
0001
0000
0010
0000
,
0001
0000
0100
0000
0010
0000
1000
0000
0100
0010
0100
0010
0001
0000
1000
0000
,
0001
0010
0100
1000
0100
0010
0002
0000
0000
0000
1000
0000
1000
0000
1000
0000
,
2003
0000
0000
0000
3010
0100
0000
0000
0001
0000
0110
0000
1001
0000
0010
1000
,
0200
0000
0010
0000
0310
0000
0001
0000
2000
0000
0100
0000
3100
0010
0001
1000
,
0002
0000
0100
0000
0103
0000
0010
0000
1000
0001
1000
0001
1000
0100
0010
0001
,
0100
0000
0000
0010
1000
0000
0001
0000
1000
0000
0100
0000
0010
0000
0001
0000
,
0011
0000
0000
0000
1000
0010
1000
0000
0001
0000
0100
0000
0001
1000
0001
0000
,
1100
0000
0000
0010
1000
0000
0001
0000
0010
0000
0100
0000
1000
0000
0001
0000
,
0101
0000
0010
0000
0010
1000
0001
1000
0100
0000
0010
0000
0001
0000
0100
0000
,
1001
0000
1000
0001
0010
0000
0100
0000
1000
0000
0001
0000
1000
0000
0010
0000
,
0110
0000
0000
0000
0001
0000
0010
0000
0001
0000
0100
0000
1000
0010
1000
0100
,
1000
0000
0010
1000
0100
0000
0010
0000
0001
0000
0100
0000
0001
0000
0010
0000
,
0001
1000
0001
1000
0001
0010
0100
1000
0010
1000
0010
0000
0101
0000
0000
0000
,
2000
0000
0000
0000
3002
0000
0000
0000
0203
0000
0000
0000
0301
1000
0001
1000
,
0002
0013
0100
2000
3010
0100
0102
1003
,
2010
0001
0001
0000
0001
0000
0001
0000
,
0001
0001
0001
3001
;

//---------------dance-double - ----------------
#NOTES:
     dance-double:
     :
     Easy:
     5:
     :
00000000
00000000
00000000
00000000
,
00000000
00000000
00000000
00000000
,
00000000
00000000
00000000
00000000
,
00000000
00000000
00000000
00000000
,
00000000
00000000
00000000
00000000
,
00000000
00000000
00000000
00000000
,
01000000
00000000
10000000
00000000
,
00100000
00000000
01000000
00010000
,
01000000
00000000
00001000
00000000
,
00011000
00000000
00000000
00000000
,
00001000
00010000
00001000
00000000
,
00000100
00000000
00000001
00000000
,
00000010
00000001
00000010
00000000
,
00001000
00000000
00010000
00000000
,
00100000
01000000
00100000
00000000
,
10000000
00000000
01000000
00000000
,
00100000
00010000
00100000
00000000
,
00001000
00000000
00010000
00000000
,
00011000
00000000
00001000
00000000
,
00000100
00000000
00000001
00000001
,
00000010
00000000
00001000
00001000
,
00000010
00000200
00000000
00000000
,
00000300
00000001
00000000
00001000
,
00000000
00000100
00000000
00010000
,
00000000
00001000
00000000
01000000
,
00000000
00010000
00000000
10000000
,
01000000
00010000
00000000
00100000
,
00000000
00001000
00000000
00010000
,
00000000
00000100
00000000
00001000
,
00000000
00000001
00000000
00000100
,
00000010
00000000
00001000
00000000
,
00000001
00000000
00000100
00000100
,
00002000
00003000
00020000
00030000
,
02000000
03000000
00000000
00000000
,
00100000
00000000
00010000
00000000
,
10000000
00000000
01000000
01000000
,
00020000
00030000
00002000
00003000
,
00000200
00000300
00000000
00000000
,
00000001
00000000
00001000
00000000
,
00000100
00000000
00000010
00000100
,
00001000
00000000
00000001
00000000
,
00000100
00000000
00001000
00010000
,
00002000
00003000
00000000
00100000
,
00010000
00000000
01000000
10000000
,
00200000
00300000
00020000
00030000
,
00002000
00003000
00011000
00000000
,
00001000
00010000
00001000
00000000
,
00000010
00000000
00000001
00000000
,
00000100
00000001
00000100
00000000
,
00001000
00000000
00010000
00000000
,
01000000
00100000
01000000
00000000
,
10000000
00000000
00100000
00000000
,
01000000
00010000
01000000
00000000
,
00001000
00000000
00010000
00000000
,
00002000
00000000
00000000
00003000
,
00010000
00000000
00000000
00001000
00000000
00000000
00010000
00000000
,
00011000
00000000
00000000
00000000
;

//---------------dance-double - ----------------
#NOTES:
     dance-double:
     :
     Medium:
     8:
     :
00000000
00000000
00000000
00000000
,
00000000
00000000
00000000
00000000
,
00000000
00000000
00000000
00000000
,
00000000
00000000
00000000
00000000
,
00000000
00000000
00000000
00000000
,
00000000
00000000
00000000
00000000
,
00001000
00010000
00001000
00000000
00100000
00000000
00010000
00000000
,
01000000
00100000
01000000
00000000
10000000
00000000
00010000
00000000
,
00100000
01000000
10000000
00010000
,
00100000
00001000
00010000
00000100
,
00000010
00000000
00000001
00000010
00000100
00000000
00000001
00000000
,
00001000
00001010
00000001
00000011
,
00001000
00000000
00000010
00001000
00000100
00000000
00010000
00000000
,
00001000
00001100
00010000
01010000
,
01000000
00000000
00100000
10000000
00010000
00000000
00100000
00000000
,
01000000
00000000
01100000
00000000
01000000
00000000
11000000
10000000
,
00010000
00000000
01000000
00100000
10000000
00000000
00010000
00000000
,
00100000
00110000
00001000
00010000
,
00001000
00020000
00000000
00031000
,
00000100
00000010
00000100
00000000
00000010
00001000
00000010
00000000
,
00000100
00000001
00000010
00000100
00000110
00000000
00000010
00000001
,
00001000
00000000
00000001
00000000
00001000
00000010
00000100
00000000
,
00000001
00000100
00001000
00011000
,
00010000
01000000
10000000
11000000
,
00100000
01100000
00010000
00110000
,
00010000
01100000
10010000
11000000
,
10000000
11000000
00010000
00011000
,
00001000
00000100
00000001
00000101
,
00000100
00000110
00000010
00001010
,
00001000
00000100
00000110
00000000
00001100
00000000
00011000
00000000
,
00001000
00000000
00000000
01000000
00000000
00000000
00100000
00000000
,
00010000
00000000
00000000
10000000
00000000
00000000
00100000
00000000
,
01000000
00010000
00100000
01000000
,
10020000
00000000
00000000
00000000
00000000
00100000
00130000
00000000
,
00001000
00000000
00000000
00010000
00000000
00000000
00000100
00000000
,
00000010
00000000
00000000
00001000
00000000
00000000
00000001
00000000
,
00001000
00000100
00000010
00000001
,
00001000
00000000
00000010
00000100
00000000
00000100
00000010
00000000
,
00001000
00000000
00000000
00000100
00000000
00000000
00010000
00000000
,
00001000
00000000
00000000
00000100
00000000
00000000
00000010
00000000
,
00010000
00000000
00000000
00001000
00000000
00000000
00100000
00000000
,
00010000
00000000
00000000
01000000
00000000
00000000
10000000
00000000
,
00100000
01000000
20000000
00000000
,
30100000
02000000
00000000
03010000
00100000
00010000
00100000
00000000
,
00001000
00010000
00000100
00000010
,
00000001
00000000
00001000
00000000
00000001
00000010
00000001
00000100
,
00000010
00000000
00001000
00000010
00000100
00000000
00000001
00000000
,
00000100
00001000
00000010
00010000
,
00001000
00000000
00100000
00010000
01000000
00000000
00100000
00000000
,
10000000
10010000
00010000
00110000
,
01000000
00000000
00100000
01000000
00010000
00000000
00100000
00000000
,
00001000
00011000
00001000
00001100
,
00000010
00000000
00000001
00000100
00000010
00000000
00000001
00000000
,
00001000
00000110
00000010
00011000
,
00002000
00000000
00003000
00000000
,
00001000
00010000
00001000
00000200
00000000
00000000
00000310
00000000
,
00000100
00000000
00000000
00000000
;

//---------------dance-double - ----------------
#NOTES:
     dance-double:
     :
     Hard:
     11:
     :
00000000
00000000
00000000
00000000
,
00000000
00000000
00000000
00000000
,
00000000
00000000
00000000
00000000
,
00000000
00000000
00000000
00000000
,
00000000
00000000
00000000
00000000
,
00000000
00000000
00000000
00000000
,
10000000
00100000
01000000
00100000
00010000
00000000
00001000
00000000
,
00010000
00000000
00001000
00000010
00000100
00000010
00000001
00000000
,
00001000
00000000
00000000
00000000
00000010
00000000
00000100
00000000
00000000
00000000
00000100
00000000
00000010
00001000
00000010
00001000
,
00000001
00000000
00000000
00000000
00000101
00000000
00000000
00000000
00001100
00000000
00000000
00000000
00000100
00001000
00000100
00001000
,
00000001
00000000
00000000
00000010
00000000
00000000
00001000
00000000
00000010
00000000
00000100
00000000
00001000
00000000
00000000
00000000
,
00000010
00000000
00010000
00001000
00000100
00000000
00001000
00000000
,
00010000
00000000
00000000
00100000
00000000
00000000
10000000
00000000
00100000
00000000
01000000
00000000
00010000
00000000
00000000
00000000
,
00100000
00000000
00001000
00010000
01000000
00000000
00100000
00000000
,
00010000
00000000
00000000
01000000
00000000
00000000
00001000
00000000
00010000
00000000
00000100
00000000
00001000
00000000
00000000
00000000
,
00000010
00000000
00001000
00000100
00000010
00000000
00000011
00000000
,
00001000
00000000
00000000
00000010
00000000
00000000
00010000
00000000
00001000
00000000
00100000
00000000
00010000
00000000
00000000
00000000
,
01000000
00000000
00010000
00100000
01000000
00000000
11000000
00000000
,
00010000
00000000
00010000
01000000
10100000
00000000
00110000
00000000
,
00010000
00000000
00200000
00000000
00000000
00000000
00300000
00001000
00010000
00000000
00000000
00000000
00011000
00000000
00000000
00000000
,
00000100
00001000
00000000
00000000
00001100
00000000
00000000
00000000
00001001
00000000
00000000
00000000
00000102
00000000
00000000
00000000
,
00001003
00000100
00000000
00000100
00000200
00000000
00000000
00000000
,
00001300
00000000
00000010
00000000
00000100
00000000
00000000
00000001
00000100
00000000
00000010
00000000
00001000
00000000
00000000
00000001
,
00000100
00000010
00000000
00001000
00000000
00000100
00000000
00010000
,
00001000
00000000
00100000
00000000
00010000
00000000
00000000
10000000
01000000
00000000
00100000
00000000
00010000
00000000
00000000
10000000
,
01000000
00100000
00000000
00010000
00000000
01000000
00000000
00001000
,
00010000
00000000
00000100
00000000
00001000
00000000
00000000
00000010
00001000
00000000
00000100
00000000
00000010
00000000
00000000
00000001
,
00000100
00000010
00000000
00001000
00000000
00000100
00000000
00010000
,
00001000
00000000
01000000
00000000
00010000
00000000
00000000
00100000
00010000
00000000
01000000
00000000
00100000
00000000
00000000
10000000
,
01000000
00100000
00000000
00110000
00000000
10010000
00000000
11000000
,
10000000
00000000
00100000
00010000
00000000
00100000
01000000
00010000
,
00100000
00000000
00001000
00100000
00000000
00010000
01000000
00100000
,
01100000
00000000
00011000
00000000
,
00000220
00000000
00000330
00000010
,
00000001
00000000
00000100
00001000
00000000
00000100
00000010
00001000
,
00000100
00000000
00010000
00000100
00000000
00001000
00000010
00000100
,
00000001
00000001
00000001
00000000
00000100
00000100
00000100
00000000
,
00001000
00010000
00001000
00100000
00100000
00100000
01000000
00000000
,
10010000
00000000
00000000
00000000
00000000
00000000
11000000
00000000
00000000
00000000
00000000
00000000
10100000
00000000
00000000
10000000
,
01000000
00100000
01000000
10000000
00000000
00010000
10000000
00000000
,
01000000
00010000
00001000
00000200
00000000
00000000
00001300
00000000
,
00010000
01000000
00010000
00001000
00000000
00000100
00000001
00000000
,
00000020
00000000
00000000
00000031
00001000
00001000
00001000
00001000
,
00001010
00000000
00000101
00000000
00000000
00000001
00001000
00000000
,
00000110
00000000
00011000
00000000
,
01100000
00000000
00000000
00000000
01000000
00000000
00000000
00000000
00010000
10000000
00010000
10000000
00010000
01000000
00000000
00000000
,
01100000
00000000
00000000
00100000
00000000
00000000
00010000
00000000
00100000
00000000
01000000
00000000
00010000
00000000
00000000
00000000
,
01000000
00000000
00001000
00010000
01000000
00000000
00010000
00000000
,
00001000
00000000
00000000
00000100
00000000
00000000
00000001
00000000
00000100
00000000
00000010
00000000
00001000
00000000
00000000
00000000
,
00000100
00000000
00000000
00000000
00010000
00001000
00010000
00001000
00010000
00000000
00000000
00000000
00011000
00000000
00000000
00000000
,
00100000
00000000
00000000
00010000
00000000
00000000
01000000
00000000
00100000
00000000
10000000
00000000
00010000
00000000
00000000
00000000
,
01000000
00000000
00001000
00010000
00100000
00000000
00010000
00000000
,
00001000
00000000
00000000
00000010
00000000
00000000
00000001
00000000
00001000
00000000
00000100
00000000
00000010
00000000
00000000
00000000
,
00000100
00000000
00010000
00001000
00000100
00000000
00001000
00000000
,
00012000
00000000
00000000
00000000
00010000
00000000
00000000
00000000
00010000
00000000
00000000
00000000
00013000
00001000
00010000
00001000
,
00100000
00000000
00000000
11000000
00000000
00000000
01010000
00000000
,
10010000
00000000
00000000
00000000
;
