#TITLE:Unity;
#SUBTITLE:;
#ARTIST:The Remembers;
#TITLETRANSLIT:;
#SUBTITLETRANSLIT:;
#ARTISTTRANSLIT:;
#GENRE:;
#CREDIT:;
#BANNER:Unity.png;
#BACKGROUND:Unity-bg.png;
#LYRICSPATH:;
#CDTITLE:;
#MUSIC:Unity.ogg;
#OFFSET:0.000000;
#SAMPLESTART:5.966000;
#SAMPLELENGTH:20.000000;
#SELECTABLE:YES;
#BPMS:0.000000=120.000000
;
#STOPS:
;
#BGCHANGES:;
#KEYSOUNDS:;
#ATTACKS:;

//---------------dance-single - ----------------
#NOTES:
     dance-single:
     :
     Beginner:
     3:
     0.135521,0.211312,0.113838,0.000000,0.000000,100.000000,88.000000,12.000000,0.000000,0.000000,0.000000,0.135521,0.211312,0.113838,0.000000,0.000000,100.000000,88.000000,12.000000,0.000000,0.000000,0.000000:
0000
0000
0000
0000
,
0000
0000
0000
0000
,
0000
0000
0000
0000
,
0000
0001
0000
0001
,
0000
1000
1000
1000
,
0000
1000
0000
1000
,
0000
0000
0010
0010
,
0000
1000
0000
1000
,
0000
0001
0001
0001
,
0000
1000
0000
1000
,
0000
0000
1001
0000
,
0001
0000
0001
0000
,
0010
0000
0000
0000
,
0010
0000
0100
0000
,
0001
0000
1000
0000
,
1000
0000
1000
0000
,
0100
0000
0000
0000
,
0100
0000
0010
0000
,
1000
0000
0001
0000
,
0001
0000
0001
0000
,
0100
0000
0000
0000
,
0100
0000
0010
0000
,
0001
0000
1000
0000
,
1000
0000
1000
0000
,
0010
0000
0000
0000
,
0010
0000
0100
0000
,
1000
0000
0001
0000
,
0100
0000
0010
0000
,
1001
0000
0000
0000
,
0110
0000
0000
0000
,
1000
0000
0010
0010
,
0010
0000
0100
0000
,
1001
0000
0000
0000
,
0110
0000
0000
0000
,
0001
0000
0100
0100
,
0100
0000
0010
0000
,
1001
0000
0000
0000
,
0110
0000
0000
0000
,
0001
0000
1000
0000
,
0001
0000
0000
0000
,
0100
0000
1001
0000
,
0000
0001
0000
0001
,
0000
1000
1000
1000
,
0000
1000
0000
1000
,
0000
0000
0010
0010
,
0000
1000
0000
1000
,
0000
0001
0001
0001
,
0000
0001
0000
0001
,
0000
0110
0000
1001
,
0000
0110
1001
0000
;

//---------------dance-single - ----------------
#NOTES:
     dance-single:
     :
     Easy:
     4:
     0.157205,0.258270,0.094865,0.066405,0.000000,116.000000,106.000000,10.000000,7.000000,0.000000,0.000000,0.157205,0.258270,0.094865,0.066405,0.000000,116.000000,106.000000,10.000000,7.000000,0.000000,0.000000:
0000
0000
0000
0000
,
0000
0000
0000
0000
,
0000
0000
0000
0000
,
0000
0001
0000
0010
,
0000
0100
0100
0100
,
0000
1000
0000
0010
,
0000
0000
0001
1000
,
0000
0001
0000
0010
,
0000
0100
0100
0100
,
0000
1000
0000
0010
,
0100
0000
1001
0000
,
0001
0000
0010
0100
,
0001
0000
0000
0000
,
0100
0000
1000
0000
,
0000
0001
0000
1001
,
1000
0000
0100
0010
,
1000
0000
0000
0000
,
0010
0000
0001
0000
,
0000
1000
0000
1001
,
0001
0000
1000
0100
,
0001
0000
0001
0000
,
1000
0000
1000
0000
,
0000
0001
0000
1001
,
1000
0000
0001
0100
,
1000
0000
1000
0000
,
0001
0000
0001
0000
,
0000
1000
0000
1001
,
0001
0000
0010
0000
,
1000
0100
0010
0001
,
0002
0000
0003
0000
,
0000
0000
0001
0001
,
1000
0000
0100
0000
,
0001
0010
0100
1000
,
2000
0000
3000
0000
,
0000
0000
1000
1000
,
0010
0000
0001
0000
,
0010
1000
0100
0001
,
0020
0000
0030
0000
,
0000
0000
0010
0010
,
0220
0000
0330
0000
,
0100
0010
1001
0000
,
0000
0001
0000
0010
,
0000
0100
0100
0100
,
0000
1000
0000
0010
,
0000
0000
0001
1000
,
0000
1000
0000
0100
,
0000
0010
0010
0010
,
0000
0001
0000
0100
,
0002
1003
2000
3001
,
0110
0110
1001
0000
;

//---------------dance-single - ----------------
#NOTES:
     dance-single:
     :
     Medium:
     8:
     0.344224,0.351741,0.341514,0.047432,0.004743,254.000000,218.000000,36.000000,5.000000,0.000000,0.000000,0.344224,0.351741,0.341514,0.047432,0.004743,254.000000,218.000000,36.000000,5.000000,0.000000,0.000000:
0000
0000
0000
0000
,
0000
0000
0000
0000
,
0000
0000
0000
0000
,
0010
0000
0001
0000
1000
0100
0010
0000
,
1000
1010
0100
0001
,
0100
0000
0000
0000
0001
0100
0010
0000
,
1000
0100
0001
1100
,
0010
0000
0001
0000
1000
0100
0010
0000
,
0001
0011
0100
1000
,
0100
0000
0000
0000
0001
0100
0010
0000
,
1000
0001
1000
0001
1000
0000
0000
0000
,
0001
1000
0000
0001
1000
0000
0110
0000
,
0001
0010
1100
0010
,
0100
0011
1000
0100
,
0010
1000
0001
0000
0010
0000
0110
0000
,
1000
0001
0000
1000
0001
0000
0110
0000
,
1000
0100
0011
0100
,
0010
0001
1000
0000
0001
0100
0010
0000
,
0001
0100
1000
0000
0100
0000
0110
0000
,
1000
0001
0000
1000
0001
0000
0110
0000
,
1000
0011
0100
0011
,
0100
1010
0001
1100
,
0010
0001
1000
0000
0010
0000
0110
0000
,
0001
1000
0000
0001
1000
0000
0110
0000
,
0001
0010
1100
0010
,
0100
1000
0001
0000
1000
0010
0100
0000
,
1000
0001
0010
0000
0100
0000
0110
0000
,
0001
0000
1000
0000
0010
0100
0001
0000
,
1000
0010
0100
0000
0010
0100
1000
0000
,
0001
2000
3000
1100
,
0100
0000
1000
0000
0100
0001
0010
0000
,
0001
0000
1000
0000
0100
0010
0001
1000
,
0000
0001
0000
1100
0000
0110
0000
0011
,
1000
0002
0003
0011
,
0010
0100
0001
0000
0001
0100
0010
0000
,
1000
0000
0001
0000
0010
0100
1000
0001
,
0000
1000
0000
0011
0000
0110
0000
1100
,
0001
2000
3000
1100
,
0100
0000
0001
0000
0100
1000
0010
0000
,
1001
0100
1001
0100
,
0010
0100
0010
1000
0001
0000
0110
0000
,
0010
0000
0001
0000
1000
0100
0010
0000
,
1000
1010
0100
0001
,
0100
0000
0000
0000
0001
0100
0010
0000
,
1000
0100
0001
1000
,
0010
0000
0001
0000
1000
0100
0010
0000
,
0001
0011
0100
1000
,
1000
0010
0100
0000
0001
0100
0010
2000
,
0000
3100
0100
0002
0000
0013
0010
0000
,
1100
0000
0000
0000
0011
0000
0000
1001
0000
0000
0000
0000
0000
0000
0000
0000
;

//---------------dance-single - ----------------
#NOTES:
     dance-single:
     :
     Hard:
     10:
     0.433668,0.468989,0.588163,0.104351,0.004743,320.000000,258.000000,62.000000,11.000000,0.000000,0.000000,0.433668,0.468989,0.588163,0.104351,0.004743,320.000000,258.000000,62.000000,11.000000,0.000000,0.000000:
0000
0000
0000
0000
,
0000
0000
0000
0000
,
0000
0000
0000
0000
,
1000
0100
0010
0000
0101
0000
0010
0100
,
1000
0011
0100
1100
,
1000
0100
0010
0000
0101
0000
0010
0100
,
0001
0000
0100
0000
0001
0010
0100
1000
,
0001
0100
0010
0000
1100
0000
0010
0100
,
0001
1010
0100
0101
,
0001
0100
0010
0000
1100
0000
0010
0100
,
0001
0010
0011
0110
1001
0000
0000
0000
,
1000
0100
0000
0010
0100
0000
0001
0010
,
0001
0000
0101
0000
0010
0001
1000
0000
,
0001
0100
0000
0010
1000
0000
0010
0200
,
0000
0310
1010
0000
0001
0100
0101
0000
,
1000
0100
0000
0010
0100
0000
0001
0010
,
0001
0000
0101
0000
0010
0001
1000
0000
,
0001
0100
0000
0010
1000
0000
0010
0100
,
0001
0000
0011
0000
1000
0010
1100
0000
,
0001
0100
0001
0010
0100
0010
1000
0010
,
1000
1100
0001
0011
,
1000
0100
0100
0010
0001
0010
0010
0200
,
0000
0310
0011
0000
1000
0100
1100
0000
,
1000
0100
1000
0010
0100
0010
0001
0010
,
1000
1100
0001
0011
,
1000
0010
0010
0100
0001
0100
0100
0010
,
1000
0000
1010
0000
0001
0010
0101
0000
,
2010
0000
3100
0000
0010
0100
1000
0000
,
0100
0010
0001
0000
0010
0100
0101
0000
,
1020
0000
0031
1100
,
0010
0001
0100
0010
1000
0100
0010
0001
,
0012
0000
0103
0000
0010
0100
0001
0100
,
0000
1010
0000
0110
0000
0011
0000
0101
,
0021
0000
1030
0101
,
0010
1000
0100
0010
0001
0100
0010
1000
,
2010
0000
3100
0000
0010
0100
1000
0100
,
0000
0011
0000
0110
0000
1010
0000
1100
,
1020
0000
0031
1100
,
0010
0001
0110
0010
1000
0100
0110
0010
,
0200
0000
0001
1300
,
0011
1100
0110
1010
0101
0000
1001
0000
,
1000
0100
0010
0000
0101
0000
0010
0100
,
1000
0011
0100
1100
,
1000
0100
0010
0000
0101
0000
0010
0100
,
0001
0000
0100
0000
0001
0010
0100
1000
,
0001
0100
0010
0000
1100
0000
0010
0100
,
0001
1010
0100
0101
,
0001
0100
0010
1000
1100
0001
0010
2000
,
0000
0100
3010
0002
0000
0100
0013
0000
,
1010
0000
0000
0000
0101
0000
0000
1001
0000
0000
0000
0000
0000
0000
0000
0000
;

//---------------dance-single - ----------------
#NOTES:
     dance-single:
     :
     Challenge:
     14:
     0.691159,0.670695,0.683028,0.834812,0.573933,510.000000,438.000000,72.000000,88.000000,0.000000,0.000000,0.691159,0.670695,0.683028,0.834812,0.573933,510.000000,438.000000,72.000000,88.000000,0.000000,0.000000:
// measure 0
0000
0000
0000
0000
,  // measure 1
0000
0000
0000
0000
,  // measure 2
0000
0000
0000
0000
,  // measure 3
1010
0000
1000
0000
0001
0100
0000
0020
0000
0000
1000
0000
2030
0001
0000
0000
,  // measure 4
3100
0000
1000
0001
2000
0001
0000
0000
3020
1000
0000
0000
0230
0000
0310
0000
,  // measure 5
0101
0000
0001
0000
1000
0010
0000
0200
0000
0000
0001
0000
0302
1000
0000
0000
,  // measure 6
0013
0000
0011
0000
1000
0001
0000
0100
0010
1000
0010
0000
1000
0001
0100
0000
,  // measure 7
0110
0000
1000
0000
0100
0010
0000
0002
0000
0000
0100
0000
0203
0010
0000
0000
,  // measure 8
0301
0000
0010
0100
2000
0100
0000
0000
3020
0001
0000
0000
0230
0000
1300
0000
,  // measure 9
1001
0000
0010
0000
0100
0001
0000
2000
0000
0000
0100
0000
3200
0010
0000
0300
,  // measure 10
1100
0000
0110
0000
0011
0000
0101
0000
1001
0000
1000
0001
0010
0100
0020
0000
,  // measure 11
0031
0000
0100
0000
0010
1000
0002
0000
0000
2003
0000
0000
3010
0100
0001
0000
,  // measure 12
2000
0000
0010
0000
3010
0100
0000
0100
0001
0000
0010
0000
0100
0000
2100
0000
,  // measure 13
3001
0000
0201
0000
0310
1000
0000
1000
0200
0000
0320
0000
0031
0000
0012
0000
,  // measure 14
1003
0000
0001
0000
0002
0200
0303
0000
0110
0000
1001
0000
1000
0100
0020
0000
,  // measure 15
0031
0000
1000
0000
0010
0100
0010
0100
0001
1000
0000
0001
0100
0000
0010
0000
,  // measure 16
1000
0001
1000
0000
0010
0000
0100
0000
1000
0010
0100
0010
1000
0000
0001
0000
,  // measure 17
0011
0000
0010
0100
0000
0100
1000
0000
0001
0000
0100
0010
1000
0001
1000
0000
,  // measure 18
0010
0000
1001
0000
0010
1000
0000
1000
0001
0000
0110
0000
0001
0100
0010
0000
,  // measure 19
2010
0000
0000
0000
3001
0000
0100
0000
0010
0000
1000
0001
0000
1000
0100
0000
,  // measure 20
0020
0001
0000
0031
0100
0000
0010
0000
2000
0100
0000
3100
0010
0000
0110
0000
,  // measure 21
1001
0000
0100
0000
0010
1000
0010
1000
0002
0000
0023
0000
0130
0000
2100
0000
,  // measure 22
3001
0000
0100
0000
0100
0010
1000
0000
0101
0000
1100
0000
0010
0100
0001
0000
,  // measure 23
0011
0000
0100
0000
0010
0000
2000
0000
3001
0020
0000
0031
0100
0000
0010
0000
,  // measure 24
2000
0000
0001
0000
3200
0010
0000
0310
0100
0000
1000
0002
0100
0000
0013
0000
,  // measure 25
1001
0000
0100
0000
0001
0010
0100
0010
0001
0000
1010
0000
2100
0000
3002
0000
,  // measure 26
1003
0000
0110
0000
0001
1000
0000
0001
0010
0100
1000
0000
0020
0100
0000
0030
,  // measure 27
2010
3001
0102
0103
2001
3010
0200
0302
,  // measure 28
1003
0000
0201
0000
0310
1000
0000
0002
0000
0013
0100
0000
1001
0000
0010
0000
,  // measure 29
1000
0001
1000
0000
0002
0100
0000
0000
0013
0000
0000
0000
2000
0100
0000
0000
,  // measure 30
3010
0000
1000
0000
1100
0000
0001
0000
0100
0000
0010
1000
0000
1000
0002
0000
,  // measure 31
0023
0000
0100
0000
0130
1000
0000
0001
1000
0000
1100
0000
0110
0000
0012
0000
,  // measure 32
1003
1020
0130
0210
0301
1002
1003
2100
,  // measure 33
3001
0200
0320
2030
3100
2000
3002
0103
,  // measure 34
2010
0000
0001
0000
0100
0000
3100
0000
1000
0010
0100
0001
0010
0000
1002
0000
,  // measure 35
0103
0000
0010
1000
0010
1000
0001
0000
0011
0000
0010
0100
0000
0100
1000
0000
,  // measure 36
0001
2010
3100
0012
1003
0201
0310
1001
,  // measure 37
0210
0000
0001
0000
0301
1000
0100
0010
0001
0000
0101
0000
1000
0001
0010
0000
,  // measure 38
0002
0100
0203
0010
0320
1000
2030
0001
,  // measure 39
3002
0000
0000
0000
0103
0000
0010
1000
0000
0001
0010
0000
0010
0100
1000
0000
,  // measure 40
1010
0000
0110
0000
0101
0000
0110
0000
1010
0000
0001
1000
0001
0010
0100
1000
,  // measure 41
0010
0000
1000
0001
1000
0010
0000
0200
0000
0000
0001
0000
0301
1000
0100
0000
,  // measure 42
2100
0000
3002
0000
0023
0001
0000
0000
0230
0010
0000
0000
1300
0001
0100
0000
,  // measure 43
1001
0000
0010
0000
1000
0001
0000
0200
0010
0000
0001
0000
0301
1000
0100
0000
,  // measure 44
0011
0000
0100
0000
0001
1000
0000
1000
0010
0100
0002
0000
0013
0100
2000
0000
,  // measure 45
3010
0000
1010
0000
0001
1000
0001
0200
0000
0000
0010
0000
0310
1000
0001
0000
,  // measure 46
0101
1010
0002
0100
0023
1000
0032
0100
,  // measure 47
2003
0000
3001
0000
1001
0000
0101
0000
0011
0000
0010
0100
1000
0010
0200
0000
,  // measure 48
0300
0000
0110
0000
1001
0000
0010
2000
0000
3000
1100
0000
0101
0000
0010
0000
,  // measure 49
1001
0000
0000
0000
0000
0000
0000
0000
0000
0000
0000
0000
1100
0000
0000
0000
0000
0000
0000
0000
0000
0011
0000
0000
0000
0000
0000
0000
0000
0000
0000
0000
0100
0000
0000
0000
0010
0000
0000
0000
1000
0000
0000
0000
0001
0000
0000
0000
,  // measure 50
1000
0020
0000
0000
0000
0000
0030
0000
0000
0000
0000
0000
;
