#TITLE:Unicorn tail;
#SUBTITLE:;
#ARTIST:DJ YOSHITAKA;
#TITLETRANSLIT:;
#SUBTITLETRANSLIT:;
#ARTISTTRANSLIT:;
#GENRE:;
#CREDIT:;
#BANNER:Unicorn tail-bn.png;
#BACKGROUND:Unicorn tail-bg.png;
#LYRICSPATH:;
#CDTITLE:;
#MUSIC:Unicorn tail.ogg;
#OFFSET:0.000000;
#SAMPLESTART:59.293999;
#SAMPLELENGTH:20.000000;
#SELECTABLE:YES;
#DISPLAYBPM:43.000000:680.000000;
#BPMS:0.000000=170.000000
,61.000000=42.500000
,68.750000=170.000000
,116.750000=680.000000
,124.750000=170.000000
,247.500000=85.000000
,248.500000=170.000000
,263.000000=680.000000
,271.000000=170.000000
,335.000000=85.000000
;
#STOPS:28.000000=1.059000,
61.000000=2.471000,
139.750000=0.264000,
203.000000=0.177000,
248.500000=0.529000
;
#BGCHANGES:;
#KEYSOUNDS:;
#ATTACKS:;

//---------------dance-single - ----------------
#NOTES:
     dance-single:
     :
     Hard:
     13:
     0.528986,1.118478,0.311594,0.246377,0.547101,511.000000,468.000000,43.000000,34.000000,0.000000,0.000000,0.528986,1.118478,0.311594,0.246377,0.547101,511.000000,468.000000,43.000000,34.000000,0.000000,0.000000:
0000
0000
0000
0000
,
0000
0000
0000
0000
,
0000
0000
0000
0000
,
0000
0000
0000
0000
,
0020
0100
0000
0001
0000
0100
0000
1000
,
0030
0010
0000
0100
0000
0001
0000
1000
,
0020
0001
0000
1000
0000
0001
0000
0100
,
0130
0000
0000
0000
0010
0000
0000
1000
0100
0000
0000
0000
0010
0000
0000
0001
,
0100
0000
0000
0000
0001
0000
0000
0010
0100
0000
1000
0000
0010
0000
0100
0000
,
0100
0000
0000
0000
0001
0000
0000
1000
0100
0000
0000
0000
1000
0000
0000
0001
,
0010
0000
0000
0000
1000
0000
0000
0001
1000
0000
0100
0000
0010
0000
0001
0000
,
0001
0000
0000
0000
0010
0000
0000
0001
1000
0000
0000
0000
0001
0000
0100
0000
,
1000
0000
0000
0000
0010
0000
0000
1000
0100
0000
0000
0000
0010
0000
0001
0000
,
0100
0000
0000
0000
1001
0000
0000
0000
0010
1000
0010
1000
0010
1000
0010
0000
,
0100
0010
0100
0010
0000
0000
1000
0000
0000
0000
0100
0000
0000
0000
0010
0000
,
0000
0000
0000
0000
0001
0000
0000
0000
1001
0000
0010
0000
0100
0000
0001
0000
0000
1000
0000
0100
0000
0010
0000
0001
1000
0000
0100
0000
1000
0000
0001
0000
,
0000
0010
0000
0001
0000
0100
0000
0010
1000
0000
0001
0000
0100
0000
1000
0000
0000
0010
0000
0100
0000
0010
0000
1000
0000
0001
1000
0000
0010
0100
0010
0000
,
1000
0001
0000
0001
0000
0100
0001
0000
1000
0000
0001
0000
1000
0000
0001
0000
0000
0000
0000
0000
0000
0000
0020
0000
0000
0000
0000
0000
0000
0000
0230
0000
,
0000
0000
0000
0302
0000
0000
0000
1003
0000
2000
0000
0000
0000
3200
0000
0000
,
0000
0320
0000
0000
0000
0031
0000
1000
0000
0001
0000
0200
0000
0000
0000
0320
,
0000
0000
0000
2030
0000
0000
0000
3001
0000
0002
0000
0000
0000
0203
0000
0000
,
0000
0320
0000
0000
0000
1030
0000
0001
0000
0100
0000
0002
0000
0000
0000
2003
,
0000
0000
0000
3200
0000
0000
0000
0310
0000
0020
0000
0000
0000
0032
0000
0000
,
0000
0203
0000
0000
0000
0320
0000
0000
0000
1030
0000
1010
0000
0000
0000
0010
,
0000
0100
0000
0101
0000
0000
0000
0001
0000
0020
0000
0000
0000
0032
0000
0000
,
0000
0203
0000
0000
0000
0320
0000
0000
0000
1030
0000
1010
0000
0000
0000
0110
,
0000
0000
0000
0101
0000
0000
0000
0010
0000
0010
0000
0000
0000
1100
0000
0000
,
0000
0101
0000
0000
0000
0001
0000
0100
0000
0010
0000
0110
0000
0000
0000
1001
,
0000
0000
0000
1100
0000
0000
0000
0001
0000
0001
0000
1000
0100
1000
0000
0010
,
0000
0010
0000
2002
0000
0000
0000
0000
0000
0000
0000
0000
0000
0000
0000
0000
,
0000
0000
0000
0000
0000
0000
0000
0000
0000
0000
0000
0000
0000
0000
0000
3003
,
0000
0000
0000
0010
0000
0100
0000
0010
0000
0100
0000
0010
0000
0100
0000
0010
,
0000
0100
0000
0001
0000
1000
0000
0001
0000
1000
0000
0001
0000
1000
0000
0001
,
0000
1000
0000
0001
0000
0010
0000
0100
0000
1000
0000
0010
0000
0100
0000
0001
,
0000
1000
0000
0010
0000
0010
0000
0100
0000
0100
0000
0001
1000
0001
1000
0001
,
0100
0010
0000
0000
0010
1000
0000
0000
1000
0000
0100
0000
0010
0000
0001
0000
,
0000
0100
0001
0100
0000
0010
1000
0010
,
1000
0100
0000
0000
1000
0001
0000
0000
0100
0000
0001
0000
0010
0000
0100
0000
,
0000
0100
1000
0100
0000
0010
0001
0010
,
0001
1000
0000
0000
0100
1000
0000
0000
0010
0000
0100
0000
0001
0000
1000
0000
,
0000
0100
0010
0100
0000
1000
0001
1000
,
0010
0100
0000
0000
0010
0000
1000
0000
0100
0010
0000
0000
0001
0000
0100
0000
,
0010
1000
0010
0200
0000
0302
0000
1003
,
0100
1000
0000
0000
1000
0001
0000
0000
1000
0000
0100
0000
0010
0000
0001
0000
,
0000
1000
0100
0001
0000
0001
0100
1000
,
0010
0100
0000
0000
0010
1000
0000
0000
0001
0000
0010
0000
0100
0000
1000
0000
,
0000
0001
0010
1000
0000
1000
0010
0001
,
0100
0010
0000
0000
1000
0001
0000
0000
1000
0000
0001
0000
0010
0000
0100
0000
,
0000
1000
0010
0100
0000
0100
0010
1000
,
0001
1000
0000
0000
1000
0000
0010
0000
0100
0010
0000
0000
0100
0000
0001
0000
,
1000
0000
0100
0000
0010
0000
0001
0000
0100
0010
0100
0010
0100
0000
0010
0000
,
0000
0100
0000
0001
1000
0001
0000
1000
,
0000
0100
0000
0010
0001
0010
0000
0001
,
0000
0100
0000
0010
1000
0010
0000
1000
,
0000
0001
0000
0100
0010
0100
0000
0001
,
0000
0010
0000
0100
1000
0001
0000
1000
,
0000
0010
0000
0100
0001
1000
0000
0010
,
0000
0100
0000
0010
1000
0001
0000
1000
,
0000
0100
0000
1000
0001
0010
0000
1000
,
0000
0101
0000
0001
0010
0100
0000
0010
,
0000
1001
0000
0100
0001
1000
0000
0100
,
0000
0011
0000
0010
0001
1000
0000
0002
,
0100
1003
1010
0000
1001
0000
1000
0001
,
0010
0000
0101
0000
1001
0000
0001
1000
,
0100
0000
0110
0000
1001
0000
0010
0100
,
1000
0001
1000
2002
,
0000
0000
0000
0000
,
0000
0000
3003
0010
,
0100
0000
0001
0000
0000
1000
0000
0100
,
0000
0010
0000
0001
1000
0000
0010
0000
,
1000
0000
0100
0000
0000
0010
0000
0001
,
0000
0100
0000
0001
1000
0000
0100
0000
,
1000
0000
0001
0000
0000
0100
0000
0010
,
0000
1000
0000
0001
0000
0010
0001
0000
,
1000
0100
1000
0000
0001
0100
0000
0010
,
0000
0100
0000
0010
0000
1000
0101
0000
,
0110
0000
1010
0000
0100
0100
0000
1100
,
0000
1001
0000
0100
0001
1000
1100
0000
,
0011
0000
0101
0000
0010
0010
0000
1001
,
0000
0110
0000
0010
1000
0001
0011
0000
,
0110
0000
1100
0000
1000
1000
0000
1100
,
0000
0011
0000
0110
0000
0100
1000
0000
,
1000
0001
0100
0000
0010
0110
0000
0101
,
0000
0000
1001
0000
1000
0100
1000
0100
1000
0000
0000
0000
2002
0000
0000
0000
,
0000
0000
0000
0000
,
0000
0000
0000
3003
;

//---------------dance-single - ----------------
#NOTES:
     dance-single:
     :
     Medium:
     10:
     0.432712,0.838859,0.297101,0.275362,0.387681,418.000000,377.000000,41.000000,38.000000,0.000000,0.000000,0.432712,0.838859,0.297101,0.275362,0.387681,418.000000,377.000000,41.000000,38.000000,0.000000,0.000000:
0000
0000
0000
0000
,
0000
0000
0000
0000
,
0000
0000
0000
0000
,
0000
0000
0000
0000
,
0020
0100
0000
0001
0000
1000
0000
0100
,
0130
0000
0000
0000
,
0020
0100
0000
0001
0000
1000
0000
0100
,
0130
0000
0010
0000
1001
0000
1000
0100
,
0001
0000
1000
0000
0101
0000
0001
0010
,
0100
0000
0010
0000
1100
0000
0100
1000
,
0001
0000
0010
0000
0101
0000
1000
0001
,
0100
0000
0110
0000
1001
0000
0001
0010
,
1000
0000
1100
0000
0101
0000
0010
1000
,
0100
0000
1001
0000
0010
1000
0001
1000
,
0100
0010
0100
0010
0000
0000
0001
0000
0000
0000
0010
0000
0000
0000
0100
0000
,
0000
0000
0000
0000
1000
0000
0000
0000
1001
0000
0010
0000
0100
0000
0001
0000
0000
1000
0000
0100
0000
0010
0000
0000
0000
0000
0001
0000
1000
0000
0100
0000
,
0000
1000
0000
0010
0000
0001
0000
0000
0000
0000
0100
0000
0001
0000
1000
0000
0000
0010
0000
0100
0000
0001
0000
0000
0000
0000
1000
0000
0100
0000
0010
0000
,
0000
0010
0000
0100
0000
1000
0001
0000
0000
0000
0001
0000
0000
0000
0001
0000
0000
0000
0000
0000
0000
0000
0100
0000
0000
0000
0000
0000
0000
0000
0010
0000
,
0000
0000
0000
0100
0000
0000
0000
0001
0000
0000
0000
1000
0000
0000
0000
0100
,
0000
0000
0000
0010
0000
0001
0000
0100
0000
0000
0000
0001
0000
0000
0000
1000
,
0000
0000
0000
0001
0000
0000
0000
0100
0000
0000
0000
0010
0000
0000
0000
1000
,
0000
0000
0000
0100
0000
0010
0000
0001
0000
0000
0000
1000
0000
0000
0000
0001
,
0000
0000
0000
0010
0000
0000
0000
0001
0000
0000
0000
0100
0000
0000
0000
0010
,
0000
0000
0000
1000
0000
0100
0000
0001
0000
0000
0000
1000
0000
0000
0000
0010
,
0000
0100
0000
0010
0000
0000
0000
1000
0000
0001
0000
0100
0000
0001
0000
1000
,
0000
0000
0000
0010
0000
0100
0000
0001
0000
0000
0000
1000
0000
0000
0000
0001
,
0000
0000
0000
0010
0000
0000
0000
0001
0000
0100
0000
0000
0000
0010
0000
0000
,
0000
1000
0000
0000
0000
0100
0000
1000
0000
0001
0000
1000
0000
0000
0000
0010
,
0000
0000
0000
0100
0000
0000
0000
0001
0000
0010
0000
0000
0000
0100
0000
0000
,
0000
1000
0000
2002
0000
0000
0000
0000
0000
0000
0000
0000
0000
0000
0000
0000
,
0000
0000
0000
0000
0000
0000
0000
0000
0000
0000
0000
0000
0000
0000
0000
3003
,
0000
0000
0000
0010
0000
0000
0000
0100
0000
0000
0000
0001
0000
0100
0000
0010
,
0000
0000
0000
1000
0000
0000
0000
0001
0000
0000
0000
0010
0000
0001
0000
1000
,
0000
0000
0000
0010
0000
0100
0000
0010
0000
0100
0000
0001
0000
1000
0000
0001
,
0000
1000
0000
0001
0000
1000
0000
0010
0000
0100
0000
0001
0000
1000
0000
1001
,
2000
0000
3002
0000
0023
0000
0031
0002
,
0000
0203
0000
0320
0000
1030
0100
0010
,
0002
0000
2003
0000
3200
0000
1300
2000
,
0000
3020
0000
0230
0000
0301
0100
0010
,
0200
0000
0320
0000
2030
0000
3100
0200
,
0000
0320
0000
0032
0000
2003
0000
3001
,
1000
0000
0010
0100
0010
0000
1000
0002
,
0000
2003
0000
3020
0000
0230
0000
0310
,
0100
0000
0101
0000
1100
0000
1000
0001
,
0000
0011
0000
1010
0000
1000
0001
0010
,
0001
0000
0011
0000
1100
0000
0010
0100
,
0000
0101
0000
1010
0000
1000
0100
0010
,
0001
0000
1001
0000
1100
0000
1000
0100
,
0000
0110
0000
0011
0000
0010
0000
0100
,
1000
0000
0001
0100
0001
0000
1000
0020
,
0000
0230
0000
0302
1000
1000
1003
0010
,
0000
0100
0000
0001
0000
1000
0000
0001
,
0000
0010
0000
0100
0000
1000
0000
0010
,
0000
1000
0000
0001
0000
0100
0000
0001
,
0000
0010
0000
0100
0000
1000
0000
0100
,
0000
0010
0000
0001
0000
1000
0000
0100
,
0000
1000
0000
0001
0000
0010
0000
0001
,
0000
1000
0000
0010
0000
0100
0000
0001
,
0000
0010
0000
1000
0000
0100
0000
1000
,
0000
0101
0000
0001
0000
0100
0000
0010
,
0000
1001
0000
1000
0000
0100
0000
0010
,
0000
0011
0000
0001
0000
1000
0000
0002
,
0100
1003
0010
0000
0100
0000
0001
1000
,
0001
0000
1000
0000
0100
0000
0010
0001
,
0010
0000
0001
0000
0100
0000
0010
1000
,
0010
1000
0001
2002
,
0000
0000
0000
0000
,
0000
0000
3003
0010
,
0100
0000
0001
0000
0000
1000
0000
0100
,
0000
0010
0000
0000
0000
0000
0001
0000
,
1000
0000
0100
0000
0000
1000
0000
0010
,
0000
0001
0000
0000
0000
0000
0100
0000
,
0001
0000
1000
0000
0000
0010
0000
0100
,
0000
0001
0000
0000
0000
0000
1000
0000
,
0010
0100
0001
1000
,
0100
0010
0001
0011
,
0101
0000
1000
0001
0100
0000
1010
0000
,
1001
0000
0100
0010
0001
0000
0011
0000
,
0110
0000
0100
1000
0010
0000
0101
0000
,
1010
0000
1000
0001
0100
0000
0110
0000
,
1001
0000
0100
1000
0100
0000
1010
0000
,
0101
0000
0001
0010
0001
0000
0100
0000
,
0100
0010
1000
0000
1000
0002
0000
2003
,
0000
3020
0100
0100
0130
0000
2002
0000
,
0000
0000
0000
0000
,
0000
0000
0000
3003
;

//---------------dance-single - ----------------
#NOTES:
     dance-single:
     :
     Easy:
     6:
     0.281574,0.714583,0.028986,0.050725,0.257246,272.000000,268.000000,4.000000,7.000000,0.000000,0.000000,0.281574,0.714583,0.028986,0.050725,0.257246,272.000000,268.000000,4.000000,7.000000,0.000000,0.000000:
0000
0000
0000
0000
,
0000
0000
0000
0000
,
0000
0000
0000
0000
,
0000
0000
0000
0000
,
0020
0000
0000
0000
,
0130
0000
0000
0000
,
0020
0000
0000
0000
,
0130
0010
1000
0001
,
0100
0001
0010
0100
,
1000
0100
1000
0010
,
0100
0001
1000
0001
,
0010
0001
0100
0001
,
0100
0010
1000
0010
,
1000
0100
1000
0001
,
0010
0001
0010
0100
,
1000
0000
0000
0000
1001
0010
0000
0001
0000
0100
0010
1000
0000
0100
0000
1000
,
0000
0010
0100
0001
0000
1000
0000
0001
0000
0100
0001
0010
0000
0100
1000
0001
,
0000
1000
0100
0010
0000
0000
0000
0001
0000
0000
0000
0100
0000
0000
0000
0010
,
0000
0000
0000
1000
0000
0000
0000
0000
0000
0000
0000
0100
0000
0000
0000
0010
,
0000
0000
0000
0001
0000
0000
0000
0000
0000
0000
0000
1000
0000
0000
0000
0001
,
0000
0000
0000
0010
0000
0000
0000
0000
0000
0000
0000
0001
0000
0000
0000
0100
,
0000
0000
0000
1000
0000
0000
0000
0000
0000
0000
0000
0010
0000
0000
0000
1000
,
0000
0000
0000
0001
0000
0000
0000
0000
0000
0000
0000
0100
0000
0000
0000
0010
,
0000
0000
0000
0001
0000
0000
0000
0000
0000
0000
0000
1000
0000
0000
0000
0001
,
0000
0000
0000
1000
0000
0000
0000
0000
0000
0000
0000
0100
0000
0000
0000
0010
,
0000
0000
0000
0100
0000
0000
0000
0000
0000
0000
0000
0001
0000
0000
0000
1000
,
0000
0000
0000
0010
0000
0000
0000
1000
0000
0000
0000
0100
0000
0000
0000
0010
,
0000
0000
0000
0001
0000
0000
0000
0000
0000
0000
0000
0100
0000
0000
0000
0001
,
0000
0000
0000
1000
0000
0000
0000
0100
0000
0000
0000
0010
0000
0000
0000
0001
,
0000
0000
0000
2000
0000
0000
0000
0000
0000
0000
0000
0000
0000
0000
0000
0000
,
0000
0000
0000
3000
0000
0000
0000
0000
0000
0000
0000
0000
0000
0000
0000
0000
,
0000
0000
0000
0001
0000
0000
0000
0001
0000
0000
0000
0001
0000
0000
0000
0001
,
0000
0000
0000
1000
0000
0000
0000
1000
0000
0000
0000
1000
0000
0000
0000
1000
,
0000
0000
0000
0010
0000
0000
0000
0010
0000
0000
0000
0100
0000
0000
0000
0100
,
0000
0000
0000
0001
0000
0000
0000
0100
0000
0000
0000
0010
0000
0000
0000
1000
,
0001
0010
0001
0100
,
0010
1000
0001
0000
,
1000
0100
0001
1000
,
0010
0100
0001
0000
,
0010
0001
0100
1000
,
0010
1000
0001
0000
,
0010
0010
0100
0100
,
0001
1000
0001
1000
,
0100
1000
0100
0010
,
0001
0001
0001
0000
,
1000
0001
0010
0001
,
0100
0100
0100
0000
,
0010
0100
0001
0100
,
1000
1000
1000
0000
,
0001
0001
0100
0100
,
0010
0000
1000
0000
0010
0000
0000
1000
,
0000
0000
0000
0001
0000
0000
0000
0100
,
0000
0001
0000
1000
0000
0000
0000
0010
,
0000
0000
0000
0100
0000
0000
0000
0001
,
0000
0100
0000
0010
0000
0000
0000
0001
,
0000
0000
0000
1000
0000
0000
0000
0010
,
0000
1000
0000
0001
0000
0000
0000
1000
,
0000
0000
0000
0010
0000
0000
0000
0100
,
0000
0010
0000
1000
0000
0000
0000
0001
,
0000
0000
0000
1001
0000
0000
0000
0100
,
0000
0010
0000
1000
0000
0000
0000
0010
,
0000
0000
0000
0110
0000
0000
0000
0002
,
0100
1003
0001
0000
0001
0000
1000
0000
,
1000
0010
1000
0010
,
0000
0100
0100
0010
,
0010
0001
0100
0002
,
0000
0000
0003
0000
,
0000
0000
0000
1000
,
0000
1000
0000
1000
,
0100
0001
0000
0001
,
0000
0001
0000
0001
,
0100
1000
0000
0010
,
0000
0010
0000
0010
,
1000
0001
0000
0100
,
0010
0100
0000
0001
,
1000
0100
0000
1000
,
1000
1000
1000
0100
,
0100
0100
0100
0010
,
0010
0010
0010
0001
,
0001
0001
0001
0100
,
0100
0010
0010
1000
,
1000
0001
0001
1000
,
0100
0010
0001
0100
,
0010
1000
0001
2002
,
0000
0000
0000
0000
,
0000
0000
0000
3003
;

//---------------dance-single - ----------------
#NOTES:
     dance-single:
     :
     Beginner:
     3:
     0.158385,0.341757,0.014493,0.043478,0.126812,153.000000,151.000000,2.000000,6.000000,0.000000,0.000000,0.158385,0.341757,0.014493,0.043478,0.126812,153.000000,151.000000,2.000000,6.000000,0.000000,0.000000:
// measure 0
0000
0000
0000
0000
,  // measure 1
0000
0000
0000
0000
,  // measure 2
0000
0000
0000
0000
,  // measure 3
0000
0000
0000
0000
,  // measure 4
0020
0000
0000
0000
,  // measure 5
0030
0000
0000
0000
,  // measure 6
0020
0000
0000
0000
,  // measure 7
0030
0010
0000
0010
,  // measure 8
0000
0100
0000
0100
,  // measure 9
0000
0001
0000
0001
,  // measure 10
0000
1000
0000
1000
,  // measure 11
0000
0002
0000
0003
,  // measure 12
0000
2000
0000
3000
,  // measure 13
0000
0010
0000
0100
,  // measure 14
0000
0010
0000
0100
,  // measure 15
0000
0000
0000
0000
1001
0010
0000
0000
0000
0100
0000
0000
0000
0001
0000
0000
,  // measure 16
0000
1000
0000
0000
0000
0001
0000
0000
0000
0010
0000
0000
0000
0100
0000
0000
,  // measure 17
0000
1000
0000
1000
0000
0000
0000
0000
0000
0000
0000
0010
0000
0000
0000
0000
,  // measure 18
0000
0000
0000
0010
0000
0000
0000
0000
0000
0000
0000
0010
0000
0000
0000
0000
,  // measure 19
0000
0000
0000
0000
0000
0000
0000
0000
0000
0000
0000
0100
0000
0000
0000
0000
,  // measure 20
0000
0000
0000
0100
0000
0000
0000
0000
0000
0000
0000
0100
0000
0000
0000
0000
,  // measure 21
0000
0000
0000
0000
0000
0000
0000
0000
0000
0000
0000
0001
0000
0000
0000
0000
,  // measure 22
0000
0000
0000
0001
0000
0000
0000
0000
0000
0000
0000
0001
0000
0000
0000
0000
,  // measure 23
0000
0000
0000
0000
0000
0000
0000
0000
0000
0000
0000
1000
0000
0000
0000
0000
,  // measure 24
0000
0000
0000
1000
0000
0000
0000
0000
0000
0000
0000
1000
0000
0000
0000
0000
,  // measure 25
0000
0000
0000
0000
0000
0000
0000
0000
0000
0000
0000
0001
0000
0000
0000
0000
,  // measure 26
0000
0000
0000
0001
0000
0000
0000
0000
0000
0000
0000
1000
0000
0000
0000
0000
,  // measure 27
0000
0000
0000
0000
0000
0000
0000
0000
0000
0000
0000
0010
0000
0000
0000
0000
,  // measure 28
0000
0000
0000
0010
0000
0000
0000
0000
0000
0000
0000
0100
0000
0000
0000
0000
,  // measure 29
0000
0000
0000
0100
0000
0000
0000
0000
0000
0000
0000
0000
0000
0000
0000
0000
,  // measure 30
0000
0000
0000
0000
,  // measure 31
0000
0000
0000
0001
0000
0000
0000
0000
0000
0000
0000
0000
0000
0000
0000
0000
,  // measure 32
0000
0000
0000
1000
0000
0000
0000
0000
0000
0000
0000
0000
0000
0000
0000
0000
,  // measure 33
0000
0000
0000
0010
0000
0000
0000
0000
0000
0000
0000
0010
0000
0000
0000
0000
,  // measure 34
0000
0000
0000
0100
0000
0000
0000
0100
0000
0000
0000
0100
0000
0000
0000
0000
,  // measure 35
0001
0000
0001
0000
,  // measure 36
1000
0000
1000
0000
,  // measure 37
0010
0000
0010
0000
,  // measure 38
0100
0000
0100
0000
,  // measure 39
0010
0000
0010
0000
,  // measure 40
1000
0000
1000
0000
,  // measure 41
0001
0000
0001
0000
,  // measure 42
0100
0000
0100
0000
,  // measure 43
1000
1000
1000
0000
,  // measure 44
0010
0010
0010
0000
,  // measure 45
0100
0100
0100
0000
,  // measure 46
0001
0001
0001
0000
,  // measure 47
0010
0010
0010
0000
,  // measure 48
0001
0001
0001
0000
,  // measure 49
0100
0100
0100
0000
,  // measure 50
1000
0000
1000
0000
1000
0000
0000
0010
,  // measure 51
0000
0000
0000
0000
0000
0000
0000
0001
,  // measure 52
0000
0000
0000
0001
0000
0000
0000
0100
,  // measure 53
0000
0000
0000
0000
0000
0000
0000
1000
,  // measure 54
0000
0000
0000
1000
0000
0000
0000
0001
,  // measure 55
0000
0000
0000
0000
0000
0000
0000
0100
,  // measure 56
0000
0000
0000
0100
0000
0000
0000
1000
,  // measure 57
0000
0000
0000
0000
0000
0000
0000
0010
,  // measure 58
0000
0000
0000
0010
0000
0000
0000
1000
,  // measure 59
0000
0000
0000
0000
0000
0000
0000
0001
,  // measure 60
0000
0000
0000
1000
0000
0000
0000
0010
,  // measure 61
0000
0000
0000
0000
0000
0000
0000
0001
,  // measure 62
0000
1000
0010
0000
0000
0000
0000
0000
,  // measure 63
0000
0100
0000
0001
,  // measure 64
0000
1000
0000
0000
,  // measure 65
0000
0010
0000
0100
,  // measure 66
0000
0000
0000
0000
,  // measure 67
0000
0000
0000
0001
,  // measure 68
0000
0000
0000
1000
,  // measure 69
0000
0000
0000
0001
,  // measure 70
0000
0000
0000
0010
,  // measure 71
0000
0000
0000
0100
,  // measure 72
0000
0000
0000
0100
,  // measure 73
0000
0000
0000
1000
,  // measure 74
0000
0010
0000
1000
,  // measure 75
0000
0001
0000
0100
,  // measure 76
0100
0100
0000
0010
,  // measure 77
0010
0010
0000
1000
,  // measure 78
1000
1000
0000
0001
,  // measure 79
0001
0001
0000
0010
,  // measure 80
0010
0010
0000
0001
,  // measure 81
0001
0001
0000
0100
,  // measure 82
0100
0100
0000
1000
,  // measure 83
1000
1000
0000
2002
,  // measure 84
0000
0000
0000
0000
,  // measure 85
0000
0000
0000
3003
;
