#VERSION:0.83;
#TITLE:Unbelievers;
#SUBTITLE:;
#ARTIST:Vampire Weekend;
#TITLETRANSLIT:;
#SUBTITLETRANSLIT:;
#ARTISTTRANSLIT:;
#GENRE:;
#ORIGIN:;
#CREDIT:;
#BANNER:Unbelievers-bn.png;
#BACKGROUND:Unbelievers-bg.png;
#PREVIEWVID:;
#JACKET:Unbelievers-jacket.png;
#CDIMAGE:;
#DISCIMAGE:;
#LYRICSPATH:;
#CDTITLE:;
#MUSIC:Unbelievers.ogg;
#OFFSET:0.000000;
#SAMPLESTART:62.061382;
#SAMPLELENGTH:20.000000;
#SELECTABLE:YES;
#DISPLAYBPM:155.000000;
#BPMS:0.000=155.010;
#STOPS:;
#DELAYS:;
#WARPS:;
#TIMESIGNATURES:0.000=4=4;
#TICKCOUNTS:0.000=4;
#COMBOS:0.000=1;
#SPEEDS:0.000=1.000=0.000=0;
#SCROLLS:0.000=1.000;
#FAKES:;
#LABELS:0.000=Song Start;
#BGCHANGES:;
#KEYSOUNDS:;
#ATTACKS:
;

//---------------dance-single - x scale 12----------------
#NOTEDATA:;
#CHARTNAME:;
#STEPSTYPE:dance-single;
#DESCRIPTION:x scale 12;
#CHARTSTYLE:;
#DIFFICULTY:Hard;
#METER:13;
#RADARVALUES:0.553123,0.547877,0.161702,0.323404,0.543498,431.000000,413.000000,18.000000,36.000000,0.000000,0.000000,0.000000,0.000000,0.000000,0.553123,0.547877,0.161702,0.323404,0.543498,431.000000,413.000000,18.000000,36.000000,0.000000,0.000000,0.000000,0.000000,0.000000;
#CREDIT:;
#DISPLAYBPM:155.000000;
#NOTES:
// measure 0
0000
0000
0000
0000
,  // measure 1
0000
0000
0000
0000
,  // measure 2
0000
0000
0000
0000
,  // measure 3
0000
0000
0000
0000
,  // measure 4
0000
0000
0000
0000
,  // measure 5
0000
0000
0000
0000
,  // measure 6
0000
0000
0000
0000
,  // measure 7
0000
0000
0000
0000
,  // measure 8
0010
0000
0000
0010
1000
0000
0000
1000
0001
0000
0000
0001
0100
0000
0000
0100
,  // measure 9
1000
0000
0000
1000
0010
0000
0000
0010
0100
0000
0000
0100
0001
0000
0000
0001
,  // measure 10
0100
0000
0000
0100
0010
0000
0000
0010
1000
0000
0000
1000
0001
0000
0000
0001
,  // measure 11
0100
0101
1100
1001
,  // measure 12
0001
0000
0000
0001
0100
0000
0000
0100
0010
0000
0000
0010
1000
0000
0000
1000
,  // measure 13
0010
0000
0000
0010
0001
0000
0000
0001
0100
0000
0000
0100
1000
0000
0000
1000
,  // measure 14
0100
0000
0000
0100
1000
0000
0000
1000
0010
0000
0000
0010
0001
0000
0000
0001
,  // measure 15
0010
0000
0011
0000
1010
0000
0100
0210
,  // measure 16
0000
0301
0010
0100
1000
0100
0010
0002
,  // measure 17
0000
1003
0100
0010
0001
0010
0100
2000
,  // measure 18
0000
3010
1000
0010
0100
0010
0001
0020
,  // measure 19
1000
0000
0001
0000
1000
0000
0031
0020
,  // measure 20
0000
0031
0100
1000
0001
0100
0010
2000
,  // measure 21
0000
3100
1000
0010
0100
0001
1000
0200
,  // measure 22
0000
1300
0100
0001
0100
1000
0100
0002
,  // measure 23
0010
1000
0010
1003
,  // measure 24
1000
0000
0000
1000
0001
0000
0000
0001
0010
0000
0000
0010
0100
0000
0000
0100
,  // measure 25
0001
0000
0000
0001
0100
0000
0000
0100
1000
0000
0000
1000
0010
0000
0000
0010
,  // measure 26
0100
0000
0000
0100
1000
0000
0000
1000
0010
0000
0000
0010
0001
0000
0000
0001
,  // measure 27
1000
1100
0011
0110
,  // measure 28
0100
0000
0000
0100
0010
0000
0000
0010
1000
0000
0000
1000
0001
0000
0000
0001
,  // measure 29
0010
0000
0000
0010
1000
0000
0000
1000
0001
0000
0000
0001
0100
0000
0000
0100
,  // measure 30
1000
0000
0000
1000
0001
0000
0000
0001
0100
0000
0000
0100
0010
0000
0000
0010
,  // measure 31
0001
0000
0101
0000
1010
0000
1000
1002
,  // measure 32
0000
1003
0010
0001
0100
0010
0100
2000
,  // measure 33
0000
3100
1000
0010
0001
0010
1000
0200
,  // measure 34
0000
0310
0100
1000
0001
0100
0001
0020
,  // measure 35
0001
0000
1000
0000
0001
0000
1030
0020
,  // measure 36
0000
0130
0010
0001
0010
0100
1000
0200
,  // measure 37
0000
0301
1000
0100
0010
1000
0010
0002
,  // measure 38
0000
0013
1000
0001
0100
0010
0001
2000
,  // measure 39
0010
0100
0010
3100
,  // measure 40
1000
0000
0000
1000
0001
0000
0000
0001
0010
0000
0000
0010
1000
0000
0000
1000
,  // measure 41
0100
0000
0000
0100
0001
0000
0000
0001
0010
0000
0000
0010
0001
0000
0000
0001
,  // measure 42
0100
0000
0000
0100
1000
0000
0000
1000
0010
0000
0000
0010
0100
0000
0000
0100
,  // measure 43
1000
0000
0000
1000
0100
0000
0000
0100
0010
0000
0000
0010
0001
0000
0000
0001
,  // measure 44
0100
0000
0000
0100
1000
0000
0000
1000
0001
0000
0000
0001
0100
0000
0000
0100
,  // measure 45
0010
0000
0000
0010
0100
0000
0000
0100
0001
0000
0000
0001
1000
0000
0000
1000
,  // measure 46
0001
0000
0000
0001
0010
0000
0000
0010
0100
0000
0000
0100
0001
0000
0000
0001
,  // measure 47
1000
0000
0000
1000
0010
0000
0000
0010
1000
0000
0000
1000
0010
0000
0010
0000
,  // measure 48
1000
0000
0000
1000
0001
0000
0000
0001
0010
0000
0000
0010
0001
0000
0000
0001
,  // measure 49
0100
0000
0000
0100
1000
0000
0000
1000
0010
0000
0000
0010
0100
0000
0100
0000
,  // measure 50
1000
0000
0000
1000
0010
0000
0000
0010
0001
0000
0000
0001
0010
0000
0000
0010
,  // measure 51
1000
0000
0000
1000
0100
0000
0000
0100
0001
0000
0000
0001
0100
0000
0000
0100
,  // measure 52
0010
0000
0000
0010
0100
0000
0000
0100
0001
0000
0000
0001
1000
0000
0000
1000
,  // measure 53
0100
0000
0000
0100
1000
0000
0000
1000
0001
0000
0000
0001
0010
0000
0000
0010
,  // measure 54
0100
0000
0000
0100
0001
0000
0000
0001
1000
0000
0000
1000
0010
0000
0000
0010
,  // measure 55
1000
0000
0000
1000
0010
0000
0000
0010
0001
0000
0000
0001
0100
0000
0000
0000
,  // measure 56
2000
0000
0000
3001
0100
0000
0001
0000
0020
0000
0000
1030
0100
0000
0010
0000
,  // measure 57
0002
0000
0000
0013
1000
0000
0001
0000
0200
0000
0000
1300
0100
0000
0010
0000
,  // measure 58
2000
0000
0000
3010
0001
0000
1000
0000
0002
0000
0000
0103
0010
0000
0100
0000
,  // measure 59
1000
1001
0101
0011
,  // measure 60
0200
0000
0000
0301
1000
0000
0100
0000
0020
0000
0000
1030
0001
0000
0010
0000
,  // measure 61
0200
0000
0000
0301
0010
0000
0100
0000
2000
0000
0000
3001
1000
0000
0010
0000
,  // measure 62
0002
0000
0000
0103
0001
0000
1000
0000
0020
0000
0000
1030
0010
0000
0100
0000
,  // measure 63
0001
1100
1010
0110
,  // measure 64
0200
0000
0310
0000
,  // measure 65
2000
0000
3001
0000
,  // measure 66
0002
0000
0103
0000
,  // measure 67
0020
0000
0000
0030
,  // measure 68
2000
0000
3100
0000
,  // measure 69
0002
0000
0013
0000
,  // measure 70
0200
0000
0310
0000
,  // measure 71
0020
0000
0000
0030
;

//---------------dance-single - x scale 9----------------
#NOTEDATA:;
#CHARTNAME:;
#STEPSTYPE:dance-single;
#DESCRIPTION:x scale 9;
#CHARTSTYLE:;
#DIFFICULTY:Medium;
#METER:10;
#RADARVALUES:0.419655,0.483421,0.161702,0.503072,0.000000,327.000000,309.000000,18.000000,56.000000,0.000000,0.000000,0.000000,0.000000,0.000000,0.419655,0.483421,0.161702,0.503072,0.000000,327.000000,309.000000,18.000000,56.000000,0.000000,0.000000,0.000000,0.000000,0.000000;
#CREDIT:;
#DISPLAYBPM:155.000000;
#NOTES:
0000
0000
0000
0000
,
0000
0000
0000
0000
,
0000
0000
0000
0000
,
0000
0000
0000
0000
,
0000
0000
0000
0000
,
0000
0000
0000
0000
,
0000
0000
0000
0000
,
0000
0000
0000
0000
,
1001
0000
1000
0100
0010
0001
0000
0200
,
0000
0000
0310
1000
0000
1000
0001
0020
,
0000
0031
0010
0100
1000
0000
1000
0001
,
0100
0100
0100
0100
,
0110
0000
0010
1000
0001
0100
0000
0002
,
0000
0000
0103
0001
0000
0001
0100
2000
,
0000
3100
0010
1000
0001
0000
0100
0001
,
0010
0000
0010
0000
0010
0000
0010
0002
,
0000
2003
0000
3010
1000
0000
0010
0200
,
0000
0000
0301
0100
0010
1000
0000
0020
,
0000
0000
1030
0010
0100
0010
0100
1000
,
0001
0000
0001
0000
0001
0000
0001
0200
,
0000
0320
0000
1030
0001
0000
0001
2000
,
0000
0000
3010
0100
0010
1000
0000
0002
,
0000
0000
0013
0001
0100
0001
0100
0010
,
1000
1000
1000
1000
,
1100
0000
0001
0100
0010
1000
0000
0201
,
0000
0000
0310
1000
0000
1000
0001
0020
,
0000
0031
1000
0010
0100
0000
0100
1000
,
0001
0001
0001
0001
,
0011
0000
1000
0010
0001
0100
0000
2010
,
0000
0000
3100
0010
0000
0010
0100
0002
,
0000
0013
0001
0100
0010
0000
1000
0100
,
1000
0000
1000
0000
1000
0000
1000
0020
,
0000
2030
0000
3001
0100
0000
0100
0002
,
0000
0000
0103
0010
1000
0010
0000
0200
,
0000
0000
0301
0100
0010
1000
0010
0100
,
0010
0000
0010
0000
0010
0000
0010
2000
,
0000
3200
0000
0301
1000
0000
1000
0002
,
0000
0000
0103
0001
0100
0001
0000
0020
,
0000
0000
0130
0010
1000
0010
0100
0001
,
0100
0100
0100
0100
,
0010
0000
0020
0000
2030
0000
3001
0200
,
0000
0302
0010
0000
1000
0000
0013
0000
,
0100
0000
0102
0000
1003
0001
0000
1100
,
0000
0001
2000
0000
3020
0000
0230
0000
,
0301
0000
0002
0000
0203
0000
0310
2000
,
0000
3020
0000
0100
0000
0130
0010
1000
,
0000
0000
1000
0100
0010
0000
0010
0001
,
0100
0001
1001
0110
,
1000
0000
2000
0000
3020
0000
0130
0002
,
0000
0203
0010
0000
1000
0000
0310
0000
,
0001
0000
0011
0000
1010
0000
1000
0020
,
0000
0130
0002
0000
2003
0000
3200
0000
,
0310
0000
0010
1000
0001
0100
0000
0100
,
0000
0100
0010
1000
0000
1000
0010
0100
,
0001
0000
0001
0010
0100
0000
0010
0100
,
2000
3200
0320
0032
,
0013
0001
0100
0000
0010
1000
0100
0000
,
0010
0001
0100
0000
0010
1000
0100
0000
,
0010
0001
0100
0000
0010
1000
0100
0000
,
0001
1010
1001
0011
,
1000
0100
0001
0000
0001
0010
1000
0000
,
1000
0100
0001
0000
0001
0010
1000
0000
,
1000
0100
0001
0000
0001
0010
1000
0000
,
0100
0101
0110
1100
,
0100
0010
2000
3000
,
0010
0100
0002
0003
,
1000
0001
0200
0300
,
0020
0000
0000
0030
,
1000
0010
0200
0300
,
0001
1000
0020
0030
,
0100
0001
2000
3000
,
0002
0000
0000
0003
;

//---------------dance-single - x scale 7----------------
#NOTEDATA:;
#CHARTNAME:;
#STEPSTYPE:dance-single;
#DESCRIPTION:x scale 7;
#CHARTSTYLE:;
#DIFFICULTY:Easy;
#METER:7;
#RADARVALUES:0.295170,0.354509,0.035934,0.251536,0.000000,230.000000,226.000000,4.000000,28.000000,0.000000,0.000000,0.000000,0.000000,0.000000,0.295170,0.354509,0.035934,0.251536,0.000000,230.000000,226.000000,4.000000,28.000000,0.000000,0.000000,0.000000,0.000000,0.000000;
#CREDIT:;
#DISPLAYBPM:155.000000;
#NOTES:
0000
0000
0000
0000
,
0000
0000
0000
0000
,
0000
0000
0000
0000
,
0000
0000
0000
0000
,
0000
0000
0000
0000
,
0000
0000
0000
0000
,
0000
0000
0000
0000
,
0000
0000
0000
0000
,
0010
0010
1000
1000
,
0001
0001
0100
0100
,
0010
1000
0001
0100
,
0001
0001
0001
0001
,
0100
0100
0010
0010
,
1000
1000
0001
0001
,
0100
0001
0010
1000
,
0100
0100
0100
0100
,
0010
1000
0001
0000
,
0100
0001
1000
0000
,
0010
0100
0001
0000
,
1000
1000
1000
1000
,
0010
1000
0100
0000
,
0100
0001
0010
0000
,
0001
1000
0100
0000
,
0010
0010
0010
0010
,
1000
1000
0001
0001
,
0100
0100
0010
0010
,
0100
0010
1000
0001
,
0100
0100
0100
0100
,
0010
0010
1000
1000
,
0100
0100
0001
0001
,
0010
0001
1000
0100
,
0010
0010
0010
0010
,
1000
0001
0010
0000
,
0010
0001
0100
0000
,
0100
1000
0001
0000
,
0001
0001
0001
0001
,
1000
0010
0100
0000
,
0001
1000
0010
0000
,
0010
0001
0100
0000
,
1000
1000
1000
1000
,
0010
0010
0010
0010
,
0010
0010
0010
0010
,
1000
1000
1000
1000
,
1000
1000
1000
1000
,
0001
0001
0001
0001
,
0001
0001
0001
0001
,
0100
0100
0100
0100
,
0100
0100
0100
0100
,
1001
1000
1000
1000
,
1000
1000
1000
1000
,
1001
0001
0001
0001
,
0001
0001
0001
0001
,
0110
0100
0100
0100
,
0100
0100
0100
0100
,
0110
0010
0010
0010
,
0010
0010
0010
0010
,
2000
3001
0002
1003
,
0200
0310
0020
0130
,
0002
0013
0200
1300
,
0020
1000
0001
0130
,
2000
3010
0020
1030
,
0200
0301
0002
0103
,
2000
3100
0020
0031
,
0200
1000
0010
0301
,
2000
3000
0002
0003
,
0200
0300
0020
0030
,
2000
3000
0020
0030
,
0002
0000
0000
0003
,
0200
0300
0020
0030
,
2000
3000
0002
0003
,
0002
0003
0200
0300
,
0020
0000
0000
0030
;

//---------------dance-single - x scale 2----------------
#NOTEDATA:;
#CHARTNAME:;
#STEPSTYPE:dance-single;
#DESCRIPTION:x scale 2;
#CHARTSTYLE:;
#DIFFICULTY:Beginner;
#METER:2;
#RADARVALUES:0.128335,0.191347,0.089834,0.000000,0.000000,100.000000,90.000000,10.000000,0.000000,0.000000,0.000000,0.000000,0.000000,0.000000,0.128335,0.191347,0.089834,0.000000,0.000000,100.000000,90.000000,10.000000,0.000000,0.000000,0.000000,0.000000,0.000000,0.000000;
#CREDIT:;
#DISPLAYBPM:155.000000;
#NOTES:
0000
0000
0000
0000
,
0000
0000
0000
0000
,
0000
0000
0000
0000
,
0000
0000
0000
0000
,
0000
0000
0000
0000
,
0000
0000
0000
0000
,
0000
0000
0000
0000
,
0000
0000
0000
0000
,
0001
0000
0001
0000
,
1000
0000
1000
0000
,
0010
0000
0010
0000
,
0010
0000
0000
0000
,
0100
0000
0100
0000
,
0001
0000
0001
0000
,
1000
0000
1000
0000
,
1000
0000
0000
0000
,
0010
0000
0000
0000
,
0100
0000
0000
0000
,
0001
0000
1000
0000
,
1001
0000
0000
0000
,
1000
0000
0000
0000
,
0001
0000
0000
0000
,
0100
0000
0010
0000
,
0110
0000
0000
0000
,
1000
0000
1000
0000
,
0010
0000
0010
0000
,
0100
0000
0100
0000
,
0100
0000
0000
0000
,
0100
0000
0100
0000
,
0001
0000
0001
0000
,
0010
0000
0010
0000
,
0010
0000
0000
0000
,
1000
0000
0000
0000
,
0010
0000
0000
0000
,
0100
0000
0001
0000
,
0110
0000
0000
0000
,
0001
0000
0000
0000
,
0010
0000
0000
0000
,
1000
0000
0100
0000
,
1001
0000
0000
0000
,
0010
0000
0000
0000
,
0000
0000
1000
0000
,
1000
0000
0000
0000
,
0000
0000
0001
0000
,
0001
0000
0000
0000
,
0000
0000
0100
0000
,
0100
0000
0000
0000
,
0000
0000
0000
0000
,
1001
0000
0000
0000
,
0000
0000
0100
0000
,
1001
0000
0000
0000
,
0000
0000
0010
0000
,
0110
0000
0100
0000
,
0100
0000
0100
0000
,
0010
0000
0010
0000
,
0110
0000
0000
0000
,
1000
0000
1000
0000
,
0001
0000
0001
0000
,
0100
0000
0100
0000
,
0100
0000
0000
0000
,
0010
0000
0010
0000
,
1000
0000
1000
0000
,
0100
0000
0100
0000
,
0100
0000
0000
0000
,
0001
0000
0000
0000
,
1000
0000
0000
0000
,
0010
0000
0100
0000
,
0110
0000
0000
0000
,
0100
0000
0000
0000
,
0010
0000
0000
0000
,
1000
0000
0001
0000
,
1001
0000
0000
0000
;
