#TITLE:UZIEL;
#ARTIST:murumuru-kurotou;
#BANNER:UZIEL-bn.png;
#BACKGROUND:UZIEL-bg.png;
#JACKET:UZIEL-jacket.png;
#MUSIC:UZIEL.ogg;
#SAMPLESTART:37.345;
#SAMPLELENGTH:20;
#DISPLAYBPM:180;
#BPMS:0=179.85;
#BGCHANGES:;

//---------------dance-single - ----------------
#NOTES:
     dance-single:
     :
     Beginner:
     3:
     :
0000
0000
0000
0000
,
0000
0000
0000
0000
,
0000
0000
0000
0000
,
0000
0000
0000
0000
,
2000
0000
0000
0000
,
3000
0000
0001
0001
,
0002
0000
0000
0000
,
0003
0000
0100
0100
,
0200
0000
0000
0000
,
0300
0000
0010
0010
,
0020
0000
0000
0000
,
0030
0000
1000
1000
,
1000
0000
0001
0000
,
0020
0000
0030
0000
,
0001
0000
1000
0000
,
0200
0000
0300
0000
,
0100
0000
0010
0000
,
0002
0000
0003
0000
,
0100
0000
0010
0000
,
2000
0000
3000
0000
,
0001
0000
0001
0000
,
1000
0000
1000
0000
,
0010
0000
0010
0000
,
0100
0000
0001
0001
,
0001
0000
0010
0000
,
0100
0100
0100
0000
,
1000
0000
0010
0000
,
1000
1000
0000
0001
,
0001
0000
0100
0000
,
0010
0010
0010
0000
,
1000
0000
0001
0000
,
1000
1000
1000
0000
,
0100
0000
0010
0000
,
0001
0001
0001
0000
,
0010
0000
0001
0000
,
0100
0100
0100
0000
,
0001
0000
1000
0000
,
0100
0100
0100
0100
,
0100
0000
0010
0010
,
0010
0000
0001
0000
,
0100
0000
0010
0000
,
1000
1000
1000
1000
,
1000
0000
0001
0001
,
0001
0000
0100
0000
,
0020
0000
0000
0000
,
0030
0000
1000
1000
,
2000
0000
0000
0000
,
3000
0000
0001
0001
,
0002
0000
0003
0000
,
0200
0000
0300
0000
,
0020
0000
0030
0000
,
2000
0000
3000
0000
,
0002
0000
0003
0000
,
0200
0000
0300
0000
,
0002
0000
0003
0000
,
2000
0000
3000
0000
,
0020
0000
0030
0000
,
0200
0000
0300
0000
,
2002
0000
3003
0000
,
0220
0000
0000
0330
;

//---------------dance-single - ----------------
#NOTES:
     dance-single:
     :
     Easy:
     8:
     :
0000
0000
0000
0000
,
0000
0000
0000
0000
,
0000
0000
0000
0000
,
0000
0000
0000
0000
,
2000
0000
0002
0003
,
3010
0000
0000
0100
0001
0000
1000
0000
,
0020
0000
0200
0300
,
1030
0000
0000
0001
0010
0000
0100
0000
,
2000
0000
0200
0300
,
3001
0000
0000
1000
0010
0000
0100
0000
,
0002
0000
0200
0300
,
0013
0000
0000
0001
1000
0000
0100
0000
,
0110
0010
1000
0001
,
0200
0010
0010
0310
,
0110
0001
0010
0100
,
2000
0001
0001
3001
,
1001
0010
0001
0100
,
0020
1000
1000
1030
,
1001
1000
0100
0010
,
0002
0100
0100
0103
,
0010
0000
0000
0110
0000
0000
0000
0000
,
1000
0001
0000
1001
0000
0000
0000
0000
,
0100
0000
0000
0110
0000
0000
0000
0000
,
0001
1000
0000
1001
0000
1000
0100
0010
,
0001
0000
0000
1001
0000
0000
0000
0000
,
0100
0010
0000
0110
0000
0000
0000
0000
,
1000
0000
0000
0010
0100
0000
0000
0001
,
1000
0000
0100
0010
0000
0001
1000
0000
,
0010
0100
0000
0001
0000
1000
0000
0001
,
0010
0000
0010
0000
0001
0100
1000
0000
,
0010
1000
0000
0100
0000
1000
0001
0100
,
0010
0000
0010
0000
1000
0100
0001
0000
,
0010
0001
0010
0001
0000
1000
0000
1000
,
0100
0000
0100
0000
1000
0010
0001
0000
,
0100
0000
0010
1000
0000
1000
0001
0010
,
0100
0000
0100
0000
1000
0010
0001
0000
,
0100
0001
0010
0001
,
0100
0010
1000
0000
0100
0000
0010
0001
,
1000
0000
0010
0100
0010
0000
1001
0000
,
1000
0100
0000
0110
0000
0010
0001
0000
,
0100
0010
0000
0110
0000
0001
1000
0000
,
0010
1000
0001
0000
0010
0000
0001
0100
,
1000
0000
0001
0100
0001
0000
1001
0000
,
0010
1000
0000
0001
0000
1000
0100
0010
,
0002
0000
0000
1000
0000
0000
0000
0100
,
0103
0000
0000
0010
1000
0000
0001
0000
,
0020
0000
0000
0100
0000
0000
0000
0001
,
0031
0000
0000
1000
0001
0000
0100
0000
,
0002
0000
0000
1000
1000
0000
0000
0000
,
0203
0000
0000
1000
1000
0000
0001
0000
,
0320
0001
0000
0100
0100
0000
0000
1000
,
2030
0000
0000
0100
0100
0000
0001
0000
,
3020
0100
0000
0001
0001
0000
0000
1000
,
2030
0000
0000
0001
0001
0000
0010
0000
,
3002
0000
0000
0100
0100
0000
0000
0000
,
0203
0000
0000
0010
0010
0000
0001
0000
,
0320
0100
0000
1000
1000
0000
0000
0100
,
0230
0000
0000
1000
1000
0000
0010
0000
,
0302
1000
0000
0100
0100
0000
0000
1000
,
2003
0000
0000
0010
0010
0000
0001
3001
;

//---------------dance-single - ----------------
#NOTES:
     dance-single:
     :
     Medium:
     10:
     :
0000
0000
0000
0000
,
0000
0000
0000
0000
,
0000
0000
0000
0000
,
0010
0010
0010
0010
,
1000
0001
0000
0001
0010
0100
0000
0100
,
1000
0000
0000
0010
0100
0000
0010
0100
,
0001
1000
0000
1000
0010
0100
0000
0100
,
0001
0000
0000
1000
0010
0000
1000
0010
,
0100
0001
0000
0001
1000
0100
0000
0100
,
0010
0000
0000
0001
1000
0000
0001
1000
,
0001
0010
0000
0010
0001
1000
0000
1000
,
0010
0000
0000
0100
0001
0000
0100
0001
,
0010
0000
0001
1000
0000
0001
1000
0000
,
0010
0100
0010
0100
0020
0000
2030
0000
,
3100
0000
0010
0001
0000
0010
0001
0000
,
1000
0010
1000
0010
2000
0000
3002
0000
,
0103
0000
0001
1000
0000
0001
1000
0000
,
0100
0010
0100
0010
0200
0000
2300
0000
,
3010
0000
1000
0100
0000
1000
0100
0000
,
1000
0001
1000
0001
0010
0100
0010
0100
,
1000
0010
0000
0001
0100
0000
0000
0000
,
0010
1000
0000
0101
0000
0001
1000
0001
,
0100
0010
0000
1000
0001
0000
0000
0000
,
0010
0001
0000
1100
0000
0001
1000
0100
,
1000
0001
0000
0010
0100
0000
0000
0000
,
0010
0100
0000
0001
1000
0000
0000
0000
,
0100
1000
0000
0010
0001
0000
0000
0100
,
0001
1000
0001
0100
0000
0010
1000
0010
,
1000
0001
0000
0011
0000
1100
0000
0010
,
1000
0100
1000
0001
0100
0010
0100
0000
,
0001
1000
0000
0110
0000
1000
0001
0100
,
0001
0010
0001
0010
0100
1000
0001
0000
,
0100
0010
0100
0001
0000
0110
0000
1000
,
0100
0010
0100
1000
0010
1000
0001
0000
,
0100
0001
0100
0001
0000
0010
0100
1000
,
0010
1000
0010
0100
0001
0010
0100
0000
,
1000
0001
0000
1010
0000
0010
1000
0100
,
1000
0001
0010
0001
0000
0100
0010
1000
,
0100
0000
1000
0010
0100
0000
0001
0010
,
0001
0100
0000
0011
0000
1000
0001
0010
,
0100
1000
0000
0110
0000
0010
0001
1000
,
0010
1000
0100
0000
0010
0001
0100
0000
,
0001
1000
0010
0100
0010
1000
0001
0100
,
0001
0010
0000
1001
0000
1000
0001
1000
,
0100
0010
0000
0010
0001
0100
0000
0100
,
0010
1000
0000
0010
1000
0000
1100
0000
,
0001
1000
0000
1000
0010
0100
0000
0100
,
0001
0010
0000
0100
1000
0000
0101
0000
,
0010
1000
0100
1000
0010
0100
0000
0000
,
0001
0010
0001
0100
0010
0100
0000
0000
,
0100
0001
1000
0100
1000
0001
0000
0000
,
0010
0001
1000
0001
1000
0010
0000
0000
,
1000
0100
1000
0100
1000
0100
0000
0000
,
0010
0001
0010
0001
0010
0001
0000
0000
,
0100
0001
0100
0001
0100
0001
0000
0000
,
1000
0010
1000
0010
1000
0010
0000
0000
,
1000
0001
1000
0001
1000
0001
0000
0000
,
0010
0100
0010
0100
0010
0100
0000
0000
,
1000
0010
0001
1000
0100
0001
0000
0000
,
1000
0100
0010
0001
1000
0010
0100
0001
;

//---------------dance-single - ----------------
#NOTES:
     dance-single:
     :
     Hard:
     13:
     :
0000
0000
0000
0000
,
0000
0000
0000
0000
,
0000
0000
0000
0000
,
0010
0010
0010
0010
,
1001
0001
0100
0010
1000
0100
0001
0100
,
1000
0000
0000
0010
0010
0000
1000
0001
,
0001
0010
0001
1000
0100
0001
0100
1000
,
0010
0000
0000
0100
0100
0001
1000
0010
,
0100
0100
1000
0100
0001
0010
0001
1000
,
0100
0000
0000
0010
0010
0000
0001
1000
,
0100
0001
0100
0010
0001
0010
1000
0100
,
1000
0001
1000
0001
0001
0000
0100
0010
,
1000
0000
1000
0000
0100
0000
0020
0000
0000
0000
0001
0000
0031
0000
0000
1000
,
0010
0100
0010
0100
0002
0000
1003
0100
,
1000
0000
0001
0000
1000
0000
0020
0000
0000
0000
0100
0000
0130
0000
0000
0010
,
1000
0000
0100
0010
0100
0000
1000
0000
0002
0000
0000
0000
0103
0000
0010
0000
,
1000
0000
1000
0000
0001
0000
0200
0000
0000
0000
0010
0000
0310
0000
0000
1000
,
0100
0010
0100
0010
0002
0000
1003
0010
,
0100
0000
0001
0000
0010
0000
0002
0000
0000
0000
1000
0000
1003
0000
0010
0100
,
0010
0000
1000
0000
0001
0000
1000
0000
0100
0000
0100
0000
1000
0010
1000
0010
,
1000
0000
0001
0000
0000
0000
0101
0000
0101
0000
0000
0000
0100
0010
0100
0010
,
0100
0000
0002
0000
0000
0000
1000
0000
1003
0000
0010
0000
0100
0001
0100
0001
,
0100
0000
0010
0000
0000
0000
1010
0000
1010
0000
0000
0000
1000
0001
1000
0001
,
1000
0000
0010
0000
0000
0000
1001
0000
0000
0000
0001
0000
0001
1000
0001
0000
,
0010
0000
0001
0000
0000
0000
1100
0000
1100
0000
0000
0000
0010
0000
1000
0100
,
1000
0000
0001
0000
0000
0000
0011
0000
0000
0000
0100
0000
0010
1000
0010
1000
,
0010
0100
0000
0101
0101
0000
1000
0001
,
0001
0000
0001
0000
1000
0000
0100
0000
0000
0000
1000
0000
1000
0001
1000
0000
,
0010
1010
0000
0101
0000
0011
0000
1100
,
0010
0000
1000
0100
0000
1000
0100
0000
0010
0000
0001
0000
0001
0000
0000
0000
,
0010
1000
0020
0000
0000
0000
0230
0000
0000
0000
0301
0000
1000
0100
1000
0000
,
0001
0000
0010
0100
0000
0010
0100
0000
1000
0000
0001
0000
0001
0000
0000
0000
,
0001
1000
0001
0000
0100
0000
0110
0000
0000
0000
1010
0000
0000
0000
1001
0000
,
0010
0000
1000
0001
0000
1000
0001
0000
0100
0000
0100
0000
0100
0000
0000
0000
,
0010
0000
0010
0000
0001
1000
0001
0000
0000
0000
1000
0000
1000
0100
1000
0000
,
0010
0000
0100
0001
0000
0100
0001
0000
1000
0000
1000
0000
0001
0000
0000
0000
,
0001
0100
0000
1010
0000
1000
1000
0100
,
0100
0000
1000
0000
0010
0000
0100
0001
0000
0100
0001
0000
0010
0000
0010
0000
,
0100
0000
1000
0000
0001
0000
0001
0000
0001
0000
1000
0010
1000
0000
0100
0000
,
0010
0000
0011
0000
0000
0000
1100
0000
0000
0000
0001
0000
1000
0100
1000
0100
,
1000
0000
0010
0000
0000
0000
1001
0000
0000
0000
0100
0000
0100
0000
0001
0010
,
0001
0000
0100
0000
0010
0000
1000
0100
0000
1000
0100
0000
0010
0000
0010
0000
,
0100
0000
1000
0000
0010
0000
0010
0000
0010
0000
0100
0001
0100
0000
0010
0000
,
1000
1000
0000
1100
0000
0001
0001
0100
,
0010
0010
0100
1000
0100
0001
0010
0100
,
1000
0101
0000
0001
1100
0000
0010
0100
,
0010
0001
1000
0100
0001
0100
1000
0010
,
0100
0000
1001
0000
0000
0000
0001
0000
0010
0000
0100
1000
0100
0000
1000
0001
,
1000
0010
0100
0001
0010
1000
0010
0100
,
0010
0001
0100
0010
0001
0010
1000
0001
,
0100
0010
0001
0010
0100
1000
0100
0010
,
0100
1000
0100
0001
0010
1000
0010
0100
,
1000
0001
1000
0010
0001
0010
0100
0010
,
0001
0010
1000
0100
0010
1000
0010
0100
,
0010
0001
0100
0001
0010
1000
0010
0100
,
0010
0001
1000
0001
0100
0010
0001
0010
,
1000
0100
0001
1000
0010
0001
1000
0100
,
0010
1000
0010
0100
0010
1000
0010
0001
,
1000
0010
0001
1000
0100
0001
1000
0010
,
0001
0100
1000
0100
0010
0100
0001
1000
;

//---------------dance-single - ----------------
#NOTES:
     dance-single:
     :
     Challenge:
     16:
     :
0000
0000
0000
0000
,
0000
0000
0000
0000
,
0000
0000
0000
0000
,
0010
0100
0010
0100
,
1001
1000
0001
0100
0100
0010
1000
0001
,
0001
0010
0000
1000
1000
0000
0100
0010
,
0110
0010
0001
1000
1000
0010
0100
0001
,
0001
1000
0000
0100
0100
0000
0010
0001
,
0101
0100
0001
1000
1000
0100
0001
0010
,
0010
0100
0000
1000
1000
0000
0001
0100
,
0101
0001
0010
0100
0100
1000
0001
0010
,
0010
0001
0000
0100
0100
0000
0001
1000
,
1010
0000
1000
0000
0100
0000
0010
0000
0001
0000
0100
0000
0010
0000
1000
0001
,
1000
0000
0001
0100
0000
0100
0000
0010
1000
0100
0000
1000
0001
0000
0010
0000
,
0011
0000
0001
0000
0100
0000
0010
0000
0001
0000
0010
0000
1000
0000
0100
0010
,
0100
0000
1000
0001
0000
0001
0000
0010
0001
1000
0000
1000
0010
0000
0100
0000
,
0110
0000
0010
0000
1000
0000
0010
0000
0001
0000
0010
0000
1000
0000
0100
0010
,
0100
0000
1000
0010
0000
0010
0000
0100
0001
0010
0000
0001
1000
0000
0001
0000
,
0011
0010
1000
0010
0100
1000
0001
0100
,
0010
0000
0010
0000
1000
0000
1000
0000
0100
0000
0100
0000
1000
0001
0010
0001
,
1000
0000
1000
0000
0100
0010
0001
0000
1001
0000
0010
0000
1000
0100
1000
0100
,
0010
0000
0010
0000
0001
0000
0110
0000
0000
0000
1000
0000
1000
0100
0001
0100
,
1000
0000
0010
0000
0100
0001
1000
0000
1100
0000
0010
0000
0001
0100
0001
0100
,
0010
0000
0010
0000
1000
0000
1100
0000
0000
0000
0001
0000
0001
0010
1000
0000
,
0100
0010
0001
0000
0100
0000
0010
1000
0001
0000
0100
0000
0001
1000
0010
1000
,
0100
0010
0001
0000
1000
0000
0101
0000
0000
0000
0010
0000
0010
0000
1000
0001
,
0100
0010
0100
0000
0001
0000
1000
0000
1000
0000
0000
0000
0010
0100
0001
1000
,
0100
0010
0001
0000
1001
0000
0110
0000
0000
0000
1000
0000
1000
0100
0001
0000
,
0011
0011
0000
0110
0000
1100
0000
0101
,
1001
0000
0010
1000
0000
1000
0100
0000
0010
0001
1000
0000
0001
0000
0001
0000
,
0010
0001
0100
0000
0000
0000
0110
0000
0000
0000
1000
0000
1000
0001
0100
0000
,
0110
0000
0010
1000
0000
1000
0001
0000
0010
0001
1000
0000
0100
0000
0100
0000
,
1000
0001
1000
0000
1010
0000
1010
0000
0000
0000
0101
0000
0000
0000
1100
0000
,
0011
0000
1000
0001
0100
0001
1000
0010
1000
0100
0010
0000
0001
0000
0001
0000
,
0010
0000
0010
0000
0001
0100
1000
0000
0000
0000
0001
0000
0001
0100
1000
0000
,
0010
0000
1000
0100
0001
0100
0010
0001
0100
0001
1000
0000
1000
0100
0010
0001
,
0100
0010
0100
0000
0000
0000
1001
0000
0000
0000
0001
0000
0001
0000
1000
0010
,
0100
0001
0010
0001
0100
0000
0010
1000
0000
1000
0100
1000
0001
0100
0010
0000
,
1000
0000
1000
0000
1100
0000
1010
0000
1001
0000
0010
0001
0100
0000
0100
0000
,
0101
0000
0101
0000
0000
0000
1010
0000
0000
0000
0001
0100
1000
0100
0001
0100
,
1000
0100
0001
0000
0010
0000
0110
0000
0000
0000
1000
0000
1000
0000
0100
0010
,
0001
0100
0010
0100
0001
0000
1000
0010
0000
1000
0100
1000
0001
0100
0010
0000
,
1000
0000
1000
0000
1001
0000
0101
0000
0011
0000
0100
0001
0010
0000
0010
0000
,
0110
0000
0110
0000
0000
0000
1100
0000
0000
1000
0001
1000
0001
0000
0001
0000
,
1001
1000
0100
0010
0010
0001
0100
1000
,
1000
0011
0000
0100
1010
0100
0101
0001
,
0011
0010
0001
1000
1000
0010
0100
0001
,
0001
1100
0000
0010
0101
0001
1001
0100
,
0110
0010
1000
1100
0001
0100
0010
1000
,
0101
0010
0001
0010
0100
1000
0100
0001
,
0011
1000
0001
1010
0100
0001
0010
0100
,
1100
0001
1000
0010
0001
0010
1000
0100
,
0110
0010
0001
1001
0100
1000
0100
0010
,
1010
0100
0010
1000
0010
0100
0010
0001
,
0101
0010
0100
1001
0010
0001
0100
1000
,
0110
0001
0010
1000
0010
0100
1000
0001
,
1100
0010
1000
0101
0010
0001
0100
1000
,
0011
0100
0010
1000
0100
0001
0100
0010
,
1001
0100
0001
1010
0100
1000
0001
0010
,
0101
0010
1000
0100
0001
0100
1000
0010
;
