#TITLE:UNBOUND MIND;
#ARTIST:D-crew;
#BANNER:UNBOUND MIND-bn.png;
#BACKGROUND:UNBOUND MIND-bg.png;
#JACKET:UNBOUND MIND-jacket.png;
#MUSIC:UNBOUND MIND.ogg;
#SAMPLESTART:34.833;
#SAMPLELENGTH:20;
#DISPLAYBPM:162;
#BPMS:0=162;
#BGCHANGES:;

//---------------dance-single - ----------------
#NOTES:
     dance-single:
     :
     Beginner:
     3:
     :
0000
0000
0000
0000
,
0000
0000
0000
0000
,
1000
1000
1000
0000
,
0001
0001
0001
0000
,
1001
2002
3003
0000
,
0110
0220
0330
0000
,
0010
0010
0010
0000
,
0100
0100
0100
0000
,
0002
0000
0003
0000
,
2000
0000
3000
0000
,
0020
0000
0030
0000
,
0200
0000
0300
0000
,
0020
0000
0030
0000
,
2000
0000
3000
0000
,
0002
0000
0000
0000
,
0000
0000
0003
0000
,
0100
0000
0110
0000
,
0010
0000
0110
0000
,
2000
0000
3000
0000
,
0002
0000
0003
0000
,
1000
0000
1001
0000
,
0001
0000
1001
0000
,
0200
0000
0300
0000
,
0010
0000
0100
0000
,
0001
0000
0001
0000
,
1000
0000
0001
0000
,
0200
0000
0300
0000
,
0020
0000
0030
0000
,
0200
0000
0300
0000
,
0001
0000
1000
0000
,
0010
0000
0010
0000
,
0010
0000
0100
0000
,
0001
0000
0010
0000
,
0001
0000
0100
0000
,
0020
0000
0030
0000
,
2000
0000
3000
0000
,
0002
0000
0003
0000
,
1000
0000
0100
0000
,
0020
0000
0000
0000
,
0000
0000
0030
0000
,
0002
0003
0000
1000
,
1000
0000
0010
0000
,
0200
0300
0000
0001
,
0001
0000
0010
0000
,
1000
1000
1000
0000
,
0100
0000
1000
0000
,
0001
0000
0001
0000
,
2000
0000
3000
0000
,
0020
0030
0000
0100
,
0100
0000
0001
0000
,
2000
3000
0000
0001
,
0001
0000
0010
0000
,
0001
0001
0001
0000
,
0100
0000
1000
0000
,
0100
0000
0010
0000
,
0001
0000
0000
0000
,
0001
0002
0003
0000
,
1000
2000
3000
0000
,
0010
0010
0010
0000
,
0100
0100
0100
0000
,
0010
0020
0030
0000
,
0100
0200
0300
0000
,
0001
0001
0001
0000
,
1000
1000
1000
0000
;

//---------------dance-single - ----------------
#NOTES:
     dance-single:
     :
     Easy:
     6:
     :
0000
0000
0000
0000
,
0000
0000
0000
0000
,
1000
0001
0100
0010
,
1000
0100
0010
0001
,
1001
2002
0000
3003
,
0110
0220
0000
0330
,
0001
0010
0100
1000
,
0001
1000
0010
0100
,
0002
2000
3000
1003
,
0020
0200
0300
0130
,
0002
0010
1000
1003
,
0020
1000
0100
0130
,
0002
0020
0030
0013
,
0200
2000
3000
1300
,
0010
1000
0100
0001
,
1000
0010
0100
0001
,
0200
0000
0300
0101
,
2000
0000
3000
1100
,
0001
0010
2002
3003
,
1000
0100
0220
0330
,
0020
0000
0030
1010
,
0002
0000
0003
0011
,
0100
0001
1000
0001
,
0010
0010
0001
1000
,
2002
3000
0020
0003
,
0002
0030
0200
0303
,
0220
0000
0300
2030
,
3002
0010
0100
0103
,
0022
0000
0030
2003
,
0020
3000
0200
0030
,
0002
0300
2000
3003
,
2200
0300
0010
3100
,
0220
0300
0002
0030
,
0200
0003
0302
2003
,
3020
2000
3000
2030
,
3002
1000
0010
0013
,
0202
0000
0000
0300
,
2000
0003
0200
3300
,
1100
0001
1000
0010
,
0110
1001
0110
0000
,
0002
0000
0000
0103
,
1000
0010
1000
0001
,
0200
0000
0000
0310
,
1000
0100
1000
0001
,
1000
0010
0001
0100
,
2020
0030
0001
3001
,
0020
0000
0002
0033
,
1001
0010
0100
0010
,
0002
0200
0300
0103
,
0010
1000
0001
1000
,
2200
0000
0300
3010
,
1000
0101
0010
0100
,
0001
0010
0001
0100
,
2000
0000
3001
0100
,
0020
0000
2000
0030
,
3020
0001
0100
1030
,
1010
2020
0000
3030
,
0101
0202
0000
0303
,
0010
0001
0100
1000
,
0010
1000
0100
0001
,
0011
0022
0000
0033
,
1100
2200
0000
3300
,
1000
0001
0100
0010
,
1000
0110
1001
0000
;

//---------------dance-single - ----------------
#NOTES:
     dance-single:
     :
     Medium:
     9:
     :
0000
0000
0000
0000
,
0000
0000
0000
0000
,
1000
0000
0000
1000
0000
0000
1000
0000
0000
1000
0000
0000
1000
0000
0000
0000
,
0001
0000
0000
0001
0000
0000
0001
0000
0000
0000
1000
0000
0001
0000
0000
0000
,
0011
0000
2200
0000
3300
0001
0100
0000
,
1010
0000
0202
0000
0303
0010
1000
0000
,
0100
0000
0000
0100
0000
0000
0100
0000
0000
0100
0000
0000
0100
0000
0000
0000
,
0010
0000
0000
0010
0000
0000
0010
0000
0000
0000
0000
0000
0001
0000
0000
0000
,
2000
0000
3020
0000
0030
0100
0001
0000
,
0020
0000
0032
0000
0003
1000
0100
0000
,
0010
0000
0000
0010
0000
0000
0010
0000
0000
0010
0000
0000
0010
0000
0000
0000
,
0100
0000
0000
0100
0000
0000
0100
0000
0000
0000
0010
0000
0100
0000
0000
0000
,
2000
0000
3002
0000
0003
0010
0100
0000
,
0020
0000
0230
0000
0300
1000
0001
0000
,
0001
0000
0000
0001
0000
0000
0001
0000
0000
0001
0000
0000
0001
0000
0000
0000
,
1000
0000
0000
1000
0000
0000
1000
0000
0000
0000
0001
0000
1000
0000
0000
0000
,
0010
0000
0000
1000
0000
0000
2020
0000
0000
0000
0000
0000
3030
0000
0000
0000
,
0001
0000
0000
0100
0000
0000
0202
0000
0000
0000
0000
0000
0303
0000
0000
0000
,
1000
0000
0000
0100
0000
0000
2200
0000
0000
0000
0000
0000
3300
0000
0000
0000
,
0001
0000
0000
0010
0000
0000
0022
0000
0000
0000
0000
0000
0033
0000
0000
0000
,
0001
0000
0000
1000
0000
0000
2002
0000
0000
0000
0000
0000
3003
0000
0000
0000
,
0100
0000
0000
0010
0000
0000
0220
0000
0000
0000
0000
0000
0330
0000
0000
0000
,
1000
0000
0000
1000
0000
0000
1000
0000
0000
0000
0001
0000
0000
0000
0000
0000
,
0100
0000
0000
0100
0000
0000
0100
0000
0000
0000
0000
0000
0000
0000
0000
0000
,
1002
0000
0013
0000
0001
0100
1000
0000
,
0120
0000
1030
0000
0100
0010
0001
0000
,
2000
0001
0100
3020
,
0130
0000
0000
0001
0000
0000
1000
0000
0100
0000
0000
1000
0000
0000
0001
0000
,
0200
0000
0310
0000
1000
0100
0001
0000
,
2000
0000
3010
0000
0100
0001
1000
0000
,
0001
0000
0000
0010
0000
0000
0001
0000
1000
0000
0000
0100
0000
0000
1000
0000
,
0010
0000
0000
0100
0000
0000
0010
0000
2000
0000
0000
0000
3002
0000
0000
0000
,
0013
0000
0000
0001
0100
0000
0000
0000
0220
0000
0000
0000
0330
0000
0000
0000
,
0001
0000
0000
1000
0100
0000
0000
0000
2002
0000
0000
0000
3003
0000
0000
0000
,
0010
0000
0000
1000
0000
0000
0002
0000
0000
0000
0000
0000
0203
0000
0000
0000
,
0301
0000
0000
0001
0000
0000
0001
0000
1000
0000
0000
1000
0000
0000
1000
0000
,
0002
0000
0013
0000
1000
0100
0010
0000
,
0200
1300
0002
0103
,
0010
0000
0000
2000
0000
0000
0000
0000
3001
0000
0000
0100
0000
0000
0001
0000
,
1000
0000
0000
1000
0000
0000
1000
0000
0000
0000
0000
0000
0000
0000
0000
0000
,
2002
0000
0000
0000
3003
1000
0001
1000
,
0002
0023
0230
2300
,
3020
0000
0000
0000
0030
0100
0001
0100
,
0001
0000
0012
0000
1003
0001
1000
0001
,
0200
0320
2030
3002
,
0023
0030
0101
1100
,
0002
0013
2000
3100
,
0020
0031
0200
1300
,
0220
0000
0000
0000
0330
0001
0010
0001
,
0020
2030
3020
0032
,
0203
0000
0000
0000
0300
0010
1000
0010
,
1000
0000
1010
0000
0001
1000
0001
1000
,
0200
0320
0032
2003
,
3002
0003
0011
1010
,
0200
1300
0002
0013
,
0002
0000
1003
0001
1000
0100
0010
0000
,
0011
0000
2200
0000
3300
1000
0001
0000
,
1010
0000
0202
0000
0303
0100
0010
0000
,
0100
0000
0000
0100
0000
0000
0100
0000
0000
0100
0000
0000
0100
0000
0000
0000
,
0001
0000
0000
0001
0000
0000
0001
0000
0000
0000
0100
0000
0001
0000
0000
0000
,
1100
2020
0000
3030
,
0101
0022
0000
0033
,
1000
0000
0000
1000
0000
0000
1000
0000
0000
1000
0000
0000
1000
0000
0000
0000
,
0010
0000
0000
0010
0000
0000
0010
0000
0000
0000
0000
0000
0000
0000
0000
0000
;

//---------------dance-single - ----------------
#NOTES:
     dance-single:
     :
     Hard:
     12:
     :
0000
0000
0000
0000
,
0000
0000
0000
0000
,
2000
0000
0000
3002
0000
0000
0023
0000
0000
0032
0000
0000
0203
0000
0000
0000
,
0320
0000
0000
2030
0000
0000
3200
0000
0000
0000
0010
0000
0310
0000
0000
0000
,
0011
0000
0000
0000
1100
0000
0000
0001
1000
0000
0100
0000
0010
0000
0001
0000
,
0101
0000
0000
0000
1010
0000
0000
0100
1000
0000
0001
0000
0100
0000
0010
0000
,
2000
0000
0000
3002
0000
0000
0023
0000
0000
0032
0000
0000
0203
0000
0000
0000
,
0320
0000
0000
2030
0000
0000
3001
0000
0000
0000
0000
0000
0200
0000
0000
0000
,
0310
0000
1000
0100
2000
0000
0000
0000
0000
0000
0000
0000
3001
0000
0000
0000
,
0010
0000
0001
0100
0002
0000
0000
0000
0000
0000
0000
0000
1003
0000
0000
0000
,
0020
0000
0000
1000
0000
0000
0001
0000
0000
1000
0000
0000
0130
0000
0000
0000
,
0002
0000
0000
2003
0000
0000
3100
0000
0010
0000
0001
0000
0200
0000
0000
0000
,
0301
0000
0100
0010
0200
0000
0000
0000
0000
0000
0000
0000
0301
0000
0000
0000
,
1000
0000
0010
0100
0020
0000
0000
0000
0000
0000
0000
0000
1030
0000
0000
0000
,
0002
0000
0000
0010
0000
0000
1000
0000
0000
0010
0000
0000
0103
0000
0000
0000
,
0020
0000
0000
2030
0000
0000
3200
0000
0000
0000
1300
0001
1000
0000
0000
0000
,
1100
0000
0000
0100
0010
0000
0002
0000
0000
0000
1003
0100
1000
0000
0000
0000
,
0101
0000
0000
0001
0010
0000
0200
0000
0000
0000
1300
0010
1000
0000
0000
0000
,
0002
0000
0000
2003
0000
0000
3002
0000
0000
0023
0000
0000
0230
0000
0000
0000
,
2300
0000
0000
3020
0000
0000
0230
0000
0000
0000
0301
0010
0001
0000
0000
0000
,
0011
0000
0000
0100
0001
0000
2000
0000
0000
0000
3010
0100
0010
0000
0000
0000
,
1010
0000
0000
1000
0001
0000
0020
0000
0000
0000
0130
1000
0100
0000
0000
0000
,
2000
0000
0000
3002
0000
0000
0203
0000
0000
0000
0310
0000
1000
0000
0100
0000
,
1100
0000
0000
0110
0000
0000
0011
0000
0020
0000
0000
0000
0130
0000
0000
0000
,
1001
1000
0001
1000
0020
0100
0130
0000
,
0001
1000
0001
0010
0200
1000
1300
0000
,
0010
0000
1000
0001
0000
1000
0002
0000
0000
0000
0100
0000
0103
0000
0000
0000
,
0110
0000
0000
0010
1000
0000
0001
0000
1001
0000
0000
0100
0010
0000
1000
0000
,
0010
0000
0000
0100
0001
0000
2000
0000
0000
0000
0010
0000
3010
0000
0100
0000
,
0001
0000
0000
0010
0001
0000
0100
0000
0010
0000
0000
1000
0001
0000
1000
0000
,
0200
1000
1300
0001
2000
0010
3010
0100
,
0101
0000
0000
1100
0000
0000
0101
0000
0002
0000
0000
0000
0023
0000
0000
0000
,
0031
0000
0100
0010
0000
0100
0010
0000
2000
0000
0000
0000
3001
0000
0000
0000
,
0010
0000
0001
1000
0000
0001
1000
0000
0020
0000
0000
0000
0130
0000
0010
0000
,
0100
0000
0000
0001
1000
0000
0200
0000
0000
0000
1300
0000
1010
0000
0000
0000
,
0101
0000
0000
0001
1000
0000
0100
0000
1100
0000
0000
0010
0100
0000
0001
0000
,
0010
0000
0001
0100
0000
0100
0002
0000
0000
0000
0010
0000
0013
0000
0000
0000
,
0001
0000
0000
0100
0010
0000
1000
0000
0100
0000
0000
0010
0001
0000
1000
0000
,
0010
0100
0010
0100
0001
1000
0001
1000
,
1010
0000
0000
1001
0000
0000
0011
0000
0000
0000
0000
0000
0000
0000
0000
0000
,
0120
0000
0002
0000
0033
0100
0010
1000
,
0002
2003
3200
0320
,
0230
0000
1000
1300
0000
0001
1000
0100
,
0010
0000
0000
0001
2000
0000
0000
0000
3001
0000
1000
0000
0100
0000
0010
0000
,
0002
0023
0032
2003
,
3100
0000
0000
0010
0001
0000
0000
0000
2000
0000
0000
0000
3002
0000
0000
0000
,
0013
0001
0100
0010
1000
0100
1000
0001
,
0100
0000
0000
0010
1000
0000
0001
0000
0010
0000
0000
0001
1000
0000
0100
0000
,
1100
0000
0000
0001
1000
0000
0002
0000
0000
0000
0100
0000
0103
0000
0010
0000
,
0100
0101
0011
0110
,
1100
0000
0001
0000
1000
0000
0100
0000
0000
0010
0001
0000
1000
0000
0010
0000
,
0100
0000
2001
0000
3001
0010
0001
1000
,
0200
2300
3020
0032
,
0023
1000
1030
0000
1010
0000
0011
0000
,
0100
0001
0000
0100
0001
0000
0010
0000
0100
1000
0000
0100
1000
0000
0001
0000
,
0100
0010
1000
0001
0010
0100
1000
0001
,
0011
0000
0000
0000
1100
0000
0000
0001
1000
0000
0100
0000
1000
0000
0010
0000
,
1010
0000
0000
0000
0101
0000
0000
0010
0001
0000
0100
0000
0001
0000
1000
0000
,
0002
0000
0000
0023
0000
0000
0230
0000
0000
2300
0000
0000
3200
0000
0000
0000
,
2300
0000
0000
3002
0000
0000
0023
0000
0000
0000
0100
0000
0130
0000
0000
0000
,
1100
0000
0000
0000
0101
0000
0000
0010
0001
0000
0100
0000
1000
0000
0001
0000
,
0011
0000
0000
0000
1010
0000
0000
0100
1000
0000
0001
0000
0010
0000
0100
0000
,
2000
0000
0000
3020
0000
0000
2030
0000
0000
3002
0000
0000
0203
0000
0000
0000
,
0310
0000
0000
1001
0000
0000
0110
0000
0000
0000
0000
0000
0000
0000
0000
0000
;

//---------------dance-single - ----------------
#NOTES:
     dance-single:
     :
     Challenge:
     15:
     :
0000
0000
0000
0000
,
0000
0000
0000
0000
,
2000
0000
0000
3020
0000
0000
0230
0000
0000
0302
0000
0000
0013
0000
0000
0000
,
0101
0000
0000
1100
0000
0000
0101
0000
0000
1000
0100
0010
0001
0010
0100
1000
,
0010
0000
0000
1000
0001
0000
0010
0000
0100
0000
0001
0000
0100
1000
0001
0000
,
0100
0000
0000
0001
1000
0000
0010
0000
0001
0000
0010
1000
0100
1000
0000
0001
,
0200
0000
0000
0320
0000
0000
2030
0000
0000
3002
0000
0000
0103
0000
0000
0000
,
1010
0000
0000
0101
0000
0000
1010
0000
0000
0000
0000
0000
0001
0000
0000
0000
,
0010
0000
0001
0100
0001
0000
0010
0000
0100
0000
1000
0000
0010
1000
0000
0000
,
0100
0000
0010
0001
0010
0000
0100
0000
1000
0000
0010
1000
0001
1000
0000
0000
,
0100
0000
1000
0010
0000
0010
0100
0000
0100
0001
0000
0001
1000
0000
0010
0000
,
0100
0000
0000
0000
0000
0000
0001
0000
0000
1000
0000
0000
0000
0000
0000
1000
0000
0000
0001
0000
0000
0000
0000
0000
0010
0000
0000
0000
0100
0000
0000
0000
1000
0000
0000
0000
0010
0000
0000
0000
0100
0000
0000
0000
0001
0000
0000
0000
,
0010
0000
0001
1000
0001
0000
0100
0000
0010
0000
1000
0000
0010
0100
0001
0000
,
0010
0000
0100
1000
0100
0000
0010
0000
0001
0000
1000
0010
1000
0001
0000
0100
,
0010
0000
1000
0001
0000
0001
0100
0000
0100
0010
0000
0010
1000
0000
0001
0100
,
0001
0000
0010
0100
0000
0100
1000
0000
0000
0000
0010
1000
0001
0000
0100
0010
,
1000
0000
0100
1000
0001
0000
0012
0000
0000
0103
0010
0000
1000
0001
0100
0000
,
0010
0000
1000
0001
0100
0000
0120
0000
0000
0000
1030
0100
1000
0000
0010
0100
,
0001
0000
0010
0001
0000
1000
0020
0000
0000
0130
0010
0000
1000
0001
0010
0100
,
1000
0000
0000
0000
0000
0000
0010
0000
0000
0100
0000
0000
0000
0000
0000
0100
0000
0000
0002
0000
0000
0000
0000
0000
0000
0000
0000
0000
0000
0000
0013
0000
0000
0001
0000
0000
1000
0000
0000
0000
0010
0000
0000
0000
0100
0000
0000
0000
,
0001
0000
0000
0000
0000
0000
0010
0000
0000
0100
0000
0000
1000
0000
0000
0000
0010
0000
0000
0000
1000
0000
0000
0000
0001
0000
0000
0000
0000
0000
0100
0000
0000
0010
0000
0000
0100
0000
0000
0001
0000
0000
1000
0000
0000
0000
0000
0000
,
0100
0000
0000
0000
0000
0000
0001
0000
0000
0010
0000
0000
0001
0000
0000
0000
0000
0000
1000
0000
0000
0100
0000
0000
1000
0000
0000
0000
0001
0000
0000
0000
0010
0000
0000
0000
0100
0000
0000
0000
1000
0000
0000
0000
0010
0000
0000
0000
,
0100
0000
0001
1000
0000
0010
0100
0000
1000
0010
2000
0000
3001
0000
0100
0000
,
0110
0000
0000
1001
0000
0000
0110
0000
1002
0000
0000
0000
1003
0001
1000
0001
,
0100
0000
0010
1000
0010
0100
0001
0000
0010
0000
0001
0000
0100
0010
1000
0000
,
0100
0000
1000
0010
1000
0000
0001
0010
0001
0000
1000
0100
1000
0000
0001
0100
,
0001
0000
0010
0100
1000
0000
0010
0000
1000
0000
0001
0000
0100
0010
0100
0000
,
0001
0000
0010
0001
0010
0100
1000
0000
0010
0000
1000
0100
1000
0000
0001
0100
,
0010
0000
1000
0001
0010
0001
0100
0000
0010
0000
1000
0100
1000
0000
0001
0100
,
0001
0000
0010
0100
0010
0000
0001
0000
1000
0000
0100
1000
0001
0000
0100
0010
,
1000
0000
0100
0010
0100
1000
0001
0000
0010
0000
0001
0100
0001
1000
0010
0000
,
1000
0000
0100
0010
0000
0010
0001
0000
0100
0001
0100
0001
0010
0100
1000
0100
,
1000
0000
0010
1000
0001
0010
0100
0000
1000
0000
0001
0000
0100
0000
0010
0000
,
0100
0000
0001
0010
1000
0010
0001
0000
0100
0000
0010
0000
1000
0000
0001
0000
,
0100
0000
0010
1000
0000
1000
0001
0000
0010
0000
0001
0000
0100
0000
0010
1000
,
0001
0000
0010
0001
1000
0001
0100
0000
0010
0000
1000
0100
1000
0010
0100
0000
,
0001
0000
0010
0001
1000
0001
0100
0000
0010
0000
1000
0000
0100
0010
0001
0000
,
0100
0000
0010
1000
0100
0010
0001
0000
1000
0000
0001
0000
0100
0000
0010
1000
,
0001
0010
0001
0010
0100
0010
0100
0010
0001
1000
0001
1000
0100
1000
0100
1000
,
0001
0000
0000
0011
0000
0000
1010
0000
0000
0000
0000
0000
0000
0000
0000
0000
,
1002
0000
0200
0000
0303
0010
1000
0001
,
1000
0000
0100
0000
0010
0001
0010
0000
0001
0000
0100
0000
0010
0000
1000
0001
,
1000
0000
0000
0000
1010
0000
0100
0001
0100
0000
0010
0000
1000
0000
0001
0010
,
0001
1000
0100
0000
0010
0000
0001
0100
0001
0000
1000
0010
1000
0000
0100
0010
,
0001
0000
0100
0010
0100
0000
1000
0000
0100
0000
0001
0010
0001
0000
1000
0000
,
0100
1000
0001
1000
0010
0100
0001
1000
,
0010
0000
0100
0001
0100
0000
0010
0000
1000
0001
1000
0000
0100
0000
0010
0000
,
0001
1000
0000
1000
0010
0100
0001
0000
0010
0000
0001
0100
0010
1000
0100
0010
,
0001
0000
0000
0010
0001
0000
0100
0000
1000
0000
0100
0000
0001
1000
0010
0000
,
0100
0000
0001
0010
0001
0000
0010
0100
1000
0000
0100
1000
0001
0000
1000
0010
,
1000
0000
0100
0000
0011
0000
0100
0000
0000
0001
1000
0000
0010
0100
0001
1000
,
0010
0000
1000
0000
1100
0000
1000
0001
0010
0000
0100
0000
0001
0000
0100
0000
,
1000
0000
0010
0000
0100
0000
0010
0000
0001
0010
1000
0000
0100
1000
0001
0000
,
0010
0000
0001
0000
0100
0000
0010
0000
1000
0001
1000
0000
0100
0000
0010
0000
,
0001
1000
0000
0010
0100
0000
0001
0000
0010
0100
0000
1000
0001
0000
0100
0000
,
0010
0000
1000
0001
0010
0001
0100
0010
1000
0000
0100
0000
1000
0000
0001
0000
,
0010
0000
0001
0100
0010
0000
1000
0100
0010
0000
0001
0000
1000
0100
1000
0000
,
0010
0000
0100
0001
0010
0000
0100
1000
0010
0000
1000
0001
0100
0010
1000
0000
,
0100
0000
1000
0010
0000
0010
0100
0000
0100
0001
0000
0001
2000
0000
0000
0000
,
3100
0000
1000
0010
0000
0010
0100
0000
0001
1000
0001
0000
0100
0000
0010
0000
,
1000
0000
0100
0010
0001
0000
0100
0010
1000
0000
0001
0000
1000
0010
0100
0000
,
0001
0000
0010
0100
1000
0000
0010
1000
0001
0000
0100
0000
0010
1000
0010
0100
,
0001
0000
0010
0001
0000
0001
1000
0000
1000
0010
0000
0100
0001
0000
1000
0100
,
2000
0000
0000
0001
0000
0000
3001
0000
0000
0000
0000
0000
0000
0000
0000
0000
;
