#TITLE:ULTRA HIGH-HEELS;
#ARTIST:dj TAKA feat. Angel;
#BANNER:ULTRA HIGH-HEELS-bn.png;
#BACKGROUND:ULTRA HIGH-HEELS-bg.png;
#JACKET:ULTRA HIGH-HEELS-jacket.png;
#MUSIC:ULTRA HIGH-HEELS.ogg;
#SAMPLESTART:51;
#SAMPLELENGTH:20;
#DISPLAYBPM:160;
#BPMS:0=160;
#BGCHANGES:;

//---------------dance-single - ----------------
#NOTES:
     dance-single:
     :
     Beginner:
     3:
     :
0000
0000
0000
0000
,
0000
0000
0000
0000
,
1000
0000
0100
0000
,
1000
0000
0001
0000
,
0100
0000
0010
0000
,
1000
0000
0000
0000
,
0010
0000
1000
0000
,
0100
0000
0010
0000
,
0001
0000
0100
0000
,
0001
0000
0000
0000
,
0100
0000
0001
0000
,
0001
0000
1000
0000
,
1000
0000
0000
0000
,
0010
0000
0100
0000
,
0010
0000
1000
0000
,
1000
0000
0001
0000
,
0001
0000
0000
0000
,
0010
0000
0001
0000
,
0100
0000
0010
0000
,
1000
0000
0010
0000
,
0100
0000
0000
0000
,
0001
0000
0001
0000
,
0001
0000
0010
0000
,
0001
0000
0100
0000
,
0010
0000
0000
0000
,
1000
0000
1000
0000
,
1000
0000
0010
0000
,
1000
0000
0100
0000
,
0010
0000
0000
0001
,
0002
0000
0000
0000
,
0003
0000
0100
0000
,
0010
0000
1000
0000
,
0100
0000
0000
1000
,
1000
0000
0001
0000
,
0010
0000
0010
0000
,
0001
0000
0001
0000
,
0100
0000
0100
0000
,
1000
0000
1000
0000
,
0010
0000
0100
0000
,
0001
0000
1000
0000
,
0001
0002
0000
0000
,
0003
0000
0000
0000
,
1000
0000
1000
0000
,
0010
0000
0010
0000
,
0001
0000
0001
0000
,
0100
0000
0100
0000
,
0010
0000
1000
0000
,
0100
0100
0000
0000
,
1000
0000
0001
0000
,
0010
0000
0001
0000
,
0100
0000
0010
0000
,
1000
0000
0000
0000
,
0010
0000
1000
0000
,
0100
0000
1000
0000
,
0001
0000
0010
0000
,
0001
0000
0000
0000
,
0100
0000
0000
0000
,
0010
0000
0000
0000
,
1000
0000
0000
0000
,
0001
0000
0000
0000
,
0100
0000
0000
0000
;

//---------------dance-single - ----------------
#NOTES:
     dance-single:
     :
     Easy:
     6:
     :
0000
0000
0000
0000
,
0000
0000
0000
0000
,
1000
0001
1000
0100
,
0010
0010
0010
0010
,
0001
0100
0001
2000
,
0000
0000
0000
3000
,
0010
1000
0100
0010
,
0001
0001
0001
0001
,
0100
0010
1000
0002
,
0000
0000
0000
0003
,
0010
1001
0001
0100
,
1000
0000
0010
0100
,
0001
0000
0000
0010
,
0001
1000
0001
0010
,
0100
0110
1000
0001
,
0100
0000
0010
1000
,
0100
0000
0000
1000
,
0001
0001
1000
0001
,
0100
1001
0010
1000
,
0100
0000
1000
0010
,
0001
0000
0000
0100
,
0010
0010
1000
0001
,
0010
0110
0100
1000
,
0001
0000
0010
0001
,
1000
0000
0000
0010
,
1000
0100
1000
0100
,
0010
0110
0001
0100
,
1000
0000
0010
1000
,
0100
0010
0000
0001
,
2000
0000
0010
3010
,
0000
1001
0001
0100
,
1000
0000
0010
1000
,
0100
0020
0000
0031
,
1000
1000
0001
0001
,
0010
0001
0100
0000
,
0010
1000
0100
0000
,
1000
0010
0001
0000
,
0100
0010
1000
0000
,
0100
0010
0001
0000
,
0010
0001
1000
0000
,
0110
2002
0000
0000
,
0003
0010
0100
3100
,
1000
0001
0010
0000
,
0001
0100
1000
0000
,
0010
1000
0100
0000
,
1000
0001
1000
0000
,
0010
0100
0010
0100
,
1001
0110
0000
0010
,
1000
0100
0010
0001
,
0100
0100
0100
0100
,
0010
1000
0100
0020
,
0000
0000
0000
0030
,
0001
0010
0001
0100
,
1000
1000
1000
1000
,
0100
1000
0001
0200
,
0000
0000
0000
0300
,
0010
0000
1001
0000
,
0001
0000
1001
0000
,
1000
0000
0110
0000
,
0100
0000
0110
0000
,
0100
0000
0000
0000
;

//---------------dance-single - ----------------
#NOTES:
     dance-single:
     :
     Medium:
     9:
     :
0000
0000
0000
0000
,
0000
0000
0000
0000
,
1000
0100
0001
0000
0010
0100
1000
0000
,
0001
0000
0001
0000
0001
0100
0010
0000
,
1000
0001
0010
0000
0001
0100
0010
2000
,
0000
0000
0000
0002
0000
0000
3003
0000
,
0010
0001
0100
0000
0010
1000
0001
0000
,
1000
0000
1000
0000
1000
0010
0001
0000
,
0100
0010
1000
0000
0100
0010
0001
2000
,
0000
0000
0000
3000
,
0110
0000
1001
0000
0001
0100
0010
1000
,
0000
0000
0000
1000
0100
1000
0001
0100
,
0000
0000
0000
0000
0000
0010
1000
0002
,
0000
0023
0000
0032
0000
2003
0000
3020
,
0000
0000
0130
0000
0010
1000
0010
0100
,
0000
0000
0000
0001
0010
0001
0010
0100
,
0000
0000
0000
0000
0000
1000
0100
2000
,
0000
3020
0000
0230
0000
0302
0000
0013
,
0000
0000
1001
0000
0001
0010
0001
1000
,
0000
0000
0000
0100
1000
0010
0100
0001
,
0000
0000
0000
0000
0000
0010
0001
0020
,
0000
0230
0000
2300
0000
3002
0000
0103
,
0000
0000
0110
0000
0100
0010
1000
0001
,
0000
0000
0000
0010
0001
0010
0100
1000
,
0000
0000
0000
0000
0000
1000
0100
0002
,
0000
2003
0000
3002
0000
0203
0000
0320
,
0000
0000
1030
0000
0001
0100
0000
0101
,
0000
0000
0000
0000
1000
0001
0000
0101
,
0000
1010
0000
0000
0000
0010
1000
0002
,
0000
0000
0000
0103
0010
0100
0010
0100
,
0000
0000
0110
0000
0001
1000
0000
0010
,
0000
0000
0000
0000
1000
0100
0000
1100
,
0000
0022
0000
0003
0000
0031
1000
0002
,
0100
0000
0100
0000
0103
0001
1000
0000
,
0010
1000
0010
1000
0010
1000
0000
0000
,
0001
0100
0001
0100
0001
0100
0000
0000
,
0001
0010
0001
0010
0001
0010
0000
0000
,
0100
1000
0100
1000
0100
1000
0000
0000
,
0010
0100
0010
0100
0010
0100
0000
0000
,
0001
1000
0001
1000
0001
1000
0000
0200
,
0000
1300
0002
0000
0000
0000
0003
0000
,
0011
0101
1010
1100
,
0001
0100
0001
0100
0001
0100
0000
0000
,
0010
1000
0010
1000
0010
1000
0000
0000
,
1000
0100
1000
0100
1000
0100
0000
0000
,
0010
0001
0010
0001
0010
0001
0000
0000
,
1000
0100
1000
0000
0001
0010
0100
0000
,
1001
0000
0110
0000
0000
0001
1000
0001
,
0010
0100
1000
0000
0010
1000
0001
0000
,
0100
0000
0100
0000
0100
0010
1000
0000
,
0001
0010
0100
0000
1000
0010
1000
0002
,
0000
0000
0000
0203
,
0301
0010
1000
0000
0010
1000
0100
0000
,
0010
0000
0010
0000
0010
0001
1000
0000
,
0100
1000
0001
0000
0010
0001
1000
0020
,
0000
0000
0000
0030
,
1000
1010
0001
0101
,
0010
0011
0100
1100
,
1000
1001
0001
1001
,
0010
0101
0100
1010
,
0100
0000
0000
0000
;

//---------------dance-single - ----------------
#NOTES:
     dance-single:
     :
     Hard:
     12:
     :
0000
0000
0000
0000
,
0000
0000
0000
0000
,
1000
0000
0001
0000
0100
0000
0000
0010
0000
1000
0010
0000
0100
0000
0001
0000
,
0020
0000
0000
0031
0000
0000
2000
0000
0000
3001
0000
0000
0100
0000
0010
0000
,
1000
0000
0100
0000
0010
0000
0000
0001
0000
1000
0001
0000
0100
0000
0020
0000
,
1000
0000
0100
0000
1000
0000
0130
0010
,
0100
0000
0001
0000
1000
0000
0000
0100
0000
0010
0100
0000
1000
0000
0001
0000
,
0200
0000
0000
0310
0000
0000
2000
0000
0000
3001
0000
0000
0010
0000
0001
0000
,
0100
0000
0001
0000
0010
0000
0000
0001
0000
1000
0001
0000
0100
0000
0020
0000
,
1000
0000
0001
0000
1030
0010
0100
0001
,
0010
0000
1100
0000
0001
1000
0100
0010
,
0001
0000
0100
0010
1000
0001
1000
0100
,
0010
0000
0011
0000
0001
0100
0010
2000
,
0000
3200
0000
0320
0000
0032
0000
0103
,
0010
0000
1001
0000
0010
1000
0001
0100
,
0001
0000
0010
0001
1000
0010
1000
0001
,
0100
0000
0110
0000
0001
1000
0100
0010
,
0001
0100
0001
0010
0001
1000
0100
0010
,
0110
0000
1001
0000
0010
1000
0001
0010
,
0100
0000
1000
0010
1000
0001
0100
0010
,
1000
0000
0100
1000
0001
1000
0100
0020
,
0000
0032
0000
2003
0000
3020
0000
0130
,
0101
0000
1100
0000
0010
0100
0010
1000
,
0100
0000
1000
0001
0010
0100
0010
0001
,
0100
0010
1000
0010
1000
0100
0010
0002
,
0000
2003
0000
3200
0000
0320
0000
0031
,
1001
0000
0011
0000
1000
0001
0010
0100
,
1100
0000
0101
0000
0010
1000
0001
0100
,
0001
0010
1000
0000
0100
1000
0001
0200
,
0010
0000
0310
0100
0001
0100
0001
1000
,
0100
0000
1010
0000
0001
0010
0100
1000
,
0010
0000
0101
0000
1000
0001
1000
0100
,
0010
0001
0010
0100
0010
0001
1000
0010
,
0110
0000
1001
0000
1000
0100
0001
0000
,
0010
0001
0100
0001
1000
0100
0000
2100
,
0000
3010
1000
0100
1000
0001
0000
0021
,
0000
0130
0010
0001
0100
0001
0000
1020
,
0000
0130
0010
1000
0100
0010
0001
0000
,
1000
0010
0001
1000
0100
0001
0000
0102
,
0000
0013
0001
1000
0001
0010
0000
0210
,
0000
1300
1002
0000
0010
0000
0103
0000
,
0001
0010
0100
1000
0100
0010
0001
0000
,
0001
0100
0010
1000
0100
1000
0000
1020
,
0000
0130
0001
0010
0001
1000
0000
2100
,
0000
3010
1000
0001
0010
0100
0000
0021
,
0000
0031
0100
0010
1000
0100
0001
0000
,
0100
0010
0100
0010
1000
0001
1000
0100
,
0110
0000
0000
0000
0001
1000
0001
1000
0000
0000
0001
1000
0001
0000
0100
0000
,
0010
0000
1000
0000
0100
0000
0000
1000
0000
0001
0010
0000
0100
0000
0010
0000
,
0002
0000
0000
1003
0000
0000
0020
0000
0000
1030
0000
0000
0100
0000
0010
0000
,
0001
0000
0100
0000
0010
0000
0000
1000
0000
0100
0010
0000
0001
0000
2000
0000
,
0010
0100
3001
0101
,
1100
0000
0001
0000
1000
0000
0000
0010
0000
1000
0001
0000
0010
0000
0100
0000
,
2000
0000
0000
3010
0000
0000
0200
0000
0000
0301
0000
0000
0010
0000
0100
0000
,
1000
0000
0010
0000
0001
0000
0000
0100
0000
0001
0010
0000
0100
0000
2000
0000
,
0010
0000
0100
0000
0010
0000
3100
1000
,
0001
0000
0010
0000
0000
0001
0000
0000
0100
0000
0000
0100
0000
0000
0100
0000
,
0000
0000
0010
0000
0000
1000
0000
0000
0001
0000
0000
0001
0000
0000
0001
0000
,
0000
0000
0100
0000
0000
0010
0000
0000
1000
0000
0000
1000
0000
0000
1000
0000
,
0000
0000
0001
0000
0000
1000
0000
0000
0010
0000
0000
0010
0000
0000
0010
0000
,
0100
0000
0000
0000
;
