#TITLE:ULTRA HIGH-HEELS;
#SUBTITLE:-super euro version-;
#ARTIST:dj TAKA with B4 ZA BEAT;
#BANNER:ULTRA HIGH-HEELS -super euro version--bn.png;
#BACKGROUND:ULTRA HIGH-HEELS -super euro version--bg.png;
#JACKET:ULTRA HIGH-HEELS -super euro version--jacket.png;
#MUSIC:ULTRA HIGH-HEELS -super euro version-.ogg;
#SAMPLESTART:57;
#SAMPLELENGTH:20;
#DISPLAYBPM:160;
#BPMS:0=160;
#BGCHANGES:;

//---------------dance-single - ----------------
#NOTES:
     dance-single:
     :
     Beginner:
     4:
     :
0000
0000
0000
0000
,
0000
0000
0000
0000
,
0000
0000
0000
0000
,
0000
0000
0000
0000
,
1000
1000
1000
1000
,
1000
0000
0000
0000
,
0001
0001
0001
0000
,
0010
0000
0001
0000
,
0100
0100
0100
0000
,
0010
0000
1000
0000
,
0100
0100
0100
0000
,
1000
0000
0001
0000
,
0010
0010
0010
0020
,
0000
0000
0000
0030
,
0000
0000
0001
0000
,
1000
0000
0010
0000
,
1000
0000
1001
0000
,
0010
0000
1000
0000
,
0100
0000
0010
0000
,
0001
0000
0100
0000
,
0010
0000
0110
0000
,
0001
0001
0001
0001
,
0000
0000
0010
0000
,
0001
0000
0100
0000
,
0010
0000
0000
0010
,
0010
0000
1000
0000
,
0100
0100
0100
0000
,
1000
0000
0001
0000
,
0010
0000
0000
0001
,
0001
0001
0001
0000
,
0100
0000
0010
0000
,
1000
0000
0010
0000
,
0100
0000
0000
0001
,
0002
0000
0000
0003
,
0000
0000
1000
0000
,
0001
0000
0010
0000
,
0100
0100
0100
0100
,
0100
0100
0000
0000
,
1000
0000
0001
0000
,
1000
0000
0010
0000
,
0100
0000
0001
0000
,
0010
0000
0100
0000
,
1000
0000
0010
0000
,
1000
0000
0100
0000
,
0001
0002
0000
0003
,
0000
0010
0010
0010
,
0010
0000
0001
0000
,
0100
0000
0010
0000
,
1000
0000
0001
0000
,
1000
0000
0100
0000
,
0010
0010
0010
0010
,
0010
0000
0000
0000
,
0001
0001
0001
0000
,
0010
0000
0100
0000
,
1000
1000
1000
0000
,
0010
0000
1000
0000
,
0100
0100
0100
0000
,
0010
0000
0001
0000
,
1000
1000
1000
2000
,
0000
0000
3000
0000
,
1000
0000
0000
0000
,
0001
0000
0000
0000
,
0100
0000
0000
0000
;

//---------------dance-single - ----------------
#NOTES:
     dance-single:
     :
     Easy:
     7:
     :
0000
0000
0000
0000
,
0000
0000
0000
0000
,
0000
0000
0000
0000
,
0000
0000
0000
0000
,
1000
0001
1000
0001
,
0100
0100
0100
0100
,
0010
1000
0100
0010
,
0001
0101
1000
1100
,
0010
1000
0001
0100
,
0001
0011
1000
1010
,
0010
1000
0100
0010
,
0001
1001
0100
0110
,
0010
1000
0100
0010
,
0001
0100
1000
0010
,
0100
0010
1000
0001
,
0010
0000
0001
0100
,
0000
1000
0000
0001
1000
0000
0000
0000
,
0010
1000
0100
0001
,
0010
0100
1000
0001
,
0100
0000
0001
0010
,
0000
1001
0000
0000
0000
0110
0000
0000
,
0001
0010
0001
1000
,
0100
0000
1000
0001
,
0100
0000
0010
1000
,
0100
0000
0000
0001
,
0010
0001
0100
1000
,
0010
0101
1000
0001
,
0100
0000
0010
1000
,
0100
0000
0000
1000
,
0001
0010
0001
0100
,
1000
0000
0010
0100
,
0010
0000
1000
0100
,
0001
1000
0000
0010
,
1000
1100
0001
0100
,
0010
0000
1000
0001
,
1000
0000
0100
0010
,
0001
0001
1000
1000
,
1001
0220
0000
0030
,
0301
0000
0001
0000
0001
2000
0000
0000
,
3010
0000
0010
0000
0010
0200
0000
0000
,
0301
0000
0010
0000
0001
0100
0000
0000
,
0010
0000
1000
0000
0001
0100
0001
0100
,
0001
0000
1000
0000
1000
0200
0000
0000
,
1300
0000
1000
0000
1000
0002
0000
0000
,
0013
0022
0000
0030
,
1003
0000
1010
0000
0001
0100
0001
0000
,
0010
0000
0010
0000
0010
0002
0000
0000
,
1003
0000
1000
0000
1000
0020
0000
0000
,
1030
0000
0001
0000
1000
0001
0000
0000
,
0010
0000
0001
0000
0100
0010
0100
0010
,
0100
0001
0010
0100
,
1000
1000
1000
1000
,
0001
1000
0001
0010
,
0100
1100
0001
0101
,
0010
1000
0001
0010
,
0100
0110
0001
1001
,
0010
1000
0001
0010
,
0001
1010
1000
0011
,
0100
0010
1000
0001
,
0010
0001
0100
1000
,
0002
0000
0000
0000
,
2003
0000
0000
0000
,
3100
0000
0000
0000
;

//---------------dance-single - ----------------
#NOTES:
     dance-single:
     :
     Medium:
     10:
     :
0000
0000
0000
0000
,
0000
0000
0000
0000
,
0000
0000
0000
0000
,
0000
0000
0000
0000
,
1000
0001
0100
0010
1000
0100
0010
0001
,
1000
1000
1000
1000
,
0001
0010
0100
0000
1000
0010
0100
0000
,
0010
1000
0001
0000
0010
0100
1000
0000
,
0010
0100
0001
0000
0010
0100
1000
0000
,
1100
0101
1010
0011
,
0001
0100
1000
0000
0010
0100
0010
0000
,
1000
0100
0010
0000
0001
0100
0001
0000
,
0010
0100
1000
0000
0010
0100
0001
1000
,
0000
0100
0000
0010
0000
0100
0010
0000
,
0001
0000
0011
0000
1000
0010
0100
0001
,
0000
0000
0000
0010
0001
1000
0001
0100
,
0000
0110
0000
2000
0002
0000
3003
0010
,
0000
0001
0000
0100
0000
0010
1000
0100
,
0000
0000
1100
0000
1000
0001
0010
0100
,
0000
0000
0000
1000
0010
1000
0100
0001
,
0000
0101
0000
0000
0000
1100
0000
0000
,
1001
0000
0000
0000
1000
0000
0000
0010
0000
0000
1000
0000
0001
0000
0100
0000
,
0000
0000
0010
0000
1000
0100
1000
0001
,
0000
0000
0000
0010
0001
0100
0010
1000
,
0000
0000
0000
0000
0000
0100
1000
0010
,
0000
0110
0000
1001
0000
1000
0001
0010
,
0000
0000
0011
0000
0100
1000
0001
0100
,
0000
0000
0000
0001
0010
0100
1000
0001
,
0000
0000
0000
0000
0000
0100
1000
0001
,
0100
0000
0000
0000
0010
0000
0000
1000
0000
0000
0001
0000
1000
0000
0100
0000
,
0010
0000
0001
0000
0100
0010
0000
1010
,
0000
1000
0000
0001
1000
0100
0000
1001
,
0000
0101
0000
0010
0000
1000
0001
0100
,
0010
0000
2000
0000
0000
3002
0000
0000
0023
0000
0000
0230
0000
0000
1300
0000
,
0000
0010
0000
0100
0001
1000
0000
0100
,
0000
0010
0000
0001
0100
0010
0000
1000
,
0001
0100
0001
0100
0010
1000
0100
0010
,
0002
2000
0000
3003
,
0010
1000
0010
1000
0010
2000
0000
0000
,
3001
0010
0001
0010
0001
0020
0000
0000
,
0130
1000
0100
1000
0100
1000
0000
0000
,
0001
0100
0001
0100
0001
0100
0000
0000
,
0010
0100
0010
0100
0010
0200
0000
0000
,
0301
1000
0001
1000
0001
2000
0000
3020
,
0000
2030
0002
0000
0000
0000
3000
0000
,
0013
0001
0100
0000
0011
0000
1010
0000
,
0100
1000
0100
1000
0100
2000
0000
0000
,
3001
0010
0001
0010
0001
0020
0000
0000
,
0031
0100
0001
0100
0001
0100
0000
0020
,
0000
1030
0010
1000
0010
1000
0100
0000
,
1000
0100
0010
0001
1000
0001
0100
0010
,
1000
1000
1000
1000
,
0001
0010
1000
0000
0100
1000
0001
0000
,
0010
0001
0100
0000
0001
0010
1000
0000
,
0100
1000
0010
0000
1000
0001
0010
0000
,
0011
1100
0101
1010
,
0010
0100
0010
0000
1000
0100
0001
0000
,
0010
0001
1000
0000
0100
1000
0001
0000
,
0010
0001
0100
0000
0010
1000
0001
1000
,
0000
0010
0000
0100
0000
0010
0100
0000
,
0002
0000
0000
0000
,
2003
0000
0000
0000
,
3100
0000
0000
0000
;

//---------------dance-single - ----------------
#NOTES:
     dance-single:
     :
     Hard:
     13:
     :
0000
0000
0000
0000
,
0000
0000
0000
0000
,
0000
0000
0000
0000
,
0000
0000
0000
0000
,
1000
0001
0100
0010
0100
0010
1000
0001
,
1000
0100
0010
0001
0010
0100
1000
0000
,
0010
0000
1000
0000
0100
0000
0000
1000
0000
0001
0100
0000
0010
0000
1000
0000
,
0100
1000
0000
1000
0001
0000
0000
0000
0100
0001
0000
0001
1000
0000
0000
0000
,
0010
0000
1000
0000
0001
0000
0000
0010
0000
0001
0100
0000
0010
0000
1000
0000
,
0100
0000
0000
1000
0001
0000
0000
0001
0100
0000
0000
0100
0010
0000
0000
1000
,
0001
0000
0010
0000
0100
0000
0000
1000
0000
0010
0100
0000
0001
0000
0010
0000
,
0100
1000
0000
1000
0001
0000
0000
0000
0100
0001
0000
0001
1000
0000
0000
0000
,
0010
0000
1000
0000
0100
0000
0000
1000
0000
0001
0010
0000
0001
0000
0100
0000
,
0010
0101
0000
1010
0000
1100
0101
0000
,
0010
0000
1000
0100
1000
0001
0010
0100
,
1000
0010
1000
0001
0010
0100
1000
0001
,
0100
0110
0000
1001
0110
0000
0001
0000
,
1000
0000
0010
0000
1000
0000
0001
0000
0010
0000
0100
1000
0000
1000
0001
0000
,
0010
0000
0011
0000
0001
0100
0010
1000
,
0100
1000
0010
0100
0001
0010
0001
1000
,
0010
1010
0000
0000
0010
1010
0000
0000
,
0001
0100
0000
0001
0100
0000
0010
1000
0000
0010
1000
0000
0100
0000
0010
0000
,
0001
1000
0010
1000
0100
0010
0001
0100
,
1000
0100
0010
0100
1000
0100
0001
0010
,
0001
1000
0100
0001
0100
1000
0001
0010
,
1000
0000
0010
0000
0100
0000
0010
0000
0001
0000
0100
0010
0000
0010
1000
0000
,
0100
0000
1000
0010
1000
0100
0001
0100
,
0010
0001
1000
0010
1000
0100
0001
0100
,
1000
0010
0100
0001
0010
0100
0010
0001
,
1000
0100
0000
1000
0100
0000
0010
0001
0000
0010
0001
0000
0100
0000
0010
0000
,
1000
0000
0100
0000
0000
1000
0000
0000
0001
0000
0100
0010
0000
0100
0010
0000
,
0000
0000
1000
0000
0000
0001
0000
0000
0010
0000
0001
0100
0000
0001
0100
0000
,
0000
0000
0010
0000
0000
1000
0000
0000
0100
0000
1000
0001
0000
1000
0001
0000
,
0011
0000
0011
0000
0000
0101
0000
0000
1010
0000
0000
1100
0000
0000
0101
0000
,
0000
0000
0010
0000
0000
0100
0000
0000
0001
0000
1000
0010
0000
1000
0010
0000
,
0000
0000
0100
0000
0000
0001
0000
0000
0010
0000
0100
1000
0000
0100
1000
0000
,
0001
0001
1000
1000
0100
0100
0010
0010
,
0011
2200
0000
0300
,
3001
0100
1000
0100
0001
2020
0030
3001
,
1000
0100
0001
0100
1000
2002
3000
0103
,
0010
0001
0010
1000
0100
0022
0003
1030
,
0010
0000
0100
0000
0010
0000
0001
0000
1000
0000
0010
0000
0100
0001
0100
0000
,
0010
1000
0100
1000
0001
0220
0300
1030
,
0010
0100
1000
0100
0001
2200
3000
1300
,
0010
0100
0001
1000
0010
1000
0100
0010
,
1001
0000
0000
0000
0001
0100
0001
0100
0001
0000
0010
0000
0100
0000
0000
0000
,
1000
0010
0001
0010
1000
0202
0003
0310
,
1000
0100
0001
0100
1000
0022
0030
1003
,
0010
1000
0100
0010
0001
1000
0000
2020
,
3000
0000
1030
0000
0100
0000
0010
0000
0001
0000
0100
0000
0001
1000
0001
0000
,
0010
0001
0100
1000
0100
0001
0100
0010
,
1000
0100
0001
0100
1000
0001
0110
0000
,
1000
0000
0010
0000
0100
0000
0000
0001
0000
0010
0100
0000
1000
0000
0001
0000
,
0010
0001
0000
0001
1000
0000
0000
0000
0010
1000
0000
1000
0001
0000
0000
0000
,
0010
0000
0001
0000
0100
0000
0000
0010
0000
1000
0001
0000
0010
0000
0100
0000
,
1000
0000
0000
0010
0100
0000
0000
0100
0001
0000
0000
0001
1000
0000
0000
0010
,
0100
0000
0010
0000
1000
0000
0000
0001
0000
0010
0100
0000
1000
0000
0001
0000
,
0010
0001
0000
0001
1000
0000
0000
0000
0010
1000
0000
1000
0001
0000
0000
0000
,
0010
0000
0100
0000
1000
0000
0000
0010
0000
1000
0001
0000
0100
0000
0010
0000
,
1000
1100
0000
0011
0000
0101
1100
0000
,
2000
0000
0000
0000
,
3002
0000
0000
0000
,
0103
0000
0000
0000
;

//---------------dance-single - ----------------
#NOTES:
     dance-single:
     :
     Challenge:
     15:
     :
0000
0000
0000
0000
,
0000
0000
0000
0000
,
0000
0000
0000
0000
,
0000
0000
0000
0000
,
1000
1000
0001
0001
0100
0100
0010
0010
,
1000
1000
0001
0001
0100
0010
0100
0000
,
0001
0000
0010
0000
0001
1000
0000
0100
0000
1000
0010
0000
0100
0000
0001
0000
,
1000
0010
0100
0001
0010
0000
0100
0000
1000
0001
1000
0010
0100
0000
0001
1000
,
0001
0000
0010
0000
0100
0010
0000
0001
0000
1000
0010
0000
0100
0000
0001
0000
,
0010
0001
0000
0001
1000
0100
0000
0100
0010
0001
0000
0001
1000
0010
0000
0010
,
0100
0000
0001
0000
0010
0100
0000
1000
0000
0001
1000
0000
0010
0000
0100
0000
,
0001
0010
0001
1000
0010
0000
0100
0000
0010
1000
0100
0010
0001
0000
1000
0100
,
1000
0000
0010
0000
1000
0100
0000
0010
0000
0001
0100
0000
0001
0000
1000
0000
,
0010
0010
1000
1000
0001
0101
1100
0000
,
0010
0000
1000
0000
0100
0010
0100
0000
1000
0000
0001
0010
0000
0001
0010
0000
,
0100
0000
1000
0000
0001
0100
0001
0000
0010
0000
0001
1000
0000
0001
1000
0000
,
0010
0000
1010
0000
0100
0010
0100
0000
1001
0000
0010
0000
1000
0000
0001
0000
,
0010
0000
0001
0000
0100
0000
0010
0000
1000
0000
0100
1000
0010
1000
0100
0000
,
0010
0000
0001
0000
1000
0010
1000
0000
0100
0000
0010
0001
0000
0010
0001
0000
,
0100
0000
0010
0000
1000
0100
1000
0000
0001
0000
0010
0100
0000
0010
0100
0000
,
1100
0011
0000
0100
1010
0101
1000
0001
,
0010
0001
0100
0001
0010
0000
0100
1000
0000
1000
0001
0000
0100
0000
0010
0000
,
1000
0100
0001
0100
0010
0100
0001
0100
,
1000
0100
0010
0100
0001
0100
0010
0100
,
0001
0100
0010
0100
1000
0100
1000
0010
,
0100
0000
1000
0000
0100
0000
0001
0000
0010
0000
0100
1000
0001
1000
0010
0000
,
0100
0001
0010
1000
0010
0100
0010
1000
,
0010
0001
0010
0100
0010
1000
0010
0001
,
0010
1000
0010
0100
0010
0001
0100
0010
,
1000
0001
0010
0001
0100
0000
0010
1000
0000
0100
1000
0001
0100
0000
0010
0000
,
1000
0000
0010
0000
0100
0001
0100
0000
0001
0000
0010
0100
0000
0100
1000
0000
,
0010
0000
1000
0000
0100
0010
0100
0000
1000
0000
0001
0100
0000
0001
0100
0000
,
0010
0000
0100
0000
0010
1000
0010
0000
0100
0000
0001
1000
0000
0001
1000
0000
,
0100
0000
0010
0000
0001
0100
0000
0100
0010
0000
0010
1000
0000
1000
0001
0000
,
0100
0000
0001
0000
1000
0001
1000
0000
0100
0000
0010
0001
0000
0010
0001
0000
,
0100
0000
0010
0000
1000
0001
1000
0000
0100
0000
0010
0001
0000
0010
0001
0000
,
0100
0001
0100
0001
1000
0100
1000
0100
0010
0001
0010
0001
0010
0100
1000
0000
,
1100
0000
0000
0000
0101
0000
0000
1000
0001
0000
0100
0000
0100
0000
0000
0000
,
0010
1000
0100
0010
0001
1001
0010
1000
,
0100
0010
0001
0100
0010
1010
1000
0001
,
0010
0100
1000
0010
0100
0001
0010
0100
,
1000
0000
0010
0000
0100
0001
0100
0000
0001
0010
0001
1000
0001
0010
0100
0000
,
1000
0001
0010
0001
0100
0011
1000
0001
,
0100
0010
1000
0100
1000
0110
0001
0100
,
0010
1001
0110
0010
1000
0100
1000
0001
,
0100
0000
0010
0000
1000
0001
0100
0001
1000
0000
0010
0000
0200
0000
0000
0000
,
0301
0010
1000
0100
0010
0011
1000
0001
,
0010
0100
1000
0010
0100
0101
1000
0001
,
0010
0001
1000
0010
1000
0100
0010
0001
,
0100
0000
0010
0000
1000
0001
1000
0000
0100
1000
0010
1000
0001
0010
0100
0000
,
1000
0100
1000
0000
0001
0000
0001
0000
0010
0000
0010
0000
0100
0000
0100
0000
,
1000
1000
0001
0001
0100
0010
0200
0000
,
0301
0000
0010
0000
0100
1000
0000
0010
0000
1000
0001
0000
0100
0000
0010
0000
,
1000
0100
1000
0001
0010
0000
0100
0000
0010
0001
1000
0001
0100
0000
0010
1000
,
0010
0000
0100
0000
0001
0010
0000
0001
0000
1000
0010
0000
0100
0000
0001
0000
,
0010
0100
0000
0100
1000
0001
0000
0001
1000
0010
0000
0010
0100
0001
0000
0001
,
0010
0000
0001
0000
1000
0001
0000
0100
0000
0010
1000
0000
0100
0000
0010
0000
,
0001
1000
0100
0010
0100
0000
1000
0000
0001
0010
0001
0100
0010
0000
1000
0100
,
1000
0000
0001
0000
0010
0100
0000
0010
0000
0001
1000
0000
0010
0000
0100
0000
,
0001
0001
1000
1000
0010
1010
0101
0000
,
2000
0000
0000
0000
,
3002
0000
0000
0000
,
0103
0000
0000
0000
;
