#TITLE:Treble, Bass and Attitude;
#SUBTITLE:;
#ARTIST:The Acolyte;
#TITLETRANSLIT:;
#SUBTITLETRANSLIT:;
#ARTISTTRANSLIT:;
#GENRE:;
#CREDIT:;
#BANNER:Treble, Bass and Attitude-bn.png;
#BACKGROUND:Treble, Bass and Attitude-bg.png;
#LYRICSPATH:;
#CDTITLE:;
#MUSIC:Treble, Bass and Attitude.ogg;
#OFFSET:0.000000;
#SAMPLESTART:34.860001;
#SAMPLELENGTH:20.000000;
#SELECTABLE:YES;
#DISPLAYBPM:172.000000;
#BPMS:0.000000=172.000000
;
#STOPS:
;
#BGCHANGES:;
#KEYSOUNDS:;
#ATTACKS:;

//---------------dance-single - ----------------
#NOTES:
     dance-single:
     :
     Hard:
     14:
     0.798865,0.801734,0.329550,0.041194,0.484027,543.000000,511.000000,32.000000,4.000000,0.000000,0.000000,0.798865,0.801734,0.329550,0.041194,0.484027,543.000000,511.000000,32.000000,4.000000,0.000000,0.000000:
0000
0000
0000
0000
,
0000
0000
0000
0000
,
0000
0000
0000
0000
,
0000
0000
0000
0000
,
0000
0000
0000
0000
,
1000
0010
0101
0001
0010
1100
1000
0001
,
0000
0100
1010
0001
1000
0011
0100
1000
,
0001
0010
1100
1000
0010
0101
1000
0100
,
0000
0010
1001
0100
0001
1000
0110
0000
,
0002
0000
0010
1000
0000
1000
0000
0103
,
2000
0000
0010
0001
0000
0001
0000
3100
,
0020
0000
0100
0001
0000
0001
0000
1030
,
0200
0000
0001
1000
0000
1000
0000
0310
,
0001
0000
0000
0001
0010
0000
0000
0010
1000
0000
0000
1000
0100
0000
0000
0100
,
0010
0000
0000
0010
0001
0000
0000
0001
0100
0000
0000
0100
1000
0000
0000
1000
,
0001
0000
0000
0001
1000
0000
0000
1000
0010
0000
0000
0010
0100
0000
0000
0100
,
0010
0000
0000
0010
1000
0000
0000
1000
0100
0000
0000
0100
0010
0000
0000
0000
,
1001
0000
0000
0001
0100
0000
0010
0000
1000
0000
0100
0000
1000
0000
0001
0000
,
0010
0000
0000
0001
1000
0000
0010
0000
1000
0000
0100
0000
0001
0000
0100
0000
,
1000
0000
0000
0001
1000
0000
0010
0000
0100
0000
1000
0000
0100
0000
0001
0000
,
0010
0000
0000
0100
1000
0000
0010
0000
0100
0000
1000
0000
0100
0000
0001
0000
,
0110
0000
1000
0100
1000
0000
0001
0000
0100
0010
0100
0000
0000
0000
0001
0000
,
1000
0000
0001
0010
0001
0000
0100
0000
0010
1000
0010
0000
0000
0000
0100
0000
,
0001
0010
0001
0100
1000
0010
1000
0100
,
0010
0000
0001
0100
0001
0000
1000
0100
1000
0000
0001
0100
0001
0000
1000
0000
,
1010
0000
0000
0000
0001
0000
0010
0000
1000
0100
1000
0000
0010
0000
0100
0000
,
0101
0000
0000
0000
0001
0000
0010
0000
1000
0001
1000
0000
0010
0000
0100
0000
,
0110
0000
0000
0000
0010
0000
1000
0000
0100
0010
0100
0000
1000
0000
0001
0000
,
0011
0000
0000
0000
0100
0000
0001
0000
1000
0010
1000
0000
0100
0000
0010
0000
,
0110
0000
0000
0000
0010
0000
0001
0000
1000
0010
1000
0000
0001
0000
0100
0000
,
1001
0000
0000
0000
0001
0000
0010
0000
1000
0100
1000
0000
0010
0000
0100
0000
,
0101
0000
0000
0000
1000
0000
0001
0000
0010
0100
0010
0000
0001
0000
1000
0000
,
1100
0000
0000
0000
0001
0000
0010
0000
0001
0100
0001
0000
1000
0000
0010
0100
,
0010
0000
0101
0010
1000
1100
0010
0001
,
0100
0000
1001
0010
0001
0110
1000
0001
,
0100
0000
1010
0001
1000
0101
0010
0100
,
0001
0000
0000
0000
0011
0000
1000
0000
0010
0000
0101
0000
1000
0000
0001
0100
,
0001
0000
1000
0010
1000
0000
0100
0000
0010
0001
0010
0000
0100
0000
1000
0000
,
0001
0000
1000
0010
1000
0000
0001
0000
0010
0100
0010
0000
0001
0000
0100
0000
,
1000
0000
0010
0100
0010
0000
1000
0000
0001
0100
0001
0000
1000
0000
0001
0010
,
0001
0000
1000
0010
1000
0000
0001
0100
0001
0000
1000
0100
1000
0000
0001
0000
,
0011
0000
0100
0000
1000
0010
0000
0010
1000
0000
0100
0000
0001
0000
0010
0000
,
0000
0000
0100
0000
1000
0001
0000
0001
1000
0000
0010
0000
0100
0000
0001
0000
,
0000
0000
0010
0000
0001
0100
0000
0100
0001
0000
0010
0000
1000
0000
0001
0000
,
0000
0000
0100
0000
0010
0000
1000
0100
1000
0000
0001
0000
0100
0000
0000
0000
,
1010
0000
0001
0000
0100
0000
0010
1000
0001
0000
0010
0000
0100
0000
1000
0010
,
0100
0000
0001
0010
0100
0000
1000
0001
0010
0000
0001
1000
0100
0000
0010
0000
,
0001
0100
0010
0100
1000
0100
0001
0010
,
0001
0000
1000
0100
0010
0000
0001
1000
0010
0000
1000
0001
0100
0000
0000
0000
,
1001
0000
0010
0000
1000
0100
0010
0100
1000
0000
0001
0000
0010
0000
1000
0000
,
0000
0000
0100
0000
1000
0001
0010
0001
1000
0000
0010
0000
0100
0000
0001
0000
,
0000
0000
0010
0000
0001
0100
0010
0100
0001
0000
1000
0000
0100
0000
0010
0000
,
0000
0000
0001
0000
0100
0010
1000
0010
0100
0000
0001
0000
0010
0000
1000
0000
,
0100
0000
0010
0001
0100
0000
0000
0000
0010
0000
1010
0000
0100
0000
0001
0000
,
0010
0000
0001
1000
0100
0000
0000
0000
0010
0000
1100
0000
0001
0000
1000
0000
,
0010
0000
1000
0100
0010
0000
0001
0000
0100
0000
0001
0010
0100
0000
1000
0000
,
0001
0000
0010
0001
0100
0000
0001
0010
0100
0000
1000
0001
0010
0000
0000
0000
,
0110
0000
0001
0010
0100
0000
1000
0000
0010
0100
0001
0000
1000
0000
0010
0000
,
1000
0000
0100
0001
1000
0000
0010
0000
1000
0100
0010
0000
0001
0000
0100
0000
,
0001
0000
0010
0001
1000
0000
0010
0000
1000
0100
0010
0000
0001
0000
1000
0000
,
0010
0000
0100
0010
1000
0000
0001
0000
0010
0001
0100
0000
1000
0000
0001
0100
,
0001
0000
0010
0100
1000
0000
0001
0000
1000
0010
1000
0000
0100
0000
0001
0000
,
0010
0000
0001
1000
0001
0000
0010
0000
1000
0100
0010
0000
0001
1000
0100
0000
,
1000
0000
0010
0100
0001
0000
1000
0000
0001
0000
0010
0000
1000
0000
0100
0000
,
0010
0000
0001
0100
0010
0000
1000
0000
0001
0100
0010
0000
1000
0001
0100
0000
;

//---------------dance-single - ----------------
#NOTES:
     dance-single:
     :
     Medium:
     12:
     0.578184,0.601301,0.185372,0.102984,0.000000,393.000000,375.000000,18.000000,10.000000,0.000000,0.000000,0.578184,0.601301,0.185372,0.102984,0.000000,393.000000,375.000000,18.000000,10.000000,0.000000,0.000000:
0000
0000
0000
0000
,
0000
0000
0000
0000
,
0000
0000
0000
0000
,
0000
0000
0000
0000
,
0000
0000
0000
0000
,
1000
0010
0101
0000
0001
0010
1100
0000
,
0010
0100
1001
0000
0001
1000
0110
0000
,
1000
0100
0011
0000
0001
0100
1010
0000
,
0001
0010
0001
0100
1000
0010
0001
0000
,
2000
0000
0010
0010
0000
0100
0000
0001
,
3002
0000
1000
1000
0000
0010
0000
0100
,
0203
0000
0001
0001
0000
1000
0000
0010
,
0320
0000
1000
1000
0000
0001
0000
0100
,
0130
0000
0001
0010
0000
0001
0000
1000
,
0010
0000
1000
0001
0000
1000
0000
0100
,
0010
0000
0100
1000
0000
0010
0000
0001
,
1000
0000
0001
0010
0000
0001
0000
0100
,
0110
0000
0010
1000
0100
0010
0001
0100
,
0001
0000
1000
0001
0010
0001
0100
0010
,
1000
0000
0001
0010
0001
0100
0010
1000
,
0001
0000
1000
0001
0000
0010
0000
0100
,
1100
0000
0101
0000
0010
1000
0000
0001
,
0100
0010
1000
0001
0010
0100
1000
0000
,
0001
0100
0001
0010
0001
0100
0001
0010
,
1000
0100
1000
0010
1000
0100
1000
0000
,
0110
0000
0001
0100
0010
1000
0000
0100
,
1000
0000
0010
1000
0100
0001
0000
0010
,
0001
0000
1000
0001
1000
0010
0000
0100
,
0001
0000
0010
0100
0010
0001
0000
1000
,
0001
0000
0010
0001
0010
0100
0000
1000
,
0010
0000
1000
0100
0010
0001
0000
0100
,
0010
0000
0100
0001
0010
0100
0000
1000
,
0001
0000
1000
0010
0100
0001
0000
0010
,
1000
0000
0101
0010
1000
0001
0000
0010
,
0100
0000
1100
0001
1000
0010
0000
0100
,
0001
0000
0011
1000
0001
0100
0000
0010
,
0100
0000
1001
0010
1000
0100
0000
0001
,
1000
0000
0010
0100
0001
0010
1000
0001
,
0100
0000
0001
0010
0100
0010
0001
1000
,
0010
0000
1000
0001
1000
0100
0010
0001
,
0100
0010
1000
0010
0000
0100
0000
0001
,
0010
0001
0002
0000
0103
0010
0020
0000
,
1030
0100
0200
0000
0310
0100
1000
0001
,
0000
1000
2000
0000
3010
0100
0200
0000
,
0301
0010
0020
0000
0031
0100
0010
0000
,
1010
1000
0010
0100
0001
0010
1000
0000
,
0001
0010
0001
0100
0010
1000
0100
0000
,
1000
0010
0001
1000
0100
0010
0001
0000
,
1000
0001
0100
0010
1000
0100
0001
0000
,
1001
0010
0100
0010
1000
0100
0010
0001
,
0000
0100
0001
0010
0001
0100
0010
1000
,
0000
0001
0010
0100
0000
1000
0010
0001
,
1000
0010
0100
0010
1000
0100
0001
0000
,
0010
0001
0001
0100
0001
1000
0000
0010
,
0000
1000
1000
0001
0000
0010
0001
0100
,
0010
0000
1000
0001
0010
0001
1000
0100
,
0010
0001
0100
0010
1000
0100
0001
0000
,
1100
0000
0010
0100
0001
1000
0000
0001
,
0010
0000
0001
0100
0001
1000
0000
0010
,
1000
0000
0100
0010
0001
0100
0000
1000
,
0001
0000
0010
0001
1000
0010
0000
0100
,
0010
0000
1000
0010
1000
0001
0010
0100
,
1000
0000
0010
0100
0001
0010
0001
1000
,
0100
0000
1000
0001
0000
0010
0000
0001
,
0100
0010
0100
0001
1000
0010
0100
1001
;

//---------------dance-single - ----------------
#NOTES:
     dance-single:
     :
     Easy:
     8:
     0.345734,0.434273,0.123581,0.041194,0.000000,235.000000,223.000000,12.000000,4.000000,0.000000,0.000000,0.345734,0.434273,0.123581,0.041194,0.000000,235.000000,223.000000,12.000000,4.000000,0.000000,0.000000:
0000
0000
0000
0000
,
0000
0000
0000
0000
,
0000
0000
0000
0000
,
0000
0000
0000
0000
,
0000
0000
0000
0000
,
0000
0000
1000
0000
0000
0010
0000
0100
,
0000
0000
0001
0000
0000
1000
0000
0100
,
0000
0000
0010
0000
0000
0001
0000
1000
,
0000
0000
0001
0000
0000
0100
0010
0000
,
2000
0000
0000
0001
0000
3001
0000
0000
,
0020
0000
0000
0100
0000
0130
0000
0000
,
0002
0000
0000
1000
0000
1003
0000
0000
,
0200
0000
0000
0010
0000
0310
0000
0000
,
0001
0010
0001
0100
,
1000
0010
1000
0100
,
0010
0001
0010
1000
,
0100
0001
1000
0100
,
1001
0010
0000
1000
,
0100
0001
0000
0010
,
0001
0100
0000
1000
,
0010
1000
0000
0001
,
0110
0000
1000
0000
0010
0100
0000
0000
,
0001
0010
1000
0100
,
1000
0010
1000
0100
,
0001
0010
1000
0100
,
0001
0000
0000
0010
0000
0001
0000
0000
,
1000
0000
0000
0010
0000
0100
0000
0000
,
0010
0000
0000
1000
0000
0100
0000
0000
,
0001
0000
0000
1000
0000
0010
0000
0000
,
1000
0000
0000
0100
0000
0100
0000
0000
,
0010
0000
0000
0001
0000
0100
0000
0000
,
0001
0000
0000
0010
0000
0001
0000
0000
,
1000
0000
0000
0010
0000
0100
0000
0000
,
0001
0000
0010
0001
0000
0100
0000
0000
,
0010
0000
1000
0001
0000
1000
0000
0000
,
0100
0000
0010
0001
0000
1000
0000
0000
,
0001
0000
1000
0100
0000
0010
0000
0000
,
0001
0000
0100
0000
0001
0010
0001
0000
,
1000
0000
0010
0000
1000
0100
1000
0000
,
0010
0000
1000
0000
0001
0100
0001
0000
,
0010
0000
0001
1000
0000
0001
0000
0000
,
0000
1010
0100
0001
,
0000
0011
0100
1000
,
0000
1100
0001
0010
,
0000
0101
1000
0010
,
1001
0010
1000
0100
,
1000
0001
0010
0100
,
0110
0001
0100
0010
,
1000
0100
1000
0001
,
1010
0000
0001
0000
0000
0100
0000
0010
,
0000
0000
1000
0000
0000
0100
0000
0001
,
0000
0000
0010
0000
0000
0001
0000
0100
,
0000
0000
1000
0000
0001
0010
0001
0000
,
0100
0000
0001
0000
0000
1000
0000
0000
,
0000
0010
1000
0000
0000
0100
0000
0000
,
0010
0010
0010
0010
,
0001
0100
1000
0001
,
0101
0000
0010
1000
0000
0100
0000
1000
,
0001
0000
0010
0100
0000
1000
0000
0001
,
1000
0000
0010
0100
0000
0010
0000
1000
,
0001
0000
0010
0001
0000
1000
0000
0010
,
0100
0000
0010
0100
0000
0001
0000
1000
,
0100
0000
0010
0001
0000
0100
0000
0001
,
1000
0000
0010
1000
0000
0100
0000
0001
,
0010
0000
0001
1000
0000
1100
0000
0011
;

//---------------dance-single - ----------------
#NOTES:
     dance-single:
     :
     Beginner:
     3:
     0.150063,0.200820,0.020597,0.020597,0.000000,102.000000,100.000000,2.000000,2.000000,0.000000,0.000000,0.150063,0.200820,0.020597,0.020597,0.000000,102.000000,100.000000,2.000000,2.000000,0.000000,0.000000:
0000
0000
0000
0000
,
0000
0000
0000
0000
,
0000
0000
0000
0000
,
0000
0000
0000
0000
,
0000
0000
0000
0000
,
0000
1000
0000
1000
,
0000
0010
0000
0010
,
0000
0100
0000
0100
,
0000
0001
0000
0001
,
0000
0000
0000
0000
,
0000
0000
0000
0000
,
0010
0000
0000
0000
,
0100
0000
0000
0000
,
2000
0000
0000
0000
,
0000
0000
3000
0000
,
0002
0000
0000
0000
,
0000
0000
0003
0000
,
1001
0000
0000
0000
,
0010
0000
0000
0000
,
1000
0000
0000
0000
,
0100
0000
0000
0000
,
0001
0000
0001
0000
,
1000
0000
1000
0000
,
0010
0000
0000
0000
,
0100
0100
0100
0000
,
0010
0010
0000
0000
,
1000
1000
0000
0000
,
0100
0100
0000
0000
,
1000
1000
0000
0000
,
0001
0001
0000
0000
,
0100
0100
0000
0000
,
0001
0001
0000
0000
,
0010
0010
0000
0000
,
0000
0001
0000
0001
,
0000
0010
0000
0010
,
0000
0100
0000
0100
,
0000
1000
0000
1000
,
0000
0001
0000
1000
,
0000
0010
0000
0100
,
0100
0000
0000
0000
,
0001
0001
0001
0000
,
0000
1000
0000
1000
,
0000
0100
0000
0100
,
0000
0010
0000
0010
,
0000
0001
0000
0001
,
0001
0000
0000
0000
,
1000
0000
0000
0000
,
0010
0000
0000
0000
,
0100
0100
0100
0000
,
0000
0010
0000
1000
,
0000
0010
0000
0100
,
0000
0001
0000
0010
,
0000
0001
0000
1000
,
0000
0100
0000
0010
,
0000
0100
0000
1000
,
0000
0001
0000
0100
,
0000
0000
0000
0000
,
0110
0000
1000
0000
,
0100
0000
1000
0000
,
0001
0000
0100
0000
,
0010
0000
1000
0000
,
0100
0000
0010
0000
,
0001
0000
0100
0000
,
1000
0000
0000
0000
,
0001
0000
1000
0000
,
0010
0000
0000
0000
;

//---------------dance-single - ----------------
#NOTES:
     dance-single:
     :
     Challenge:
     17:
     1.038672,1.103447,0.350147,0.205969,1.122531,706.000000,672.000000,34.000000,20.000000,0.000000,0.000000,1.038672,1.103447,0.350147,0.205969,1.122531,706.000000,672.000000,34.000000,20.000000,0.000000,0.000000:
// measure 0
0000
0000
0000
0000
,  // measure 1
0000
0000
0000
0000
,  // measure 2
0000
0000
0000
0000
,  // measure 3
0000
0000
0000
0000
,  // measure 4
0000
0000
0000
0000
,  // measure 5
1000
0000
0001
0010
0001
0000
1000
0010
1000
0000
0100
0010
0100
0000
1000
0000
,  // measure 6
0010
0000
0100
0001
0100
0000
0010
1000
0010
0000
1000
0001
1000
0000
0100
0000
,  // measure 7
0010
0001
0010
0001
1000
0010
1000
0010
1000
0100
1000
0100
0001
0100
0001
0100
,  // measure 8
0010
0100
0010
0100
1000
0001
1000
0001
0100
0010
1000
0001
0100
0000
0010
0000
,  // measure 9
2000
0000
3002
0020
0003
0002
0030
0203
,  // measure 10
0020
0300
2030
0200
3000
0020
0300
0032
,  // measure 11
0200
0003
0302
2000
0003
0002
3000
0023
,  // measure 12
0200
0030
2300
0020
3000
0200
0030
0302
,  // measure 13
1003
0000
0010
0100
0010
0000
0100
0001
0100
0000
0001
1000
0001
0000
0010
0000
,  // measure 14
0001
0000
0100
0010
0100
0000
0010
1000
0010
0000
1000
0001
1000
0000
0010
0000
,  // measure 15
0100
0000
0010
1000
0010
0000
1000
0100
1000
0000
0010
0001
0010
0000
0100
0000
,  // measure 16
1000
0000
0001
0010
0001
0000
1000
0010
1000
0000
0001
0100
0001
0000
0010
0000
,  // measure 17
1001
0000
0000
0010
1000
0000
0100
0000
0010
0000
0001
0100
0001
0000
1000
0000
,  // measure 18
0010
0000
0100
0001
0100
0000
0001
0010
0001
0000
1000
0100
1000
0000
0001
0000
,  // measure 19
0010
0000
0001
0100
0001
0000
0010
0100
0010
0000
0100
1000
0100
0000
0001
0000
,  // measure 20
0010
0000
0001
0100
0001
0000
1000
0001
1000
0000
0010
0100
0010
0000
1000
0000
,  // measure 21
0110
0000
0000
0000
0100
0001
0010
0001
0010
0100
1000
0000
0001
0100
0010
0000
,  // measure 22
1000
0100
0010
0100
1000
0000
0001
0100
0010
0100
0001
0000
1000
0001
0100
0010
,  // measure 23
1000
0100
1000
0100
0010
0001
0010
0001
0010
0100
0010
0100
1000
0001
1000
0001
,  // measure 24
0100
0001
0100
0001
1000
0010
1000
0010
1000
0100
0010
0001
0100
0000
0010
0000
,  // measure 25
1010
0000
0000
0000
0101
0000
0010
0000
1000
0100
0010
0000
0001
0000
1000
0000
,  // measure 26
1100
0000
0000
0000
0011
0000
0100
0000
0010
1000
0001
0000
0100
0000
0010
0000
,  // measure 27
0101
0000
0000
0000
1100
0000
0001
0000
1000
0010
0100
0000
0001
0000
0010
0000
,  // measure 28
0011
0000
0000
0000
1010
0000
0100
0000
0001
1000
0010
0000
1000
0000
0100
0000
,  // measure 29
0110
0000
0000
0000
0011
0000
0001
0000
0100
0010
1000
0000
0001
0000
1000
0000
,  // measure 30
1001
0000
0000
0000
1010
0000
0001
0000
0010
0100
1000
0000
0010
0000
0100
0000
,  // measure 31
0110
0000
0000
0000
1001
0000
0010
0000
1000
0100
0010
0000
0001
0000
0100
0000
,  // measure 32
1010
0000
0000
0000
1100
0000
0001
0000
0010
0100
1000
0000
0010
0000
0100
0001
,  // measure 33
0100
0000
0010
1000
0100
0000
0010
0000
0001
0100
0010
0000
1000
0000
0001
0000
,  // measure 34
0010
0000
0100
0010
0001
0000
0100
0000
1000
0001
0100
0000
0010
0000
1000
0100
,  // measure 35
0010
0000
0001
0100
0001
0000
0010
0000
0100
1000
0010
0000
1000
0001
0100
0000
,  // measure 36
0010
0000
1000
0100
0010
0000
0001
0000
0100
0010
1000
0000
0001
0000
0010
1000
,  // measure 37
0100
0000
0010
0001
0100
0000
0001
0010
1000
0000
0010
0100
0010
1000
0001
0000
,  // measure 38
0010
0000
0100
0010
0001
0000
0100
0010
1000
0000
0001
0010
0100
1000
0001
0000
,  // measure 39
0100
0010
0100
0010
1000
0010
1000
0010
0100
0001
0100
0001
1000
0001
1000
0001
,  // measure 40
0010
0100
1000
0001
0100
0010
1000
0001
0010
0100
1000
0001
0100
0000
0010
0000
,  // measure 41
0101
0000
1100
0000
0101
0000
0010
1000
0001
0000
0011
0000
1100
0000
0010
1000
,  // measure 42
0100
0000
1001
0000
0110
0000
0001
0010
0100
0000
1000
0010
0000
1000
0001
0000
,  // measure 43
0110
0000
1001
0000
0110
0000
0010
1000
0100
0000
0011
0000
1010
0000
0100
0001
,  // measure 44
0010
0000
1100
0000
0101
0000
0010
1000
0100
0010
0100
0010
0001
0100
1000
0000
,  // measure 45
0010
0000
1000
0100
0010
0000
0001
0100
0010
0000
1000
0001
1000
0000
0100
0000
,  // measure 46
0010
0000
0001
0100
0010
1000
0000
0100
1000
0010
0000
0100
0001
0000
0010
0100
,  // measure 47
1000
0000
0001
0100
0010
0000
1000
0100
0010
0100
1000
0001
0100
0000
0010
1000
,  // measure 48
0001
1000
0100
0010
1000
0010
1000
0010
0001
0100
0001
0100
1000
0001
0100
0010
,  // measure 49
1000
0000
0100
0010
0001
0000
0010
0100
1000
0010
1000
0001
0100
0000
0010
1000
,  // measure 50
0001
0000
0010
0001
0100
0000
0010
1000
0010
0100
0010
1000
0001
0000
0010
0001
,  // measure 51
0100
0000
0001
0010
1000
0000
0100
0010
0100
1000
0001
0010
0100
0000
1000
0001
,  // measure 52
1000
0000
0010
0100
0010
0000
1000
0001
0010
0001
0100
0010
1000
0000
0100
0001
,  // measure 53
1000
0000
0010
0100
0001
0000
0010
0100
1000
0010
0100
0010
1000
0100
0010
0001
,  // measure 54
0100
0000
0001
0010
0100
0000
1000
0010
1000
0100
0010
0100
0010
0001
0100
1000
,  // measure 55
0001
0000
0010
0001
0100
0000
0001
0010
1000
0000
0100
0010
0100
0000
1000
0001
,  // measure 56
1000
0010
0001
0100
1000
0010
0001
0100
1000
0010
0001
0100
1000
0000
0000
0000
,  // measure 57
1100
0000
0010
0001
0100
0000
0001
0000
0010
0100
1000
0000
0001
0100
1000
0000
,  // measure 58
0010
0000
1000
0001
0010
0000
0100
0000
1000
0010
0100
0000
0001
1000
0010
0000
,  // measure 59
0100
0000
0001
0010
0100
0000
1000
0000
0010
0100
0001
0000
1000
0100
0010
0001
,  // measure 60
0010
0000
0001
0100
1000
0000
0010
0000
1000
0100
0010
0000
0001
0000
0100
0001
,  // measure 61
1000
0000
0010
0100
0001
0000
1000
0100
0010
0001
0100
0001
0100
0010
1000
0000
,  // measure 62
0001
0000
0010
0001
0100
0000
0001
0010
1000
0100
0010
0001
0100
0010
1000
0000
,  // measure 63
0101
0000
1000
0010
0100
0000
0001
0010
0100
0000
1000
0010
1000
0000
0001
0000
,  // measure 64
0100
0001
0010
0001
0010
0001
0010
1000
0010
1000
0100
0001
0100
1000
0100
1000
;
