#VERSION:0.83;
#TITLE:Treble, Bass and Attitude;
#SUBTITLE:(CLSM Remix);
#ARTIST:The Acolyte;
#TITLETRANSLIT:;
#SUBTITLETRANSLIT:;
#ARTISTTRANSLIT:;
#GENRE:;
#ORIGIN:;
#TAGS:;
#CREDIT:;
#BANNER:Treble, Bass and Attitude (CLSM Remix)-bn.png;
#BACKGROUND:Treble, Bass and Attitude (CLSM Remix)-bg.png;
#PREVIEWVID:;
#JACKET:Treble, Bass and Attitude (CLSM Remix)-jacket.png;
#CDIMAGE:;
#DISCIMAGE:;
#LYRICSPATH:;
#CDTITLE:;
#MUSIC:Treble, Bass and Attitude (CLSM Remix).ogg;
#OFFSET:0.000000;
#SAMPLESTART:32.914001;
#SAMPLELENGTH:20.000000;
#SELECTABLE:YES;
#DISPLAYBPM:175.000000;
#BPMS:0.000000=175.000000;
#STOPS:;
#DELAYS:;
#WARPS:;
#TIMESIGNATURES:0.000000=4=4;
#TICKCOUNTS:0.000000=4;
#COMBOS:0.000000=1;
#SPEEDS:0.000000=1.000000=0.000000=0;
#SCROLLS:0.000000=1.000000;
#FAKES:;
#LABELS:0.000000=Song Start;
#BGCHANGES:;
#KEYSOUNDS:;
#ATTACKS:
;

//---------------dance-single - ----------------
#NOTEDATA:;
#CHARTNAME:;
#CHARTHASH:0:
#STEPSTYPE:dance-single;
#BANNER:;
#DESCRIPTION:;
#CHARTSTYLE:;
#DIFFICULTY:Hard;
#METER:13;
#METERF:0.000000;
#RADARVALUES:0.639163,0.836723,0.348635,0.387372,0.140422,462.000000,426.000000,36.000000,40.000000,0.000000,0.000000,0.000000,0.000000,0.000000,0.639163,0.836723,0.348635,0.387372,0.140422,462.000000,426.000000,36.000000,40.000000,0.000000,0.000000,0.000000,0.000000,0.000000;
#CREDIT:;
#DISPLAYBPM:175.000000;
#NOTES:
0000
0000
0000
0000
,
0000
0000
0000
0000
,
0000
0000
0000
0000
,
0000
0000
0000
0000
,
0010
0000
0010
0000
0010
0000
1000
0100
,
0001
0000
0001
0000
0001
0000
0010
0100
,
1000
1000
0100
0100
,
0010
0000
0000
0000
0001
1000
0001
1000
0001
0000
0000
0000
0100
0000
0000
0000
,
0101
0000
0000
0000
1100
0000
0000
0001
1000
0000
0000
0000
0010
0000
0100
0000
,
1010
0000
0000
0000
0011
0000
0000
1000
0010
0000
0000
0000
0100
0000
0001
0000
,
0110
0000
0000
0000
1001
0000
0000
1000
0100
0000
0000
0000
0010
0000
0000
0001
,
0100
0000
0000
0000
0010
0000
0000
1000
0100
0000
0000
0000
0001
0000
0000
0000
,
1100
0000
0000
0000
0011
0000
0000
0100
0010
0000
0000
0000
1000
0000
0001
0000
,
1001
0000
0000
0000
0110
0000
0000
0001
0010
0000
0000
0000
0100
0000
1000
0000
,
1010
0000
0000
0000
0101
0000
0000
1000
0001
0000
0000
0000
0010
0000
0000
0100
,
0010
0000
0000
0000
0001
0000
0000
0100
0010
0000
0000
0000
1000
0000
0000
0000
,
0002
0000
0023
0000
0230
0000
1300
0001
,
2000
0000
3020
0000
0230
0000
0310
1000
,
0002
0000
2003
0000
3002
0000
0013
0100
,
2000
0000
3200
0000
0320
0000
0031
0100
,
0010
0000
0000
0000
0110
0000
0000
0001
1000
0000
0000
0000
1100
0000
0000
0010
,
0100
0000
0000
0000
0101
0000
0000
1000
0100
0000
0000
0000
0011
0000
0000
0001
,
1000
1010
0100
1001
,
1000
0001
1000
0001
1000
0001
1000
0001
1000
0000
0010
0000
0100
0000
0000
0000
,
0001
0100
1000
0100
0001
0010
0100
1000
,
0010
0100
0010
0001
0010
1000
0001
0100
,
1000
0100
0001
0000
0010
0100
1000
0000
,
0010
1000
0001
0010
0001
0100
1000
1000
,
1000
0010
0100
0001
0010
1000
0010
0100
,
0010
0001
0100
0010
0001
0010
1000
0001
,
0010
0100
1000
0000
0010
0100
0001
0000
,
1000
0001
0010
0001
0100
1000
0100
0100
,
0100
0001
1000
0010
0001
0010
0100
0001
,
1000
0001
0010
0100
0001
0100
1000
0010
,
1000
0100
0001
1000
0001
0010
0100
0000
,
1001
0000
1010
0000
1100
0000
0001
0001
,
0001
0100
0010
0100
1000
0100
0001
1000
,
0100
0001
0100
1000
0010
0100
0001
0010
,
0011
0000
0000
0000
0101
0000
0000
1000
0100
0000
0001
0000
0010
0000
0000
0000
,
1000
0001
1000
0001
1000
0001
1000
0000
0010
0100
0010
0100
0010
0100
0010
0000
,
0120
0000
0001
0000
0100
1000
1000
0000
,
0100
0000
1000
0000
0001
0001
0100
0000
,
2030
0000
0010
0000
0100
0001
0001
0000
,
3200
0000
0001
0000
1000
0010
0310
0000
,
0002
0000
0010
0000
1000
1000
1000
0000
,
0100
0000
1000
0000
0010
0010
0013
0000
,
1000
0000
0010
0000
1000
0100
0001
0000
,
0011
1100
0101
1010
,
0001
0000
1000
0010
0100
1000
0100
0001
,
0010
0000
0001
0100
0010
0001
0010
1000
,
0100
0000
1000
0001
0100
0010
0100
1000
,
0100
0000
0001
0010
0001
0100
1000
0010
,
0001
0000
1000
0010
1000
0100
0001
0100
,
0010
0000
0100
1000
0001
0100
0010
0001
,
0010
0000
1000
0001
1000
0100
0010
0000
,
1001
0000
0000
0000
0110
0000
0000
0000
1000
0000
0001
0100
0001
0000
0000
0000
,
1000
0010
0100
0002
0000
2003
0000
3010
,
1000
0001
1000
0200
0000
0320
0000
0031
,
0100
0001
1000
0002
0000
0023
0000
0130
,
0010
0001
1000
0002
0000
0203
0000
0310
,
1000
0100
0001
2000
0000
3020
0000
0130
,
0010
1000
0001
2000
0000
3200
0000
0301
,
0100
0010
0001
0100
0000
0010
0000
1000
,
1010
0000
0000
0000
0101
0000
0000
0000
1000
0001
1000
0000
0110
0000
0000
0000
,
1000
0001
1000
0020
0000
0230
0000
0301
,
0010
0001
1000
0020
0000
2030
0000
3100
,
0010
1000
0010
0002
0000
0203
0000
0310
,
1000
0001
0010
0002
0000
2003
0000
3100
,
1000
0001
0010
0200
0000
2300
0000
3010
,
0100
0010
1000
0002
0000
0023
0000
0031
,
0011
0000
1000
0100
0000
0010
0000
0001
,
1010
0000
0100
0001
0000
1000
0000
0010
,
1001
0000
0000
0000
;

//---------------dance-single - ----------------
#NOTEDATA:;
#CHARTNAME:;
#CHARTHASH:0:
#STEPSTYPE:dance-single;
#BANNER:;
#DESCRIPTION:;
#CHARTSTYLE:;
#DIFFICULTY:Medium;
#METER:10;
#METERF:0.000000;
#RADARVALUES:0.503583,0.557815,0.290529,0.116212,0.000000,364.000000,334.000000,30.000000,12.000000,0.000000,0.000000,0.000000,0.000000,0.000000,0.503583,0.557815,0.290529,0.116212,0.000000,364.000000,334.000000,30.000000,12.000000,0.000000,0.000000,0.000000,0.000000,0.000000;
#CREDIT:;
#DISPLAYBPM:175.000000;
#NOTES:
0000
0000
0000
0000
,
0000
0000
0000
0000
,
0000
0000
0000
0000
,
0000
0000
0000
0000
,
0010
0000
0010
0000
0010
0000
0010
1000
,
0001
0000
0001
0000
0001
0000
0001
0010
,
0100
0100
1000
1000
,
0010
0000
1000
0001
0100
0000
0100
0000
,
1010
0000
0001
0000
0100
0000
1000
0010
,
0100
0000
0010
0000
1000
0000
0100
0001
,
0010
0000
0001
0100
1000
0000
0001
0000
,
1000
0000
0010
0100
0001
0000
0010
0000
,
0011
0000
0100
0000
0010
0000
0001
1000
,
0010
0000
1000
0000
0100
0000
0010
0001
,
1000
0000
0010
0100
0001
0000
1000
0000
,
0100
0000
0010
0001
1000
0000
0010
0000
,
2000
0000
0100
0000
0001
0000
3010
0100
,
0002
0000
0010
0000
0100
0000
1003
0010
,
0200
0000
1000
0000
0010
0000
0301
1000
,
0020
0000
0100
0000
0001
0000
1030
0001
,
1000
1100
0001
0101
,
0010
1001
0100
0110
,
2000
3200
0320
0032
,
1003
0010
0100
0001
0010
0100
1000
0000
,
0010
0000
0100
0000
0001
0010
0001
1000
,
0100
0000
0010
0000
0100
1000
0001
1000
,
0010
0100
0001
0000
1000
0000
0100
0000
,
1100
0000
0110
0000
0011
0000
0100
0010
,
0100
0000
0001
0000
0010
0100
1000
0001
,
1000
0000
0010
0000
0100
0010
1000
0001
,
0010
0100
1000
0000
0001
0000
0100
0000
,
1010
0000
1001
0000
0101
0000
1000
0001
,
1000
0000
0010
0000
0100
0001
1000
0100
,
0001
0000
0010
0000
0001
0100
0010
1000
,
0100
1000
0001
0000
0011
0000
1010
0000
,
0100
0000
0101
0000
1100
0000
0010
1000
,
0001
0000
1000
0000
0010
1000
0100
0010
,
0001
0000
0100
0000
1000
0001
1000
0010
,
0100
0010
0110
1001
,
1000
0001
1000
0001
0100
0010
0100
0010
,
2000
0000
0010
0000
0000
0001
0001
0000
,
0010
0000
0001
0000
0000
0100
0100
0000
,
3020
0000
0001
0000
0000
1000
1000
0000
,
0230
0000
0010
0000
0000
1000
1000
0000
,
0302
0000
0010
0000
0000
1000
1000
0000
,
0010
0000
0100
0000
0000
0100
0100
0000
,
1003
0000
0001
0000
0000
0010
0100
0000
,
1001
1010
0101
0011
,
1100
0000
0010
1000
0000
0001
0100
0000
,
0000
0000
0001
1000
0000
0010
0100
0000
,
0000
0000
0001
0010
0000
1000
0100
0000
,
0000
0000
1000
0001
0000
0001
0100
0010
,
0000
0000
1000
0010
0000
0100
0001
0000
,
0000
0000
0001
1000
0000
0100
0010
0000
,
0000
0000
0001
0100
0000
1000
0010
0000
,
1000
0000
0110
0000
0001
0010
0100
0000
,
0010
0000
0100
0001
0000
1000
0000
0100
,
1000
0000
0010
0100
0000
0001
0000
0010
,
0001
0000
0100
0010
0000
1000
0000
0001
,
0010
0000
0001
0100
0000
0010
0000
1000
,
0100
0000
1000
0001
0000
1000
0000
0010
,
0100
0000
0001
0010
0000
0001
0000
1000
,
0010
0000
1000
0001
0000
0010
0000
0100
,
1000
0000
1000
0000
1000
0001
0100
0000
,
1000
0000
0010
0100
0000
0001
0010
0000
,
0100
0000
1000
0010
0000
1000
0001
0000
,
0010
0000
0100
1000
0000
0010
0100
0000
,
0001
0000
0010
0001
0000
1000
0100
0000
,
0110
0000
0010
0100
0000
0001
1000
0000
,
0011
0000
1000
0001
0000
1000
0010
0000
,
1100
0000
0010
0100
0000
0101
0000
0000
,
1010
0000
1000
0001
0000
0100
0000
0000
,
1001
0000
0000
0000
;

//---------------dance-single - ----------------
#NOTEDATA:;
#CHARTNAME:;
#CHARTHASH:0:
#STEPSTYPE:dance-single;
#BANNER:;
#DESCRIPTION:;
#CHARTSTYLE:;
#DIFFICULTY:Easy;
#METER:7;
#METERF:0.000000;
#RADARVALUES:0.332033,0.418361,0.116212,0.154949,0.000000,240.000000,228.000000,12.000000,16.000000,0.000000,0.000000,0.000000,0.000000,0.000000,0.332033,0.418361,0.116212,0.154949,0.000000,240.000000,228.000000,12.000000,16.000000,0.000000,0.000000,0.000000,0.000000,0.000000;
#CREDIT:;
#DISPLAYBPM:175.000000;
#NOTES:
0000
0000
0000
0000
,
0000
0000
0000
0000
,
0000
0000
0000
0000
,
0000
0000
0000
0000
,
0010
0010
0010
0010
,
0100
0100
0100
0100
,
0001
0001
1000
1000
,
0001
0010
0100
1000
,
0001
0001
0001
0000
,
1000
1000
1000
0000
,
0010
0100
0001
0010
,
0001
0100
0010
1000
,
0010
0010
0010
0000
,
0100
0100
0100
0000
,
0001
0010
0001
0100
,
1000
0001
1000
0010
,
0000
0000
2000
0000
0000
3001
0000
0000
,
0000
0000
0020
0000
0000
0130
0000
0000
,
0000
0000
0002
0000
0000
1003
0000
0000
,
0000
0000
0200
0000
0000
0310
0000
0000
,
0001
0001
1000
1000
,
0010
0010
0100
0100
,
0001
0010
0100
1000
,
0010
0100
0110
1001
,
0010
1000
0100
0010
,
0001
0100
1000
0010
,
1000
0010
0100
0010
,
0001
0100
1000
0010
,
1000
0001
1000
0010
,
1000
0100
0010
0001
,
0100
0010
0100
0001
,
1000
0110
1001
0000
,
0010
1000
0010
0100
,
0001
0010
0100
0001
,
1000
0001
0010
0100
,
1000
0010
1000
0001
,
1000
0100
0010
0001
,
0100
0001
0010
0100
,
0001
0010
1000
0100
,
1000
0001
0100
0010
,
2000
0100
0000
0001
,
0000
0100
0000
0010
,
3002
0010
0000
1000
,
0203
0010
0000
1000
,
0320
0100
0000
0001
,
0000
1000
0000
0130
,
0010
1000
0000
0100
,
1001
0110
1001
0110
,
0000
0000
0020
0000
0000
1030
0000
0000
,
0000
0000
0002
0000
0000
0103
0000
0000
,
0000
0000
2000
0000
0000
3001
0000
0000
,
0000
0000
0200
0000
0000
0310
0000
1001
,
0000
0000
2000
0000
0000
3100
0000
0000
,
0000
0000
0020
0000
0000
0031
0000
0000
,
0000
0000
0100
0000
0000
0110
0000
0000
,
0010
1000
0100
0110
,
0001
0100
1000
0000
,
0010
0100
0001
0000
,
1000
0001
0010
0000
,
0100
1000
0010
0000
,
1000
0100
1000
0000
,
0001
0010
0001
0000
,
1000
0010
1000
0000
,
0001
0100
0001
0000
,
0010
0001
0100
0010
,
1000
0100
0010
0001
,
0100
1000
0010
0100
,
0001
0010
1000
0001
,
0010
0001
0100
0010
,
1000
0100
0010
0001
,
0200
0010
0310
0000
,
0002
1000
1003
0000
,
1001
0000
0000
0000
;

//---------------dance-single - ----------------
#NOTEDATA:;
#CHARTNAME:;
#CHARTHASH:0:
#STEPSTYPE:dance-single;
#BANNER:;
#DESCRIPTION:;
#CHARTSTYLE:;
#DIFFICULTY:Beginner;
#METER:4;
#METERF:0.000000;
#RADARVALUES:0.179851,0.278908,0.029053,0.116212,0.000000,130.000000,127.000000,3.000000,12.000000,0.000000,0.000000,0.000000,0.000000,0.000000,0.179851,0.278908,0.029053,0.116212,0.000000,130.000000,127.000000,3.000000,12.000000,0.000000,0.000000,0.000000,0.000000,0.000000;
#CREDIT:;
#DISPLAYBPM:175.000000;
#NOTES:
0000
0000
0000
0000
,
0000
0000
0000
0000
,
0000
0000
0000
0000
,
0000
0000
0000
0000
,
0010
0000
0010
0000
,
0100
0000
0100
0000
,
0001
0000
0001
0000
,
1000
1000
1000
0000
,
0010
0000
1000
0000
,
0001
0000
1000
0000
,
0100
0000
0010
0000
,
0001
0000
0100
0000
,
0001
0000
0010
0000
,
0100
0000
0010
0000
,
0100
0000
1000
0000
,
0001
0000
1000
0000
,
0010
0000
0000
0000
,
0100
0000
0000
0000
,
0001
0000
0000
0000
,
1000
0000
0000
0000
,
0100
0000
0010
0000
,
0100
0000
0010
0000
,
0001
0000
1000
0000
,
0001
0001
0001
0000
,
1000
1000
1000
0000
,
0010
0010
0010
0000
,
1000
0000
0100
0000
,
0010
0000
0001
0000
,
0100
0100
0100
0000
,
0010
0010
0010
0000
,
1000
0000
0001
0000
,
1000
0000
0100
0000
,
0001
0001
0001
0000
,
0100
0100
0100
0000
,
0010
0000
1000
0000
,
0001
0000
0100
0000
,
0001
0001
0001
0000
,
1000
1000
1000
0000
,
0100
0000
0010
0000
,
0001
0000
1000
0000
,
0020
0000
0000
0000
,
0000
0030
0000
0000
,
2000
3000
0000
0000
,
0002
0003
0000
0000
,
0200
0000
0000
0000
,
0000
0300
0000
0000
,
0002
0003
0000
0000
,
0020
0030
0000
0000
,
0200
0000
0000
0000
,
0000
0300
0000
0000
,
2000
3000
0000
0000
,
2000
3000
0000
0000
,
0020
0000
0000
0000
,
0000
0030
0000
0000
,
0200
0300
0000
0000
,
0002
0003
0000
0000
,
1000
1000
0000
0000
,
0010
0010
0000
0000
,
0100
0100
0000
0000
,
0001
0001
0000
0000
,
1000
1000
0000
0000
,
0100
0100
0000
0000
,
0010
0010
0000
0000
,
0001
0001
0000
0000
,
0100
0100
0100
0000
,
0010
0010
0010
0000
,
1000
1000
1000
0000
,
0001
0001
0001
0000
,
0010
0010
0010
0000
,
0100
0100
0100
0000
,
1001
0000
0000
0000
,
0110
0000
0000
0000
,
1001
0000
0000
0000
;

//---------------dance-single - ----------------
#NOTEDATA:;
#CHARTNAME:;
#CHARTHASH:0:
#STEPSTYPE:dance-single;
#BANNER:;
#DESCRIPTION:;
#CHARTSTYLE:;
#DIFFICULTY:Challenge;
#METER:15;
#METERF:0.000000;
#RADARVALUES:0.791345,0.941313,0.445477,0.077474,0.343792,572.000000,526.000000,46.000000,8.000000,0.000000,0.000000,0.000000,0.000000,0.000000,0.791345,0.941313,0.445477,0.077474,0.343792,572.000000,526.000000,46.000000,8.000000,0.000000,0.000000,0.000000,0.000000,0.000000;
#CREDIT:;
#DISPLAYBPM:175.000000;
#NOTES:
// measure 0
0000
0000
0000
0000
,  // measure 1
0000
0000
0000
0000
,  // measure 2
0000
0000
0000
0000
,  // measure 3
0000
0000
0000
0000
,  // measure 4
0010
0000
0000
0000
0010
0000
0000
1000
0010
0000
0000
0000
1000
0000
0100
0000
,  // measure 5
0001
0000
0000
0000
0001
0000
0000
0010
0001
0000
0000
0000
0100
0000
0010
0000
,  // measure 6
1000
0000
0000
0000
1000
0000
0000
0001
0100
0000
0000
0000
0100
0000
0000
0010
,  // measure 7
1000
0000
0000
0000
0001
0100
0001
0100
0001
0000
1000
0100
0010
0001
0100
0000
,  // measure 8
0110
0000
0000
0000
1001
0000
0000
0010
1000
0010
0100
0000
0001
0000
1000
0000
,  // measure 9
1100
0000
0000
0000
0011
0000
0000
0100
0001
1000
0001
0000
0010
0000
0100
0000
,  // measure 10
1000
0000
0000
0000
1010
0000
0010
0100
0001
0000
0000
0000
0101
0000
0100
0010
,  // measure 11
1000
0000
0000
0000
1000
0000
0100
0010
0001
0000
0000
0000
0001
0000
0000
0000
,  // measure 12
0011
0000
0000
0000
1010
0000
0000
0100
0010
1000
0001
0000
1000
0000
0100
0000
,  // measure 13
1001
0000
0000
0000
0110
0000
0000
0001
1000
0100
0010
0000
0001
0000
0100
0000
,  // measure 14
0010
0000
0000
0000
0101
0000
0001
1000
0100
0000
0000
0000
1100
0000
1000
0001
,  // measure 15
0010
0000
0000
0000
0010
0000
0001
1000
0100
0000
0000
0000
0100
0000
0000
0000
,  // measure 16
1000
0000
0010
0100
0001
0010
0100
1000
,  // measure 17
0001
0000
1000
0001
0010
0100
1000
0001
,  // measure 18
0100
0000
0001
0010
0001
0100
1000
0010
,  // measure 19
1000
0000
0100
0010
0001
0100
1000
0001
,  // measure 20
0010
0000
0000
0000
1100
0000
0000
0001
1000
0000
0000
0000
0101
0000
0000
0100
,  // measure 21
0010
0000
0000
0000
1010
0000
0000
0100
0001
0000
0000
0000
0011
0000
0000
1000
,  // measure 22
0020
0230
0302
2003
,  // measure 23
3001
1000
0100
0010
1000
0100
0001
0010
0100
0000
0110
0000
1001
0000
0000
0000
,  // measure 24
0010
0001
0100
1000
0100
1000
0001
0010
,  // measure 25
1000
0001
0010
0100
0010
1000
0100
0001
,  // measure 26
0001
0100
0010
0001
1000
1000
0010
0100
,  // measure 27
1000
0010
1000
0100
0001
0100
0001
0010
,  // measure 28
0001
0010
1000
1000
0010
0100
0100
0001
,  // measure 29
0001
1000
0100
1000
0010
0010
0100
0001
,  // measure 30
0100
0010
1000
0001
0001
1000
0010
0100
,  // measure 31
1001
0000
0000
0000
1010
0000
0000
0000
1000
0100
1000
0000
0001
0000
0001
0000
,  // measure 32
0100
1000
0010
0001
0001
1000
0010
0100
,  // measure 33
1000
0100
0010
0010
0001
0100
0001
1000
,  // measure 34
0100
0001
0100
1000
1000
0010
0010
0001
,  // measure 35
0001
0100
0100
1000
1000
0001
0010
0010
,  // measure 36
0001
0100
0100
1000
0001
0010
1000
0010
,  // measure 37
0001
0010
1000
1000
0001
0100
0100
0010
,  // measure 38
0101
0000
0000
0000
1100
0000
0000
0001
0010
0100
1000
0000
0010
0000
0100
0000
,  // measure 39
0001
0010
0001
0010
0100
1000
0100
1000
0001
0100
0001
0100
0010
1000
0010
1000
,  // measure 40
0001
0000
0100
0010
1000
0001
0011
0000
,  // measure 41
0100
0000
0010
1000
0100
0001
0110
0000
,  // measure 42
0010
0000
0001
1000
0010
0100
1010
0000
,  // measure 43
0100
0000
0001
0010
0001
0100
0110
0000
,  // measure 44
0100
0000
0010
1000
0100
0001
0011
0000
,  // measure 45
0100
0000
0001
0010
0001
1000
0101
0000
,  // measure 46
1001
0000
1000
0010
0100
0001
1100
0000
,  // measure 47
2000
3200
0320
0032
,  // measure 48
0013
0000
0000
0000
0001
0100
0001
0000
0010
0000
1000
0100
1000
0000
0000
0000
,  // measure 49
0100
0000
0000
0000
0001
1000
0001
0000
0100
0000
0010
1000
0010
0000
0000
0000
,  // measure 50
1000
0000
0000
0000
0100
0010
0100
0000
1000
0000
0001
0010
0001
0000
0000
0000
,  // measure 51
0100
0000
0000
0000
0010
1000
0001
0000
0010
0000
0001
0100
0010
0000
1000
0000
,  // measure 52
0001
0000
0000
0000
0010
0100
0010
0000
0100
0000
1000
0001
1000
0000
0000
0000
,  // measure 53
0010
0000
0000
0000
1000
0100
1000
0000
0100
0000
0001
0010
0001
0000
0000
0000
,  // measure 54
0100
0000
0000
0000
0010
1000
0010
0000
1000
0000
0001
0100
0001
0000
0000
0000
,  // measure 55
1100
0000
0000
0000
0011
0000
0000
0000
0100
0000
0001
0010
0100
0000
1000
0001
,  // measure 56
0100
0010
1000
0001
0010
0100
1000
0010
,  // measure 57
1000
0001
1000
0100
0001
0010
0100
1000
,  // measure 58
0010
1000
0100
0001
0010
0001
1000
0001
,  // measure 59
0010
1000
0100
0010
0001
0100
0001
0010
,  // measure 60
1000
0001
0100
0010
0100
1000
0010
0100
,  // measure 61
0010
1000
0100
0001
0010
0001
0100
0010
,  // measure 62
0001
0100
0010
0001
1000
0100
0010
0001
,  // measure 63
1010
0000
0000
0000
0101
0000
1000
0100
0010
0000
0001
0100
0010
0000
0110
0000
,  // measure 64
1000
0000
0001
0000
0010
0100
0010
0000
0001
0000
0100
0010
1000
0000
0001
0000
,  // measure 65
1000
0000
0100
0000
0010
0100
1000
0000
0001
0000
0100
0001
0010
0000
0001
0000
,  // measure 66
0100
0000
0010
0000
1000
0100
0010
0000
0001
0000
1000
0001
0100
0000
0010
0000
,  // measure 67
1000
0000
0100
0000
0001
0010
0001
0000
1000
0000
0001
0100
0010
0000
1000
0000
,  // measure 68
0100
0000
0010
0000
0001
0100
0001
0000
0010
0000
0100
1000
0010
0000
0100
0000
,  // measure 69
0010
0000
1000
0000
0001
0010
0001
0000
1000
0000
0100
0010
0100
0000
1000
0000
,  // measure 70
1001
0000
1010
1010
0000
0101
0000
1100
,  // measure 71
0011
0000
0101
0101
0000
1010
0000
0110
,  // measure 72
1001
0000
0000
0000
;
