#TITLE:Touchin';
#ARTIST:The Lonely Hearts;
#BANNER:Touchin'.png;
#BACKGROUND:Touchin'-bg.png;
#JACKET:Touchin'-jacket.png;
#MUSIC:Touchin'.ogg;
#SAMPLESTART:48.573;
#SAMPLELENGTH:20;
#DISPLAYBPM:120;
#BPMS:0=120;
#BGCHANGES:;

//---------------dance-single - ----------------
#NOTES:
     dance-single:
     :
     Beginner:
     2:
     :
0000
0000
0000
0000
,
0000
0000
0000
0000
,
0000
0000
0000
0000
,
1000
0000
0000
0000
,
0100
0000
0000
0000
,
0001
0000
0000
0000
,
0010
0000
0000
0000
,
0001
0000
0000
0000
,
0010
0000
0010
0000
,
0001
0000
0000
0000
,
0100
0000
0000
0000
,
0001
0000
0000
0000
,
0001
0000
0000
0000
,
1000
0000
0010
0000
,
0010
0000
0000
0000
,
0010
0000
0000
0000
,
0001
0000
1000
0000
,
0001
0000
0000
0000
,
0100
0000
0000
0000
,
1000
0000
0001
0000
,
0000
0000
0000
0000
,
0001
0001
0000
0000
,
1000
1000
0000
0000
,
2000
0000
0000
0000
,
3000
0000
0000
0000
,
1001
0000
0000
0000
,
0001
0000
0100
0000
,
0010
0000
0000
0000
,
0100
0000
0000
0000
,
1001
0000
0000
0000
,
0001
0000
0000
0000
,
1000
0000
0000
0000
,
0010
0000
0000
0000
,
1001
0000
0000
0000
,
1000
0000
0010
0000
,
0100
0000
0000
0000
,
0010
0000
0000
0000
,
1001
0000
0000
0000
,
1000
0000
0000
0000
,
0001
0000
0000
0000
,
0200
0000
0000
0300
,
0000
0000
0010
0010
,
0000
0000
0100
0000
,
0002
0000
0000
0000
,
0000
0000
0000
0000
,
0003
0000
0000
0000
,
0100
0000
0000
0000
,
1000
0000
0000
0000
,
0110
0000
0110
0000
,
1001
0000
0000
0000
;

//---------------dance-single - ----------------
#NOTES:
     dance-single:
     :
     Easy:
     3:
     :
0000
0000
0000
0000
,
0000
0000
0000
0000
,
0000
0000
0000
0000
,
1000
0000
0001
0000
,
0001
0000
1000
0000
,
1000
0000
0010
0000
,
1000
0000
1000
0000
,
1000
0000
0010
0000
,
0001
0000
0100
0000
,
0110
0000
0000
0000
,
0001
0000
0100
0000
,
1000
0000
0001
0000
,
0110
0000
0000
0000
,
1001
0000
0000
0000
,
0001
0000
1000
0000
,
0010
0000
0000
0000
,
1001
0000
1001
0000
,
0000
0000
0100
0000
,
0001
0000
1000
0000
,
0100
0000
0001
0000
,
0000
0000
0000
0000
,
1000
1000
1000
0000
,
0001
0001
0001
0000
,
2000
0000
0000
0000
,
3000
0000
0000
0000
,
1001
0000
0000
0000
,
0001
0000
0100
0000
,
0020
0000
0030
0000
,
0000
0000
1000
0010
,
1001
0000
0000
0000
,
0001
0000
1000
0000
,
0010
0000
0001
0000
,
2002
3003
0000
0000
,
1001
0000
0000
0000
,
1000
0000
0010
0000
,
0200
0000
0300
0000
,
0000
0000
0001
0100
,
1001
0000
0000
0000
,
1000
0000
0001
0000
,
0100
0000
1000
0000
,
2000
0000
0000
3000
,
0000
0000
0020
0030
,
0200
0300
2000
3000
,
0002
0000
0000
0000
,
0000
0000
0000
0000
,
1003
0000
0100
0000
,
1000
0000
1000
0000
,
1000
0000
0100
0000
,
0001
0010
0100
0000
,
1000
0100
0010
0000
;

//---------------dance-single - ----------------
#NOTES:
     dance-single:
     :
     Medium:
     7:
     :
0000
0000
0000
0000
,
0000
0000
0000
0000
,
0000
0000
0000
0000
,
1000
0000
0001
0000
,
0010
0000
1000
0000
,
1000
0001
1000
0001
,
0010
1000
0010
1000
,
1000
0001
1000
0001
,
0010
0001
0010
0001
,
0020
0000
0000
0030
0200
0000
0300
0000
,
0002
0000
0000
0003
0100
0000
0100
0000
,
2000
0000
0000
3000
0002
0000
0000
0003
,
0200
0000
0000
0300
0000
0000
0000
0000
,
1000
0000
0001
0100
0100
0000
0001
0000
,
0001
0000
0100
1000
1000
0000
1000
0000
,
0010
0100
0100
0010
,
0020
0000
0000
0030
0200
0000
0000
0300
,
0001
0010
0100
1000
,
0020
0031
0200
1300
,
0002
0000
2003
0000
,
3000
0000
0000
1000
,
0020
0000
0030
0200
0000
0300
0010
0000
,
0010
0000
0000
0010
0000
0000
0100
0000
,
2002
0000
0000
0000
,
3003
0000
0000
0000
1000
0001
1000
0001
,
2000
0000
0000
3000
0000
0000
1000
0000
,
0002
0000
0000
0003
0020
0000
0000
0030
,
0200
0000
0000
0300
0000
0000
0100
0000
,
0100
0000
0010
0000
0010
0100
0001
0000
,
1001
0000
0000
0000
0001
0010
0100
0010
,
0002
0000
0000
0003
2000
0000
0000
3000
,
0020
0000
0000
0030
0200
0000
0000
0300
,
0110
0000
0000
0000
0001
1000
0001
1000
,
0002
0000
0000
0003
0000
0000
0001
0000
,
2000
0000
0000
3000
0200
0000
0000
0300
,
0020
0000
0000
0030
0000
0000
0010
0000
,
0010
0000
0100
0000
0100
0010
1000
0000
,
1001
0000
0000
0000
1000
0100
0010
0100
,
2000
0000
0000
3000
0002
0000
0000
0003
,
0200
0300
0020
0030
,
2002
0000
0000
3003
,
0020
0130
0200
0301
,
0002
1003
2000
3001
,
0002
0000
0000
0000
,
0000
0000
0000
0000
,
1003
0000
1000
0000
,
0001
0000
0001
0000
,
1000
0000
0001
0000
,
0001
0000
0100
0000
0010
0100
1000
0000
,
0001
0001
0100
0000
0010
0010
1000
0000
;

//---------------dance-single - ----------------
#NOTES:
     dance-single:
     :
     Hard:
     9:
     :
0000
0000
0000
0000
,
0000
0000
0000
0000
,
0000
0000
0000
0000
,
0000
0000
0000
0000
,
0000
0000
0000
0000
,
1000
0100
0010
0001
0001
0000
0100
0000
,
1000
0000
0001
0100
1000
0100
0001
0000
,
0001
0010
0100
1000
1000
0000
0010
0000
,
0010
0000
0010
1000
0010
0001
0010
0000
,
0000
1000
0100
0010
0000
0001
0010
0100
,
0000
1000
0100
0001
0100
0000
1000
0000
,
0020
0000
0000
0030
0002
0000
0000
0003
,
0020
0000
0000
0030
0000
0000
0000
0000
,
0000
1000
0001
0010
0000
0010
0001
1000
,
0000
0001
0100
0001
0010
0001
0100
0001
,
0010
0000
0000
1000
0000
0000
0100
0000
0010
0000
0000
0001
0000
0000
0010
0000
,
0020
0000
0000
0130
0200
0000
0000
0300
,
0001
0000
0010
1000
0010
0000
0001
0000
,
1000
0010
0001
0010
1000
0000
0001
0000
,
2000
0000
3002
0000
,
0003
0000
0000
0000
0000
0000
0010
0100
,
2000
0000
3000
0200
0000
0300
0010
0000
,
0010
0000
0000
0110
0000
0000
0100
0000
,
2002
0000
0000
0000
,
3003
0000
0000
1100
,
0011
0000
1000
0100
0010
0001
0100
0000
,
0010
1000
0100
0000
0101
0000
1010
0000
,
0001
0101
0001
0011
,
1000
0010
0100
0001
0010
0001
0010
0000
,
1100
0100
0001
0100
,
0011
0000
0110
0000
1100
0000
0000
0010
,
0020
0000
0000
1030
2000
0000
0000
3000
,
1001
0000
0000
0011
,
1100
0000
0001
0010
0100
1000
0010
0000
,
0100
0001
0010
0000
1010
0000
0101
0000
,
1000
1010
1000
1100
,
0001
0100
0010
1000
0100
1000
0100
0000
,
0011
0010
1000
0010
,
1100
0000
0110
0000
0011
0000
0000
0011
,
0022
0000
0033
1100
2200
0000
3300
1001
,
2002
0000
0000
3003
,
0200
0000
0300
0010
0020
0000
0030
1000
,
2000
0000
3000
0001
0002
0000
1003
0000
,
2002
0000
0000
0000
,
0000
0000
0000
3003
,
0001
0010
0100
1000
1000
0000
0010
0000
,
0001
0000
1000
0010
0001
0010
1000
0000
,
1000
0100
0010
0001
0001
0000
0100
0000
,
0100
0000
0100
0001
0100
1000
0100
0000
,
0100
0010
0100
0001
0100
1000
0100
0001
;

//---------------dance-single - ----------------
#NOTES:
     dance-single:
     :
     Challenge:
     13:
     :
0000
0000
0000
0000
,
0000
0000
0000
0000
,
0000
0000
0000
0000
,
1000
0010
0001
0100
0001
0100
1000
0010
,
1000
0001
0100
0100
0010
0001
1000
0010
,
0100
0001
0001
1000
0010
1000
0100
0010
,
0001
1000
0010
1000
0010
0100
0001
0100
,
0001
0100
0010
0010
1000
1000
0001
0100
,
0100
0001
1000
0010
0010
0001
1000
0100
,
0110
0000
0001
0100
0010
1000
0010
0100
,
1001
0000
0010
0001
0100
0010
1000
0100
,
0011
0000
0100
0001
0010
0100
1000
0010
,
1100
0000
0001
1000
0001
0010
0100
1000
,
0010
0000
0000
0010
0000
0000
1000
0000
0001
0000
1000
0100
1000
0000
0001
0000
,
0100
0010
1000
0001
0001
1000
0100
0010
,
0001
0000
0000
0100
0000
0000
0010
0000
1000
0000
0000
0100
0000
0000
0010
0000
,
0002
0100
0103
0010
2000
0001
3001
0100
,
0010
1000
0001
0010
0101
0000
1010
0000
,
1000
0100
0011
0000
0001
0100
1010
0000
,
0020
1000
1030
0001
0200
0010
0310
1000
,
0100
0010
0001
0100
0010
1000
0001
1000
,
0200
1000
1300
0002
0010
0013
0001
0100
,
2000
0001
3001
0020
0100
0130
1000
0100
,
0010
0001
0010
0001
0100
0000
0010
1000
0100
0000
0100
0000
1000
0001
1000
0001
,
0010
0000
0001
0100
1000
0000
0010
0000
0100
0000
0010
0000
1000
0000
0001
0000
,
0010
0000
0001
0000
0100
0000
0010
0000
1000
0100
1000
0000
0001
0010
0001
0010
,
0100
0000
1000
0000
0001
0000
1000
0000
0100
0010
0100
0010
0100
0000
1000
0000
,
0010
1000
0010
1000
0010
0000
0100
0001
0100
0000
0010
0000
1000
0000
0001
0000
,
0010
0000
0001
1000
0001
0000
1000
0100
1000
0000
0100
0010
0100
0000
0010
0001
,
1000
0000
0010
0100
0010
0000
1000
0000
0001
0000
0010
0000
0001
0000
0100
0000
,
1000
0000
0100
0001
0010
0000
0100
0000
1000
0000
0001
0100
0010
0000
1000
0000
,
0100
0000
0010
0001
0010
0000
0100
0000
1000
0000
0001
1000
0001
0000
0100
0000
,
0010
1000
0100
0001
0001
0010
1000
0100
,
0010
0000
0001
0000
0100
0000
0010
0000
1000
0001
1000
0000
0100
1000
0001
0100
,
0010
0000
1000
0000
0100
0000
0010
0001
1000
0000
0010
0100
0001
0000
1000
0000
,
0100
1000
0100
1000
0100
0000
0010
0000
0001
0010
0001
0010
0001
0000
1000
0000
,
0010
0000
1000
0100
1000
0000
0001
0100
0001
0000
0010
0100
0010
0000
0001
1000
,
0100
0000
1000
0001
1000
0000
0010
0000
0100
0000
0010
0000
0001
0000
0010
0000
,
1000
0000
0100
0010
0001
0000
0100
0000
0010
0000
1000
0001
1000
0000
0100
0000
,
0020
0001
0031
0100
2000
0010
3010
0100
,
0001
0000
0010
0000
0100
0000
1000
0000
0010
1000
0010
1000
0001
0100
0001
0100
,
0020
1000
1030
0001
1100
0000
0100
0010
,
0002
1000
1003
0010
0101
0000
1001
0000
,
0110
0000
1000
0000
0100
0000
0010
0000
0001
0100
0001
0100
0001
0000
1000
0010
,
0100
0000
0001
1000
0001
0000
0010
0000
0100
0000
1000
0010
1000
0000
0001
0000
,
0100
1000
0100
0001
0010
0001
1000
0010
,
0010
0001
1000
0001
0100
0010
0100
1000
,
0001
1000
0100
0010
0001
0100
0010
1000
,
1000
0100
0010
0100
1000
0001
0010
0001
,
0100
0100
1000
0001
0010
0010
0001
1000
;
