#TITLE:Tooryanse (tekno children mix);
#ARTIST:Canton;
#BANNER:Tooryanse (tekno children mix).png;
#BACKGROUND:Tooryanse (tekno children mix)-bg.png;
#JACKET:Tooryanse (tekno children mix)-jacket.png;
#MUSIC:Tooryanse (tekno children mix).ogg;
#SAMPLESTART:60.773;
#SAMPLELENGTH:20;
#DISPLAYBPM:145:181;
#BPMS:0=145.161,4=145.015,108=145.161,116=151.26,120=156.522,124=168.224,128=169.811,132=171.429,136=174.757,140=178.218,144=180.905,148=179.104,152=180;
#BGCHANGES:;

//---------------dance-single - ----------------
#NOTES:
     dance-single:
     :
     Beginner:
     3:
     :
0000
0000
0000
0000
,
0000
0000
0000
0000
,
0000
0000
0000
0000
,
0000
0000
0000
0000
,
0000
0000
0000
0000
,
0000
0000
0000
0000
,
1000
0000
1000
0000
,
0010
0010
0010
0000
,
0100
0000
0000
0000
,
0100
0000
0000
0000
,
0001
0001
0000
0000
,
1000
1000
0000
0000
,
0010
0010
0000
0000
,
1000
0000
0000
0000
,
1000
0000
1000
0000
,
0100
0100
0100
0000
,
0010
0000
0010
0000
,
0001
0001
0001
0000
,
1000
0000
0001
0000
,
1000
1000
1000
0000
,
0010
0000
0100
0000
,
0010
0000
0000
0000
,
0100
0000
0100
0000
,
0010
0010
0010
0000
,
1000
0000
0001
0000
,
1000
1000
1000
0000
,
0001
0000
0100
0000
,
0001
0001
0001
0000
,
0000
0000
0000
0000
,
0000
0000
0000
0000
,
0001
0000
1000
0000
,
0001
0000
1000
0000
,
0010
0000
0000
0000
,
0100
0000
0000
0000
,
0010
0000
1000
0000
,
0001
0000
1000
0000
,
0001
0000
0000
0000
,
0100
0000
0000
0000
,
0010
0000
0010
0000
,
0010
0010
0010
0000
,
0100
0000
0100
0000
,
0100
0100
0100
0000
,
0001
0000
0001
0000
,
1000
1000
1000
0000
,
0001
0000
1000
0000
,
0001
0001
0001
0000
,
0100
0100
0000
0000
,
0010
0010
0000
0000
,
0100
0100
0000
0000
,
0001
0001
0000
0000
,
1000
1000
0000
0000
,
0010
0010
0000
0000
,
0100
0000
0000
0000
,
0010
0000
0000
0000
,
0100
0100
0000
0000
,
0010
0010
0000
0000
,
0100
0000
0100
0000
,
0001
0000
0000
0000
,
1000
0000
0000
0000
,
1000
0000
0001
0000
,
1000
0000
0001
0000
,
0100
0000
0001
0000
,
1000
0000
0100
0000
,
1000
0000
0010
0000
,
0100
0000
0010
0000
,
0110
0000
0000
0000
;

//---------------dance-single - ----------------
#NOTES:
     dance-single:
     :
     Easy:
     6:
     :
0000
0000
0000
0000
,
0000
0000
0000
0000
,
0000
0000
0000
0000
,
0000
0000
0000
0000
,
0000
0000
0000
0000
,
0000
0000
0000
0000
,
1000
1000
1000
0010
,
1000
0000
0001
0000
,
0100
0100
0001
0010
,
0100
0000
1000
0000
,
0010
0010
0000
0000
,
1000
1000
1000
0001
,
1000
1000
0000
0000
,
0100
0100
0100
0000
,
1000
1000
0001
1000
,
0010
0100
0100
0000
,
0100
0010
0100
0000
,
0001
0001
0001
0000
,
1000
1000
0010
0100
,
0010
0010
0010
0000
,
0100
0001
0100
0000
,
0100
0010
0100
0000
,
0010
0010
0010
0100
,
0010
0100
0001
0000
,
1000
1000
0001
0100
,
0010
0000
0100
0000
,
0010
0010
0010
1000
,
0010
1000
0100
0000
,
0000
0000
0000
0000
,
1000
1000
1000
1000
,
1000
0000
0001
0000
,
0100
0100
0100
0100
,
0001
0000
1000
0000
,
0010
0010
0010
0000
,
0100
0001
0100
0000
,
0010
1000
0010
0000
,
0100
0001
0100
0000
,
0001
1000
0001
0000
,
1000
1000
1000
0001
,
1000
0000
0001
0000
,
0100
0100
0100
0010
,
0100
0000
0100
0000
,
0100
0100
0100
0001
,
0100
0010
1000
0000
,
1000
0000
0001
0000
,
1000
1000
1000
0000
,
0001
0001
0001
1000
,
0001
0100
0010
0000
,
1000
1000
1000
0010
,
0100
0001
0100
0001
,
1000
0000
0001
0000
,
0100
0100
0100
0000
,
0010
0000
0010
0000
,
0010
0000
0010
0000
,
0100
0000
0100
0000
,
0100
0100
0100
0100
,
0100
0000
0100
0000
,
0010
0100
0010
0100
,
0010
0000
1000
0000
,
0010
1000
0010
1000
,
0010
0000
0100
0000
,
0001
0100
0001
0100
,
0001
0000
1000
0000
,
0001
1000
0001
1000
,
0010
0100
0010
0100
,
0110
0000
0000
0000
;

//---------------dance-single - ----------------
#NOTES:
     dance-single:
     :
     Medium:
     8:
     :
0000
0000
0000
0000
,
0000
0000
0000
0000
,
0000
0000
0000
0000
,
0000
0000
0000
0000
,
0000
0000
0000
0000
,
0000
0000
0000
0000
,
0001
0000
1000
0000
,
0010
0000
0100
0000
,
0001
0000
1000
0000
,
0100
0000
0010
0000
,
0001
0000
1001
0000
,
1000
0010
0110
0000
,
0100
0000
0001
0000
,
0010
0000
0110
0000
,
1000
0100
0100
1000
,
0010
0000
0100
1000
0200
0000
0300
0000
,
0001
1000
0100
0010
,
0100
1000
0100
0000
0020
0000
0030
0000
,
0001
0000
0002
0000
0000
1000
1003
0000
,
0010
0100
0220
0330
,
0001
0000
0010
0000
0100
0000
1000
0100
,
0010
0001
0010
0000
0200
0000
0300
0000
,
1000
0000
0010
0000
0100
0000
0001
0100
,
0010
1000
0010
0000
0220
0000
0330
0000
,
0001
0010
0001
0010
,
0200
2300
3020
0030
,
0100
0001
0100
0001
,
0011
0110
2002
3003
,
1000
0000
0001
0000
,
1000
0000
0001
0000
1000
0000
0001
0010
,
0100
1000
0010
1000
0000
1000
0000
0001
,
0100
0001
0010
0001
0000
0001
0000
0010
,
0100
0001
0100
1000
0000
1000
0000
0010
,
0100
1000
0100
0001
0000
0001
0000
0000
,
0110
0110
2000
3000
,
0110
0110
0001
0000
,
1001
1001
0020
0030
,
1001
1001
0200
0300
,
1000
0001
1000
0100
,
0010
0000
0100
1000
0002
0000
0003
0100
,
0100
0010
0100
0010
,
1000
0100
1000
0000
0010
0000
1000
0000
,
0100
0010
0100
0010
,
0001
0100
0001
0000
0010
0000
0001
0000
,
2200
3300
1000
0001
,
0100
0010
1000
0000
0202
0000
0303
0000
,
0000
0001
0000
0010
0000
1000
0000
0010
,
0000
0001
0000
1000
0000
0100
0000
0001
,
0100
0000
0100
0000
2000
0000
3001
1000
,
0001
0100
0001
0000
0020
0000
0030
0000
,
0100
0000
0100
0000
2000
0000
3001
0010
,
0001
0100
0001
0000
2000
0000
3000
0000
,
0010
0010
0100
0100
,
0001
0010
1000
0010
,
0110
0100
0001
0100
,
1100
1000
0010
0100
,
0101
0010
1100
0010
,
0101
1000
0100
1000
,
0001
0100
0001
0100
,
0010
0001
0010
0001
,
1000
0000
0100
0000
1000
0000
0100
0001
,
0000
1000
0000
0001
0000
0010
0000
0100
,
0000
1000
0000
0001
0000
1000
0000
0010
,
0000
0001
0000
0010
0000
1000
0000
0100
,
0000
0001
0000
0010
0000
1000
0000
0100
,
0020
0000
0000
0030
;

//---------------dance-single - ----------------
#NOTES:
     dance-single:
     :
     Hard:
     12:
     :
0000
0000
0000
0000
,
0000
0000
0000
0000
,
0000
0000
0000
0000
,
0000
0000
0000
0000
,
0000
0000
0000
0000
,
0000
0000
0000
0000
,
0001
0100
0001
1000
,
0010
1000
0100
0010
,
0001
0000
1000
0000
0001
0010
0100
1000
,
0100
0000
1000
0000
0010
0000
0100
0001
,
0010
0000
0000
0000
0100
1000
0010
0000
,
0101
0000
0010
0001
0100
0001
1000
0000
,
1100
0000
0000
0000
0001
1000
0100
0000
,
0201
0020
0000
0330
,
2010
0001
3100
0102
,
1000
0000
0013
0001
0100
0000
0001
0000
,
1020
0000
0130
0000
0201
0000
0310
0100
,
0010
1000
0010
0100
0001
0000
0000
0000
,
0012
0000
2003
0000
0000
3100
0001
0100
,
0010
0100
2000
0000
3020
0000
0030
0000
,
0002
0000
0103
0000
0020
0000
2030
3001
,
0100
0001
1000
0001
0010
0000
0000
0000
,
0011
0000
1010
0000
1001
0000
0001
0010
,
0110
1100
0101
0000
,
1001
0001
0001
0001
1001
0000
0001
1000
,
0010
0100
1000
0100
0010
0000
0000
0000
,
2001
0000
3002
0000
0000
1003
0100
1000
,
1010
1000
1001
0001
0101
0000
0000
0000
,
0210
0001
0010
1300
,
1000
0100
1000
0100
0010
0001
0010
0001
,
0100
0001
0100
0001
0000
1000
0000
0010
,
1000
0010
1000
0001
0000
0101
0000
1000
,
0100
1000
0001
0101
0000
1100
0000
1000
,
0001
0010
0001
0000
,
1000
0000
0100
0000
1000
0100
1000
0010
,
0001
0100
1000
0000
,
0001
0000
0100
0000
0001
0100
0001
0010
,
1000
0100
1000
0100
0001
0100
0001
0100
,
1000
0000
1001
0000
0010
0000
1000
0001
,
0010
0000
0010
1000
0100
0000
0011
0000
,
0100
0000
0001
0000
0010
0000
1000
1000
,
0001
0010
0100
1000
0001
0000
0110
0000
,
0100
0000
0001
0000
1000
0000
0001
0001
,
1000
0010
0100
0001
1000
0000
1001
0000
,
0001
0100
0001
1000
0100
1000
0001
0010
,
0100
1000
0100
0000
0101
0000
0000
0000
,
1000
0010
1000
0001
0010
0010
0001
0001
,
0100
0010
1000
0100
1100
0000
0000
0000
,
0010
0001
0100
0001
0010
0001
0100
0001
,
0010
0100
1000
1000
0100
0000
0000
0000
,
0010
1000
0100
1000
0010
0100
0001
0010
,
0001
0100
0001
0001
0010
0000
0000
0000
,
0100
1000
0001
0100
1000
0100
0001
1000
,
0100
0010
0001
0010
0100
0000
1001
0000
,
0110
1000
0001
0100
0010
0100
0001
1000
,
0110
0000
0001
0000
0100
0001
1000
0000
,
0011
0001
1000
0010
1010
1000
0001
0100
,
0101
1100
0101
1100
,
0001
0010
0001
0100
0001
0010
0001
0100
,
0101
1100
0101
1100
,
0100
1000
0010
1000
0100
1000
0010
1000
,
1010
0011
1010
0011
,
0010
1000
0010
0001
0010
1000
0010
0001
,
1000
0001
0010
0100
1000
0100
1000
0010
,
0001
0100
0001
0010
1000
0001
0100
0010
,
2002
0000
3003
0000
;

//---------------dance-single - ----------------
#NOTES:
     dance-single:
     :
     Challenge:
     16:
     :
0000
0000
0000
0000
,
0000
0000
0000
0000
,
0000
0000
0000
0000
,
0000
0000
0000
0000
,
0000
0000
0000
0000
,
0000
0000
0000
0000
,
1000
0000
0010
0000
0100
0000
0001
0010
0001
0000
1000
0000
0100
0000
0000
0000
,
0010
0000
0001
0000
1000
0000
0001
0100
0001
0000
1000
0000
0010
0000
0000
0000
,
0100
0000
0001
0000
1000
0000
0001
0000
0100
0000
0010
0001
0010
0100
0010
1000
,
0100
0000
0001
0000
0100
0000
1000
0010
1000
0000
0001
0000
0100
0000
0000
0000
,
0110
0000
1000
0100
1000
0000
0001
0000
0010
0000
0001
0100
0001
0000
0000
0000
,
0011
0000
1000
0100
1000
0000
0001
0000
0101
0000
1000
0010
1000
0000
0001
0000
,
1001
0000
1000
0100
1000
0000
0010
0000
0100
0000
0001
0000
0001
1000
0100
0000
,
1100
0000
0000
0000
1010
0000
0000
0000
0001
0010
0100
1000
0001
0100
0010
1000
,
0001
0000
0010
0100
1000
0000
0010
0100
0001
0000
1000
0001
0100
0000
0010
0000
,
1010
0000
0000
0000
1100
0000
0110
0000
0011
0000
0000
0000
0100
0001
1000
0010
,
0100
0000
0001
0010
0001
0000
1000
0010
1000
0000
0100
0010
0001
0000
1000
0000
,
0010
0000
1000
0000
0101
0000
0000
0000
1001
0000
0010
0000
0010
1000
0010
1000
,
0010
0000
0100
0001
2000
0000
0000
3001
0100
0000
0010
0000
0010
0000
1000
0000
,
1001
0000
1010
0000
1100
0000
0000
0000
0011
0000
0100
0010
1000
0000
0100
0010
,
0001
0000
0100
0010
1000
0000
0001
1000
0100
0000
0010
0001
1000
0000
0010
0000
,
0100
0000
0001
0000
0101
0000
0000
0000
0110
0000
1000
0100
1000
0000
0001
0100
,
0001
0000
0010
0001
1000
0000
0100
0010
0001
0000
0100
0010
1000
0000
0001
0000
,
0011
0000
0101
0000
1001
0000
0000
0000
1010
0000
1000
0100
0010
0001
0010
0100
,
1000
0010
0100
0010
1000
0000
0001
0100
0010
0100
0001
0100
0010
0000
1000
0000
,
0100
0000
1000
0000
1100
0000
0000
0000
0110
0000
0001
0010
1000
0010
0001
0000
,
0100
0000
0010
1000
0002
0000
0000
0013
0100
0000
1000
0000
1000
0000
0001
0000
,
0101
1001
1100
0110
0022
0000
0030
0000
,
1003
0100
1000
0001
0100
0001
1000
0010
1000
0001
0010
0001
,
0100
0000
0100
0000
0100
0000
0100
0000
0001
1000
0001
1000
0001
1000
0001
1000
,
0100
0000
1000
0000
0100
0000
1000
0000
0001
0010
0001
0010
0001
0010
0001
0010
,
0001
0100
0010
0100
0001
0100
0010
0100
,
0001
0000
1000
0000
0010
0000
1000
0100
0000
1000
0000
0001
0000
0100
0010
0100
,
0001
0010
0100
0010
0001
0010
0100
0010
,
0001
0000
0100
0000
0001
0000
0100
0000
0010
1000
0010
1000
0010
1000
0010
1000
,
0010
0100
0001
1000
0010
0100
0001
1000
,
0100
0000
0010
0000
0001
0000
1000
0000
1000
0001
0000
0010
0000
0001
0100
0010
,
1000
0100
0010
0100
1000
0100
1000
0010
,
1010
0000
0000
0100
0001
0000
0010
0100
1000
0000
0000
0010
1000
0000
0001
0100
,
0001
0000
0010
0100
1000
0000
0001
0000
0100
0000
0010
1000
0010
0100
0001
1000
,
0100
0000
0010
0001
0010
0000
0100
1000
0100
0000
1000
0000
0010
0100
0001
1000
,
0100
0000
0010
0000
0001
0000
0100
0001
1000
0000
0010
0000
0010
0100
0001
1000
,
0010
0000
1000
0000
0100
0000
0010
0001
1000
0000
0010
1000
0100
0000
0001
0000
,
0100
0000
1000
0000
0010
0000
1000
0001
1000
0000
0001
0100
0001
0000
0010
0100
,
1000
0000
0010
0000
0100
0000
0001
0010
0100
0000
1000
0000
0010
0000
0100
0001
,
1000
0000
0100
0010
0100
0000
0010
0001
0010
0000
0001
0100
0001
1000
0010
1000
,
0100
0100
0010
0001
0001
1000
0010
1000
,
0100
0010
0001
0010
0100
0000
1000
0010
1000
0000
0001
0100
0001
0000
1000
0000
,
0010
1000
0100
1000
0010
0000
0100
0001
1000
0000
0001
0010
0001
1000
0001
0000
,
0100
0010
0100
0001
0010
0000
0100
1000
0001
0000
0010
0000
0001
0100
1000
0000
,
0010
0000
1000
0001
1000
0000
0100
0010
0100
0000
1000
0000
0001
0000
0100
0000
,
0010
0000
1000
0000
0010
0000
0100
0001
1000
0000
0100
0010
0001
0000
1000
0001
,
1000
1000
0100
0100
0010
0010
0001
0001
,
0100
0000
0100
0000
0100
0000
0001
0010
0001
0000
1000
0010
1000
0000
0001
1000
,
0001
0010
0010
0010
0001
1000
1000
0001
,
0100
0000
0001
0010
0001
0000
1000
0100
0010
0000
0001
1000
0001
0000
0100
0010
,
1000
0000
0100
0000
0010
0000
0001
0000
0100
0000
0010
0000
1000
0001
0010
0000
,
0100
0000
0001
0000
0100
0000
1000
0000
0100
0000
0010
0001
0010
0100
1000
0010
,
1000
0100
0010
1000
0010
0001
0100
0001
,
1000
0100
0010
0100
1000
0010
0100
0010
1000
0000
0001
0010
0001
0100
0001
1000
,
0001
0000
0010
0001
0100
0000
0010
1000
0100
0000
0010
0001
0100
0000
1000
0000
,
0100
0001
0010
0001
0010
0001
0100
0001
0100
0000
0001
1000
0010
1000
0100
1000
,
0010
0100
0001
0010
1000
0100
1000
0001
,
0010
0001
0010
0001
0010
0100
0010
0100
1000
0001
1000
0001
0100
1000
0100
1000
,
0100
0000
0001
0010
0001
0000
1000
0100
1000
0000
0010
1000
0010
0000
0100
0001
,
1000
0100
1000
0100
1000
0100
1000
0100
0010
0000
0000
0000
0000
0000
0000
0000
;

//---------------dance-double - ----------------
#NOTES:
     dance-double:
     :
     Easy:
     6:
     :
00000000
00000000
00000000
00000000
,
00000000
00000000
00000000
00000000
,
00000000
00000000
00000000
00000000
,
00000000
00000000
00000000
00000000
,
00000000
00000000
00000000
00000000
,
00000000
00000000
00000000
00000000
,
00000001
00000001
00000001
00001000
,
00000100
00000000
00010000
00000000
,
00001000
00001000
00100000
00010000
,
01000000
00000000
00100000
00000000
,
01000000
01000000
00000000
00000000
,
00010000
00010000
00010000
10000000
,
01000000
01000000
00000000
00000000
,
00100000
00100000
00100000
00000000
,
00001000
00001000
00010000
00000100
,
00001000
00000100
00000100
00000000
,
00000010
00000001
00000010
00000000
,
00000100
00000100
00000100
00000000
,
00010000
00010000
00001000
00100000
,
00010000
00010000
00010000
00000000
,
10000000
00100000
10000000
00000000
,
00100000
01000000
00100000
00000000
,
01000000
01000000
01000000
00001000
,
00010000
00000100
00001000
00000000
,
00000001
00000001
00001000
00000010
,
00000100
00000000
00000010
00000000
,
00001000
00001000
00001000
00000100
,
00010000
00001000
00100000
00000000
,
00000000
00000000
00000000
00000000
,
00010000
00010000
00010000
00010000
,
00010000
00000000
10000000
00000000
,
00100000
00100000
00100000
00100000
,
01000000
00000000
00001000
00000000
,
00010000
00010000
00010000
00000000
,
00000100
00001000
00000100
00000000
,
00000010
00000001
00000010
00000000
,
00000001
00001000
00000001
00000000
,
00000100
00000010
00000100
00000000
,
00000010
00000010
00000010
00010000
,
00001000
00000000
01000000
00000000
,
00010000
00010000
00010000
10000000
,
00100000
00000000
01000000
00000000
,
00010000
00010000
00010000
00100000
,
00001000
00010000
00000100
00000000
,
00001000
00000000
00000010
00000000
,
00000100
00000100
00000100
00000000
,
00000001
00000001
00000001
00001000
,
00000010
00010000
00001000
00000000
,
00100000
00100000
00100000
00010000
,
01000000
00100000
01000000
00100000
,
10000000
00000000
01000000
00000000
,
00100000
00100000
00100000
00000000
,
00001000
00000000
00001000
00000000
,
00001000
00000000
00001000
00000000
,
00010000
00000000
00010000
00000000
,
00010000
00010000
00010000
00010000
,
00010000
00000000
00000100
00000000
,
00001000
00000010
00001000
00000010
,
00001000
00000000
00000001
00000000
,
00000100
00000010
00000100
00000010
,
00000100
00000000
00000001
00000000
,
00001000
00000100
00001000
00000100
,
00010000
00000000
00001000
00000000
,
00100000
00010000
00100000
00010000
,
10000000
00100000
10000000
00010000
,
10010000
00000000
00000000
00000000
;

//---------------dance-double - ----------------
#NOTES:
     dance-double:
     :
     Medium:
     9:
     :
00000000
00000000
00000000
00000000
,
00000000
00000000
00000000
00000000
,
00000000
00000000
00000000
00000000
,
00000000
00000000
00000000
00000000
,
00000000
00000000
00000000
00000000
,
00000000
00000000
00000000
00000000
,
00000001
00000000
00000101
00000000
,
00001000
00000000
00001100
00000000
,
00000010
00000100
00000010
00000100
,
00010000
00001000
01000000
00100000
,
10000000
00000000
11000000
00000000
,
00010000
01000000
01010000
00000000
,
00100000
00000000
01000000
00001000
,
00010000
00002000
00020000
00033000
,
00000200
00000300
00001000
00000100
,
00000010
00000000
00000001
00001000
00000200
00000000
00000300
00000000
,
00020000
00030000
00001000
01000000
,
00010000
01000000
20000000
30000000
,
01000000
00000000
00010000
00000000
10000000
00010000
00100000
00000000
,
00110000
00101000
00220000
00330000
,
00020000
00030000
00001000
00010000
,
00001000
00000100
00001000
00000000
00000200
00000000
00000300
00000000
,
00000002
00000003
00000020
00000130
,
00001100
00010100
00002200
00003300
,
00000100
00000000
00001000
00000000
00000100
00000000
00010000
00001000
,
00010000
00001000
00010000
00000000
00002000
00000000
00003000
00000000
,
00010000
00100000
10000000
00010000
,
10000000
00010000
10000000
00010000
02000000
00000000
00000000
00000000
,
03100000
10000000
01000000
10000000
,
00010000
01000000
00010000
00100000
,
00101000
00011000
00000000
00000000
,
00010100
00011000
00000000
00000000
,
01001000
00011000
00000000
00000000
,
00010010
00011000
00000000
00000000
,
00001000
00001000
00000200
00000300
,
00000010
00000010
00000200
00000300
,
00000001
00000001
00000020
00000030
,
00000100
00000100
00000020
00000030
,
00000100
00001000
00000100
00001000
,
00000010
00000000
00000100
00000001
00000200
00000000
00000000
00000000
,
00001300
00000100
00001000
00000100
,
00000010
00001000
00000100
00010000
,
00001000
01000000
00010000
01000000
,
00010000
00100000
01000000
00000000
20000000
00000000
30000000
00000000
,
00020000
00030000
00100000
00010000
,
10000000
01000000
00100000
00000000
00020000
00000000
00030000
00000000
,
01000000
01000000
00000000
00100000
00100000
00000000
00010000
00000000
,
00001000
00001000
00000000
00010000
00010000
00000000
00001000
00000000
,
00000100
00000100
00000010
00000010
,
00001000
00000001
00000100
00000000
00000020
00000000
00000030
00000000
,
00001000
00001000
00000100
00000100
,
00010000
00001000
00100000
00000000
00020000
00000000
00030000
00000000
,
10000000
10000000
10000000
00100000
,
01000000
01000000
00020000
00130000
,
00001000
00010000
00010000
00010000
,
00000100
00001000
00001000
00001000
,
00000010
00000100
00000001
00001000
,
00001001
00000001
00000001
00000001
,
00000100
00001000
00000100
00000001
,
00000100
00001000
00001000
00001000
,
00010000
00000000
01000000
00000000
00010000
00000000
00001000
00010000
,
00000000
00001000
00000000
00010000
00000000
01000000
00000000
10000000
,
00000000
00010000
00000000
10000000
00000000
00010000
00000000
01000000
,
00000000
00001000
00000000
00010000
00000000
00000100
00000000
00001000
,
00000000
00000001
00000000
00001000
00000000
00000001
00000000
00000100
,
00000020
00000000
00000000
00000030
;

//---------------dance-double - ----------------
#NOTES:
     dance-double:
     :
     Hard:
     12:
     :
00000000
00000000
00000000
00000000
,
00000000
00000000
00000000
00000000
,
00000000
00000000
00000000
00000000
,
00000000
00000000
00000000
00000000
,
00000000
00000000
00000000
00000000
,
00000000
00000000
00000000
00000000
,
00010000
01000000
00001000
00010000
,
00000010
00001000
00000100
00010000
,
00001000
00000000
00100000
00000000
00010000
00100000
01000000
10000000
,
01000000
00000000
00010000
00000000
00001000
00000000
00000010
00000001
,
00000100
00000000
00000000
00000000
00010000
01000000
10000000
00000000
,
01010000
00000000
10000000
00100000
00010000
00001000
00010000
00000000
,
00010100
00000000
00000000
00000000
00000001
00000100
00001000
00000000
,
00020010
00000000
00002000
00000000
00000000
00033000
00000000
00000000
,
00102000
00010000
01003000
00021000
,
00000010
00000000
00030100
00001000
00000010
00000000
00000100
00000000
,
00000201
00000000
00001300
00000000
00021000
00000000
00130000
01000000
,
00100000
10000000
01000000
00010000
00001000
00000000
00000000
00000000
,
00002100
00000000
00003020
00000000
00000000
00000031
00000100
00001000
,
00010000
01000000
20000000
00000000
30200000
00000000
00300000
00000000
,
00020000
00000000
00031000
00000000
00000020
00000000
00000032
00001003
,
00000100
00001000
00000001
00000010
00000001
00000000
00000000
00000000
,
00001100
00000000
00010100
00000000
00011000
00000000
00010000
00100000
,
01100000
01010000
01001000
00000000
,
00100000
00001000
00010000
00001000
00100000
00000000
00001000
00010000
,
00000100
00001000
00000010
00000100
00000001
00000000
00000000
00000000
,
00001001
00000000
00000010
00000000
00000000
00000001
00000100
00001000
,
00011000
00010000
00110000
00100000
10100000
00000000
00000000
00000000
,
12000000
00010000
00100000
03010000
,
00010000
00001000
00010000
00001000
00000010
00001000
00000010
00000001
,
00000100
00000001
00000100
00000001
00000000
00001000
00000000
00000010
,
00000100
00000010
00000100
00001000
00000000
00011000
00000000
00100000
,
00010000
00100000
00010000
10000000
00000000
11000000
00000000
00010000
,
10000000
00100000
00010000
00000000
,
00010000
00000000
00001000
00000000
00010000
00001000
00010000
00000010
,
00001000
00000001
00000100
00000000
,
00001000
00000000
00010000
00000000
00001000
00100000
00001000
00100000
,
00010000
01000000
00010000
01000000
00100000
10000000
00100000
10000000
,
00010000
00000000
01010000
00000000
00100000
00000000
10000000
01000000
,
00100000
00000000
01000000
00010000
00001000
00000000
00011000
00000000
,
00001000
00000000
00000100
00000000
00000001
00000000
00000010
00000001
,
00000100
00000000
00000010
00001000
00000100
00000000
00001001
00000000
,
00000100
00000000
00001000
00000000
00010000
00000000
00001000
00010000
,
00100000
00000000
00001000
00010000
00100000
00000000
10100000
00000000
,
00010000
01000000
00010000
00000000
10000000
01000000
10000000
00000000
,
00010000
01000000
00010000
10000000
01000000
00000000
00000000
00000000
,
00010000
00001000
00010000
00000010
00001000
00001000
00000010
00000010
,
00001000
00000100
00000010
00000000
00000011
00000000
00000000
00000000
,
00000001
00000100
00001000
00010000
00001000
00000100
00000001
00000100
,
00001000
00010000
01000000
10000000
00100000
00000000
00000000
00000000
,
00100000
00010000
00001000
00000000
00000100
00001000
00010000
00000000
,
00100000
00010000
00001000
00000100
00000001
00000000
00000000
00000000
,
00000010
00001000
00000100
00001000
00000010
00000100
00000001
00000010
,
00000001
00000100
00001000
00010000
00100000
00000000
10010000
00000000
,
01000000
10000000
00010000
01000000
00100000
01000000
00010000
10000000
,
01000000
00000000
00010000
00000000
00001000
00010000
00001000
00000000
,
00011000
00001000
00100000
00000000
00011000
00010000
00000010
00000000
,
00001010
00000101
00001010
00000101
,
00000010
00000100
00001000
00000001
00000100
00001000
00010000
01000000
,
01000000
11000000
00110000
11000000
,
00100000
01000000
00010000
10000000
01000000
00010000
00001000
00000100
,
00000100
00000101
00001010
00000101
,
00000010
00001000
00010000
00001000
00000010
00001000
00010000
01000000
,
10000000
00000000
00100000
00000000
10000000
01000000
00100000
00010000
,
00100000
00000000
00001000
00000000
00010000
00000010
00001000
00000100
,
00000220
00000000
00000000
00000000
00000000
00000330
00000000
00000000
;
