#TITLE:Tomorrow Perfume;
#ARTIST:dj TAKA;
#BANNER:Tomorrow Perfume.png;
#BACKGROUND:Tomorrow Perfume-bg.png;
#JACKET:Tomorrow Perfume-jacket.png;
#MUSIC:Tomorrow Perfume.ogg;
#SAMPLESTART:28.35;
#SAMPLELENGTH:20;
#DISPLAYBPM:144;
#BPMS:0=141.8,4=144;
#BGCHANGES:;

//---------------dance-single - ----------------
#NOTES:
     dance-single:
     :
     Beginner:
     3:
     :
0000
0000
0000
0000
,
0000
0000
0000
0000
,
0000
0000
0000
0000
,
0000
0000
0000
0000
,
0000
0000
0000
0000
,
0010
0000
0000
0000
,
0001
0000
0000
0000
,
1000
0000
0000
0000
,
0001
0000
0000
0000
,
0001
0000
1000
0000
,
0001
0000
0001
0000
,
0010
0000
0100
0000
,
0010
0000
0001
0000
,
1000
0000
0001
0000
,
1000
0000
1000
0000
,
0010
0000
0100
0000
,
0010
0000
1000
0000
,
0001
0000
0001
0000
,
0100
0100
0100
0000
,
1000
0000
1000
0000
,
0010
0010
0010
0000
,
0001
0000
0001
0000
,
1000
0000
1000
0000
,
0001
0000
1000
0000
,
0100
0100
0100
0000
,
0001
0000
1000
0000
,
0001
0000
1000
0000
,
0010
0000
0100
0000
,
0001
0000
0001
0000
,
1000
0000
0001
0000
,
1000
0000
0001
0000
,
0010
0000
0100
0000
,
1000
0000
1000
0000
,
0001
0001
0001
0000
,
1000
1000
1000
0000
,
0010
0000
0100
0000
,
0001
0000
0001
0000
,
1000
1000
1000
0000
,
0001
0001
0001
0000
,
0010
0000
0100
0000
,
1000
0000
1000
0000
,
0100
0000
0000
0000
,
0010
0000
0000
0000
,
1000
0000
0001
0000
,
1000
1000
1000
0000
,
0010
0000
0000
0000
,
0000
0000
0000
0000
,
0100
0000
0000
0000
,
0000
0000
0000
0000
,
1000
0000
1000
0000
,
0001
0000
0001
0000
,
1000
0000
0100
0000
,
0000
0000
1000
0000
,
0100
0000
0000
0000
;

//---------------dance-single - ----------------
#NOTES:
     dance-single:
     :
     Easy:
     4:
     :
0000
0000
0000
0000
,
0000
0000
0000
0000
,
0000
0000
0000
0000
,
0000
0000
0000
0000
,
0000
0000
0000
0000
,
0020
0030
0000
0000
,
0002
0003
0000
0000
,
1000
0000
0100
0000
,
0001
0000
1000
0001
,
1000
0000
1000
0100
,
0001
0000
0001
0100
,
0010
0000
0100
0000
,
0010
0100
0001
0000
,
0001
0000
0001
0010
,
1000
0000
1000
0010
,
0100
0000
0010
0000
,
0100
0010
0001
0000
,
0100
0000
0100
0000
,
0001
0001
0001
0000
,
1000
0000
1000
0000
,
0010
0010
0010
0000
,
0010
0001
0010
0000
,
1000
0010
1000
0000
,
0001
0000
1000
0000
,
0100
0100
0100
0100
,
0001
0100
1000
0100
,
0001
0010
1000
0100
,
0020
0030
0200
0300
,
0001
1000
0002
0003
,
1000
0100
0001
0010
,
1000
0100
0001
0000
,
0001
0001
1000
1000
,
0020
0030
0100
0010
,
2000
3000
1000
0100
,
0002
0003
0001
0100
,
0001
0001
1000
0000
,
0001
0100
1000
0000
,
0020
0030
0010
0001
,
0200
0300
0100
1000
,
0001
1000
0100
0000
,
0001
0000
1000
0000
,
0200
0000
0300
0000
,
0020
0000
0030
0000
,
2000
3000
0002
0003
,
1000
0001
1000
0000
,
0010
0000
0010
0000
,
0100
0000
0100
0000
,
0001
0000
0100
0000
,
1000
0000
0100
0001
,
1000
0000
1000
0000
,
0001
0000
0001
0000
,
1000
0000
0100
0000
,
0000
0000
1000
0010
,
0200
0000
0300
0000
;

//---------------dance-single - ----------------
#NOTES:
     dance-single:
     :
     Medium:
     8:
     :
0000
0000
0000
0000
,
0000
0000
0000
0000
,
0000
0000
0000
0000
,
0000
0000
0000
0000
,
0000
0000
0000
0000
,
0010
0010
0010
0000
,
0100
0100
0100
0000
,
0001
0001
1000
0000
,
0010
0001
1000
0100
,
0001
0000
1000
0000
0001
0100
0010
0000
,
1000
0000
0100
0000
0001
0010
0100
0000
,
1000
0100
0001
0100
,
0001
1000
0001
1001
,
1000
0000
0100
0000
1000
0010
0100
0000
,
0001
0000
0100
0000
1000
0001
0100
0010
,
1000
0100
0001
0100
,
1000
0010
0001
1001
,
2000
3001
0100
0011
,
0002
1003
0100
1010
,
1200
0300
0021
0030
,
0010
1001
0100
1001
,
0020
1030
1000
0110
,
0200
0301
0001
0110
,
1001
0001
0110
0010
,
0001
0010
0100
1001
,
0100
1000
0001
0000
0001
0010
0100
0000
,
1000
0000
0100
0000
0010
0001
0100
0000
,
0200
0001
0001
0301
,
0010
0010
0100
0000
1000
0001
0100
0000
,
0001
0000
0100
0000
0001
0100
1000
0000
,
0001
0001
0100
0000
0010
0000
1000
0000
,
0200
1300
0020
0031
,
2000
0001
3001
0110
,
0010
1000
0100
1000
0001
0000
0000
0000
,
0010
0001
0100
0001
1000
0000
0000
0000
,
0002
0100
0010
0103
,
0001
0100
0010
1000
,
0100
1000
0010
1000
0001
0000
0000
0000
,
0100
0001
0010
0001
1000
0000
0000
0000
,
0210
0010
0010
0310
,
0001
0000
1000
0000
0001
0010
0100
0000
,
1100
0010
1000
0100
,
0011
0001
0100
1000
,
0110
0000
0000
0000
,
1001
0002
0103
0000
,
0002
0010
1003
0100
,
0020
1000
0031
0100
,
0010
0001
2000
3100
,
0010
1000
0020
0130
,
1000
1000
0001
0001
,
1000
0001
1000
0001
,
0001
0001
1000
1000
,
0000
0000
0000
0000
1000
0001
1000
0001
,
0200
0000
0000
0300
;

//---------------dance-single - ----------------
#NOTES:
     dance-single:
     :
     Hard:
     10:
     :
0000
0000
0000
0000
,
0000
0000
0000
0000
,
0000
0000
0000
0000
,
0000
0000
0000
0000
,
0000
0000
0000
0000
,
0010
0000
0000
0000
1000
0000
0010
0200
0000
0000
0000
0000
0300
0000
0000
0000
,
0001
0000
0000
0000
1000
0000
0100
0020
0000
0000
0000
0000
0030
0000
0000
0000
,
0001
0000
0000
0000
0100
0000
0010
2000
0000
0000
0000
0000
3000
0000
0000
0000
,
0010
0000
1000
0000
0001
0010
0100
0000
,
0001
0000
0001
0000
0100
0000
0010
2000
0000
0000
0000
0000
3001
0000
0000
0000
,
0100
0000
0100
0000
0010
0000
0001
0020
0000
0000
0000
0000
0130
0000
0000
0000
,
1000
0000
1000
0000
0100
0000
0010
0002
0000
0000
0000
0000
1003
0000
0000
0000
,
1000
0000
0001
0000
0010
0001
1000
0000
,
0010
0000
0001
0000
1000
0010
0100
0000
,
0100
0000
1000
0000
0001
1000
0100
0000
,
0002
0103
2000
3000
,
0001
0000
0010
0000
1000
0100
0010
0001
,
1000
0100
1000
0000
0001
0000
1001
0000
,
0010
1000
0010
0000
0100
0000
0110
0000
,
0010
0001
0100
0000
0010
1000
0100
0000
,
1000
0100
1000
0100
0010
0001
0100
0000
,
0001
0000
0100
0000
1000
0000
0001
0200
0000
0000
0000
0000
0300
0000
0000
0000
,
1000
0000
0001
0000
0010
0000
0001
0200
0000
0000
0000
0000
0300
0000
0000
0000
,
1100
0000
0011
0000
,
1000
0000
0001
0000
1000
0100
0010
0000
,
0010
0010
0002
0000
1003
0001
0100
0000
,
0010
1000
0100
0000
0002
0000
0103
0000
,
1000
0100
0010
0000
0100
0010
0001
0000
,
0001
0001
0020
0000
0130
0100
2000
0000
,
3001
0010
0100
0000
0010
0100
1000
0000
,
0001
0010
0002
0000
1003
0001
0100
0000
,
0200
0000
0301
0000
0001
1000
0100
0000
,
1000
0100
0020
0000
0031
0010
0100
1000
,
0100
0100
2000
0000
3001
1000
0010
0000
,
0100
0001
0010
0000
2000
0000
3010
0000
,
0001
0010
0100
0000
0010
0100
1000
0000
,
1000
1000
0200
0000
0310
0010
0002
0000
,
1003
0100
0010
0000
0100
0010
0001
0000
,
1000
0100
2000
0000
3001
1000
0010
0000
,
0020
0000
1030
0000
0001
1000
0010
0000
,
0001
0010
0200
0000
1300
0100
0010
0001
,
1000
0100
1000
0000
0001
0100
0001
0000
,
0010
1000
0100
0000
0010
0001
0100
0000
,
0010
1000
0100
1000
0010
0100
0001
0010
,
0001
0000
0100
0000
0010
0000
1000
0100
0000
0000
0000
0000
0000
0000
0000
0000
,
0001
0001
1000
0001
0200
0000
0300
0000
,
1000
1000
0100
0010
0002
0000
0003
0000
,
0001
0001
0100
0010
2000
0000
3000
0000
,
0010
0010
0001
1000
0002
0000
0003
0000
,
2000
3100
0002
0013
,
0200
0301
0020
1030
,
0100
0100
0001
1000
,
0010
0001
1000
0000
0001
1000
0010
0100
,
0220
0000
0000
0000
,
0000
0330
0000
0000
;

//---------------dance-single - ----------------
#NOTES:
     dance-single:
     :
     Challenge:
     15:
     :
0000
0000
0000
0000
,
0000
0000
0000
0000
,
0000
0000
0000
0000
,
0000
0000
0000
0000
,
0000
0000
0000
0000
,
1000
0100
1000
0000
0001
0000
0010
0200
0000
0000
0000
0300
0000
0000
0000
0010
,
0001
1000
0001
0000
0010
0000
0100
2000
0000
0000
0000
3000
0000
0000
0000
0010
,
0100
0001
0100
0000
0010
0000
1000
0002
0000
0000
0000
0003
0000
0000
0000
1000
,
0001
0010
0001
0000
0100
0000
0010
1000
0000
1000
0100
0000
1000
0001
0100
0000
,
0010
1000
0100
0000
0100
0000
1000
0002
0000
0000
0000
0103
0010
0000
0000
0010
,
1000
0001
0100
0000
0100
0000
0010
2000
0000
0000
0000
3100
1000
0000
0000
1000
,
0001
1000
0010
0000
0010
0000
1000
0200
0000
0000
0000
0310
0001
0000
0000
0001
,
0100
0010
0100
0010
0100
0000
0001
1000
0000
1000
0010
0000
0100
0001
0010
0000
,
0100
1000
0001
0000
0010
0000
0001
0200
0000
0000
0000
0310
1000
0000
0000
0100
,
1000
0010
1000
0000
0100
0000
0010
0002
0000
0000
0000
1003
0001
0000
0000
0010
,
0100
1000
0100
0000
0010
0000
0001
2000
0000
0000
0000
3100
1000
0000
0000
0001
,
0100
0010
0100
0000
0001
0010
0001
1000
0000
1000
0100
0000
1000
0001
0010
0000
,
0100
0000
1000
0000
0010
0000
1000
0002
0000
0000
0013
0001
0010
0000
0000
0100
,
1000
0000
0001
0000
0100
0000
0010
2000
0000
0000
3100
1000
0100
0000
0000
0010
,
0001
0000
0100
0000
0010
0000
1000
0200
0000
0000
0310
0001
0010
0000
0000
0100
,
1000
0100
0010
0000
0001
1000
0001
1000
0000
0010
1000
0000
0001
0100
0001
0100
,
0010
1000
0010
0000
0100
0001
1000
0002
0000
0000
0000
0103
0010
0000
0000
0100
,
0001
0010
0001
0000
1000
0010
1000
0200
0000
0000
0000
0310
0001
0000
0000
1000
,
0010
0100
0010
0000
0100
0001
1000
0020
0000
0000
0000
1030
0001
0000
0000
1000
,
0100
0010
0001
0000
0001
0000
0100
0010
0000
0010
1000
0001
1000
0100
1000
0100
,
0010
0000
0001
0000
0100
0000
0000
0010
1000
0000
0001
0000
0100
0000
0000
0010
,
1000
0100
0000
1000
0100
0000
0000
0010
0001
1000
0001
0000
0100
0010
0100
0001
,
0100
0010
0000
1000
0100
0000
2100
0000
0000
3001
1000
0000
1000
0010
0000
0100
,
0001
0010
0001
0000
1000
0010
1000
0000
0001
0100
0001
0000
1000
0100
1000
0000
,
0010
0000
1000
0000
0001
0000
0000
1000
0100
1000
0010
0000
0100
0000
0000
0010
,
0001
0100
0001
0000
1000
0000
0000
0010
1000
0000
1000
0000
1000
0100
0010
0001
,
0100
0001
0000
0001
0010
0000
0012
0000
0000
0000
1000
0000
1003
0000
0010
0000
,
1000
0100
0000
1000
0001
0000
0100
0010
1000
0001
0100
0000
0010
0000
0010
0000
,
0010
0000
1000
0000
0100
0000
0010
0001
0000
1000
0001
0000
0100
0010
0100
0000
,
0001
0000
1000
0000
0010
0000
1000
0100
1000
0000
0001
0000
0010
0001
0100
0001
,
1000
0010
0000
0010
0100
0000
0201
0000
0000
0000
0310
1000
0001
0100
0000
0001
,
0100
0010
0100
0000
0001
1000
0001
0000
1000
0001
1000
0000
0010
0100
0010
0000
,
1000
0100
1000
0000
0001
0000
0010
0100
0000
1000
0010
0000
0100
0001
0000
1000
,
0010
1000
0000
0001
1000
0000
0100
0010
0000
0001
1000
0001
0010
0100
0010
0100
,
1000
0001
0100
0001
1000
0000
0010
0100
0000
0100
0001
0010
0001
1000
0010
0000
,
1000
0100
1000
0100
1000
0001
0100
0010
0000
0010
1000
0001
1000
0001
0100
0000
,
0001
0000
0010
0000
0100
0000
1000
0001
0000
1000
0010
0000
0100
0001
1000
0000
,
0100
0000
0010
0000
0001
0000
1000
0010
0000
1000
0100
0000
1000
0001
0010
0000
,
0100
0000
1000
0000
0010
0000
0100
0001
0000
0001
0010
0000
0001
1000
0100
0000
,
1000
0010
1000
0000
0001
0010
0100
2000
0000
0000
0000
0000
0000
0000
0000
0000
,
3010
1000
0010
0000
0100
0001
0010
0100
0000
0100
1000
0001
1000
0001
1000
0000
,
0010
1000
0001
0000
0010
0100
0010
0100
0000
1000
0010
0100
0001
0010
0001
0000
,
1000
0001
0010
0000
0001
1000
0100
1000
0000
0010
0100
0010
0100
0001
1000
0000
,
0100
0010
0001
0000
1000
0000
0010
1000
0000
0010
0100
0010
0000
1000
0001
0000
,
0010
0001
0010
0100
1000
0000
0010
1000
0000
0001
1000
0100
0000
0100
0010
0000
,
0001
0010
0100
0000
0010
0001
1000
0010
0000
1000
0100
1000
0010
1000
0001
0000
,
0100
0001
0010
0000
0001
1000
0100
1000
0000
0010
0100
0001
0000
1000
0001
0000
,
0010
0001
1000
0000
0010
0100
0010
1000
0000
0001
0010
0001
0000
1000
0100
0020
,
0000
0000
0001
0000
0031
0000
1000
0100
0000
1000
0010
0000
0010
0000
0010
0000
,
0100
0000
0001
0000
0001
0000
1000
0010
0000
1000
0100
0000
0100
0000
0100
0000
,
0110
0000
0000
0000
;

//---------------dance-double - ----------------
#NOTES:
     dance-double:
     :
     Easy:
     4:
     :
00000000
00000000
00000000
00000000
,
00000000
00000000
00000000
00000000
,
00000000
00000000
00000000
00000000
,
00000000
00000000
00000000
00000000
,
00000000
00000000
00000000
00000000
,
00000001
00000000
00000000
00000000
,
00000100
00000000
00000000
00000000
,
00001000
00000000
00010000
00000000
,
00100000
00100000
01000000
00000000
,
10010000
00000000
01000000
01000000
,
01000000
00000000
10000000
10000000
,
10000000
00000000
00010000
00000000
,
10000000
01000000
00010000
00000000
,
00011000
00000000
00001000
00001000
,
00010000
00000000
00010000
00010000
,
00001000
00000000
00000010
00000000
,
00000001
00000001
00000001
00000001
,
00002002
00000000
00000000
00003003
,
00000020
00000000
00000000
00000030
,
00000200
00000300
00000002
00000003
,
00000001
00000100
00001000
00010000
,
00002000
00000000
00000000
00003000
,
00020000
00000000
00000000
00030000
,
00100000
00000000
01000000
00000000
,
00010000
10000000
00100000
01000000
,
01100000
00000000
00010000
00010000
,
10000000
00000000
01000000
00010000
,
00010000
00000000
00001000
00000000
,
00010000
00001000
00000010
00000001
,
00000200
00000300
00000010
00001000
,
00001000
00000000
00000001
00000001
,
00000010
00000000
00000100
00000000
,
00001000
00000001
00000100
00001000
,
00011000
00000000
00000000
00000000
,
00010000
01000000
10000000
10000000
,
00010000
00000000
10000000
00000000
,
01000000
00010000
00001000
00001000
,
00011000
00000000
00001000
00000000
,
00000010
00000100
00001000
00001000
,
00000001
00000000
00000001
00000000
,
00000001
00001000
00000010
00000100
,
00001001
00000000
00000010
00000010
,
00001001
00000000
00000000
00000000
,
00011000
00000000
00000000
00000000
,
00020000
00000000
10030000
00000000
,
10010000
00000000
00100000
01000000
,
00100000
00000000
10000000
01000000
,
00010000
00000000
00001000
00010000
,
00001000
00000000
00000010
00000000
,
00000002
00000000
00000000
00000003
,
00002000
00000000
00000000
00003000
,
00000020
00000000
00000000
00000030
,
00000200
00000300
00000100
00000100
,
00001001
00000000
00000000
00000000
;

//---------------dance-double - ----------------
#NOTES:
     dance-double:
     :
     Medium:
     7:
     :
00000000
00000000
00000000
00000000
,
00000000
00000000
00000000
00000000
,
00000000
00000000
00000000
00000000
,
00000000
00000000
00000000
00000000
,
00000000
00000000
00000000
00000000
,
00200000
00000000
00000000
00300000
,
02000000
00000000
00000000
03000000
,
00020000
00000000
10030000
00000000
,
01000000
01000000
00010000
00001000
,
00011000
00001000
00000010
00000001
,
00000100
00000100
00000010
00000010
,
00001000
00000100
00000001
00000100
,
00002000
00003000
00000002
00000003
,
00000110
00000001
00000010
00001000
,
00010000
00100000
10000000
00010000
,
00200000
00300000
02000000
03000000
,
10000000
00000000
00010000
00000000
00100000
01000000
00100000
00000000
,
10010000
01000000
00010000
01000000
,
10000000
01000000
00010000
00001000
,
00000100
00000001
00001000
00000100
,
00000010
00000001
00001000
00000010
,
00000101
00001000
00000010
00000100
,
00001100
00010000
01000000
10000000
,
01010000
10000000
11000000
00010000
,
00100000
01000000
10000000
00000000
00100000
01000000
00010000
00000000
,
11000000
00100000
00010000
00001000
,
00000010
00000001
00001000
00001000
,
00000010
00000100
00000001
00000001
,
00000010
00000000
00000100
00000000
00001000
00000010
00000100
00000000
,
00001001
00000100
00001000
00100000
,
01000000
10000000
00010000
00100000
,
01000000
01000000
10000000
10000000
,
00100000
00010000
00001000
00000010
,
00000001
00000100
00000010
00001000
,
00000100
00000100
00000010
00000010
,
00000001
00001000
00000010
00000100
,
00000001
00001000
00000100
00000000
00001000
00000001
00000100
00000000
,
00001000
00100000
01000000
10000000
,
10000000
00000000
00010000
00000000
00100000
01000000
00100000
00000000
,
00010000
10000000
00100000
00010000
,
00001000
00000010
00000001
00000000
00000100
00000000
00000010
00000000
,
00001000
00000001
00000010
00000000
00000100
00000000
00001000
00000000
,
00000010
00000100
00000001
00000000
00000010
00000000
00000100
00000000
,
00001000
00000010
00000001
00000000
00000001
00000010
00001000
00000000
,
00000100
00010000
00001000
00000000
00011000
00000000
00000000
00000000
,
00011000
00010000
01000000
10000000
,
00010000
00100000
01000000
00000000
10000000
00000000
10000000
00000000
,
10000000
00100000
01000000
00000000
00010000
00000000
00010000
00000000
,
10000000
01000000
00010000
00001000
,
00011000
00000100
00000001
00000001
,
00001000
00001000
00001000
00001000
,
00001000
00001000
00001000
00001000
,
00000000
00000000
00000000
00000000
00000001
00000100
00001000
00010000
,
00000200
00000000
00000000
00000300
;

//---------------dance-double - ----------------
#NOTES:
     dance-double:
     :
     Hard:
     9:
     :
00000000
00000000
00000000
00000000
,
00000000
00000000
00000000
00000000
,
00000000
00000000
00000000
00000000
,
00000000
00000000
00000000
00000000
,
00000000
00000000
00000000
00000000
,
00010000
10000000
01000000
00100000
01000000
00000000
00000000
00000000
,
10000000
00100000
01000000
00010000
00100000
00000000
00000000
00000000
,
10000000
01000000
00010000
00000000
00001000
00000100
00000001
00000000
,
00000010
00000100
00001000
00000001
00000100
00000010
00001000
00000000
,
00000101
00000000
00000010
00001000
00000100
00000000
00000100
00000000
,
00000010
00000001
00000100
00000000
00000010
00000000
00001000
00000000
,
00000001
00000000
00000010
00000000
00001000
00010000
01000000
00000000
,
10000000
00010000
01000000
00000000
11000000
00000000
01010000
00000000
,
10000000
00010000
01000000
00000000
00100000
00000000
10000000
00000000
,
00010000
10000000
01000000
00000000
00100000
00000000
00010000
00000000
,
10000000
00100000
01000000
00010000
,
10000000
01000000
00010000
00001000
00000100
00000001
00000010
00000000
,
00002001
00003100
00000100
00000010
,
00001002
00000103
00000100
00000010
,
00002000
00000000
00000002
00003003
,
00000010
00000000
00000100
00000000
00010000
00000100
00001000
00000000
,
00010100
00001000
01000000
00100000
,
10010000
01000000
00100000
00010000
,
01010000
10000000
11000000
00010000
,
01100000
00110000
00011000
00001010
,
00000011
00000100
00000010
00001000
,
00000001
00000000
00000010
00000000
00000100
00001000
00000001
00000000
,
00000100
00001000
00100000
01000000
,
10000000
00000000
00010000
00000000
00100000
01000000
00100000
00000000
,
10010000
01000000
01000000
00100000
,
00010000
00000000
10000000
00000000
00100000
00010000
00001000
00000000
,
00001000
00000010
00000001
00001000
,
00000100
00000010
00000001
00000100
00001000
00010000
00010000
00000000
,
01000000
10000000
00010000
01000000
,
00200000
10300000
02000000
03010000
,
00002000
00013000
00000200
00000301
,
00000010
00000000
00000100
00000000
00001000
00000001
00001000
00000000
,
00000110
00000001
00001000
00001000
,
00000010
00000100
00000001
00000010
,
00000100
00001000
00000100
00000000
00000100
00000001
00000100
00000000
,
00001000
00010000
00001000
00100000
01000000
10000000
00010000
00000000
,
01100000
00000000
00010000
10000000
01000000
00100000
01000000
00000000
,
10010000
00000000
00100000
01000000
00010000
10000000
01000000
00000000
,
00110000
00000000
00001000
00010000
00000100
00000010
00000001
00001000
,
00000010
00000000
00000100
00000000
00000010
00000000
00001000
00000001
00000000
00000000
00000000
00000000
00000000
00000000
00000000
00000000
,
00000110
00000000
00000001
00000010
00000100
00000000
00001000
00000000
,
00000101
00000000
00001000
00000010
00000100
00000000
00001000
00000000
,
00011000
00000000
00100000
01000000
00010000
00000000
00100000
00000000
,
21000000
01000000
01000000
31000000
,
10020000
00000000
01000000
00030000
,
20010000
00000000
01000000
30000000
,
00100000
00010000
00001000
00000010
,
00000000
00000000
00000000
00000000
00000000
00000000
00000000
00000000
00000001
00000000
00001000
00000000
00000100
00000000
00000010
00000001
,
00000200
00000000
00000000
00000300
;

//---------------dance-double - ----------------
#NOTES:
     dance-double:
     :
     Challenge:
     1:
     :
00000000
00000000
00000000
00000000
,
00000000
00000000
00000000
00000000
,
00000000
00000000
00000000
00000000
,
00000000
00000000
00000000
00000000
,
00000000
00000000
00000000
00000000
,
00100000
00000000
00000000
00000000
,
00010000
00000000
00000000
00000000
,
10000000
00000000
00000000
00000000
,
00010000
00000000
00000000
00000000
,
00010000
00000000
10000000
00000000
,
00010000
00000000
00010000
00000000
,
00100000
00000000
01000000
00000000
,
00100000
00000000
00010000
00000000
,
10000000
00000000
00010000
00000000
,
10000000
00000000
10000000
00000000
,
00100000
00000000
01000000
00000000
,
00100000
00000000
10000000
00000000
,
00010000
00000000
00010000
00000000
,
01000000
01000000
01000000
00000000
,
10000000
00000000
10000000
00000000
,
00100000
00100000
00100000
00000000
,
00010000
00000000
00010000
00000000
,
10000000
00000000
10000000
00000000
,
00010000
00000000
10000000
00000000
,
01000000
01000000
01000000
00000000
,
00010000
00000000
10000000
00000000
,
00010000
00000000
10000000
00000000
,
00100000
00000000
01000000
00000000
,
00010000
00000000
00010000
00000000
,
10000000
00000000
00010000
00000000
,
10000000
00000000
00010000
00000000
,
00100000
00000000
01000000
00000000
,
10000000
00000000
10000000
00000000
,
00010000
00010000
00010000
00000000
,
10000000
10000000
10000000
00000000
,
00100000
00000000
01000000
00000000
,
00010000
00000000
00010000
00000000
,
10000000
10000000
10000000
00000000
,
00010000
00010000
00010000
00000000
,
00100000
00000000
01000000
00000000
,
10000000
00000000
10000000
00000000
,
01000000
00000000
00000000
00000000
,
00100000
00000000
00000000
00000000
,
10000000
00000000
00010000
00000000
,
10000000
10000000
10000000
00000000
,
00100000
00000000
00000000
00000000
,
00000000
00000000
00000000
00000000
,
01000000
00000000
00000000
00000000
,
00000000
00000000
00000000
00000000
,
10000000
00000000
10000000
00000000
,
00010000
00000000
00010000
00000000
,
10000000
00000000
01000000
00000000
,
00000000
00000000
10000000
00000000
,
01000000
00000000
00000000
00000000
;
