#TITLE:Timepiece phase II;
#ARTIST:Hirofumi Sasaki;
#BANNER:Timepiece phase II-bn.png;
#BACKGROUND:Timepiece phase II-bg.png;
#JACKET:Timepiece phase II-jacket.png;
#MUSIC:Timepiece phase II.ogg;
#SAMPLESTART:12.544;
#SAMPLELENGTH:20;
#DISPLAYBPM:140:287;
#BPMS:0=287,460=286.437,460.25=285.322,460.5=284.197,460.75=283.072,461=281.947,461.25=280.823,461.5=279.697,461.75=278.572,462=277.448,462.25=276.322,462.5=275.197,462.75=274.073,463=272.947,463.25=271.822,463.5=270.697,463.75=269.572,464=268.447,464.25=267.322,464.5=266.197,464.75=265.072,465=263.947,465.25=262.822,465.5=261.697,465.75=260.572,466=259.447,466.25=258.322,466.5=257.197,466.75=256.072,467=254.947,467.25=253.822,467.5=252.696,467.75=251.567,468=247.516,468.25=240.635,468.5=233.698,468.75=226.759,469=219.821,469.25=212.883,469.5=205.945,469.75=199.007,470=192.068,470.25=185.13,470.5=178.192,470.75=171.253,471=164.315,471.25=157.376,471.5=150.438,471.75=143.469,472=140;
#BGCHANGES:;

//---------------dance-single - ----------------
#NOTES:
     dance-single:
     :
     Beginner:
     4:
     :
0000
0000
0000
0000
,
0000
0000
0000
0000
,
0000
0000
0000
0000
,
0000
0000
0000
0000
,
0000
0000
0000
0000
,
0000
0000
0000
0000
,
0000
0000
0000
0000
,
0000
0000
0000
0000
,
0020
0000
0000
0000
,
0000
0000
0030
0000
,
2000
0000
0000
0000
,
0000
0000
3000
0000
,
0002
0000
0000
0000
,
0000
0000
0000
0000
,
0000
0000
0003
0000
,
1001
0000
0000
0000
,
0000
0000
1000
0000
,
0020
0000
0030
0000
,
0200
0000
0300
0000
,
0000
0000
0001
0000
,
0010
0000
0100
0000
,
2000
0000
0000
0000
,
0000
0000
3000
0000
,
1001
0000
0000
0000
,
0000
0000
0001
0000
,
2000
0000
3000
0000
,
0002
0000
0003
0000
,
0000
0000
0010
0000
,
0100
0000
1000
0000
,
0001
0000
0100
0000
,
0001
0000
1000
0000
,
0010
0000
0000
0000
,
0100
0000
0000
0000
,
0010
0000
0000
0000
,
0100
0000
0000
0000
,
0001
0000
0000
0000
,
1000
0000
0000
0000
,
0001
0000
0000
0000
,
1000
0000
0000
0000
,
0100
0000
0000
0000
,
0010
0000
0000
0000
,
0100
0000
0000
0000
,
0010
0000
0000
0000
,
0001
0000
0000
0000
,
1000
0000
0000
0000
,
0001
0000
0000
0000
,
1000
0000
0000
0000
,
1001
0000
0000
0000
,
0000
0000
1000
0000
,
0020
0000
0030
0000
,
0200
0000
0300
0000
,
0000
0000
0001
0000
,
1000
0000
0100
0000
,
0020
0000
0030
0000
,
0002
0000
0003
0000
,
1001
0000
0000
0000
,
0000
0000
1000
0000
,
2000
0000
0000
0000
,
0000
0000
3000
0000
,
0010
0000
0100
0000
,
0010
0000
0100
0000
,
0110
0000
0000
0000
,
0000
0000
0000
0000
,
0001
0000
0000
0000
,
0000
0000
1000
0000
,
1000
0000
0000
0000
,
0000
0000
0010
0000
,
0010
0000
0000
0000
,
1000
0000
0000
0000
,
0100
0000
0000
0000
,
1000
0000
0000
0000
,
0001
0000
0000
0000
,
0000
0000
0100
0000
,
0100
0000
0000
0000
,
0000
0000
0010
0000
,
0010
0000
0000
0000
,
1000
0000
0000
0000
,
0001
0000
0000
0000
,
0100
0000
0000
0000
,
0010
0000
0000
0000
,
1000
0000
1000
0000
,
0000
0000
0001
0000
,
0001
0000
0000
0000
,
0110
0000
0000
0000
,
1001
0000
0000
0000
,
0010
0000
0000
0000
,
0100
0000
0000
0000
,
0001
0000
0000
0000
,
0001
0000
0000
0000
,
1000
0000
0001
0000
,
1000
0000
0000
0000
,
0010
0000
0000
0000
,
0010
0000
0000
0000
,
1000
0000
0100
0000
,
0000
0000
0000
0000
,
0110
0000
0000
0000
,
0000
0000
0001
0000
,
2000
0000
3000
0000
,
0200
0000
0300
0000
,
0000
0000
1000
0000
,
0001
0000
1000
0000
,
0020
0000
0030
0000
,
0200
0000
0300
0000
,
0110
0000
0000
0000
,
0000
0000
0010
0000
,
2000
0000
3000
0000
,
0200
0000
0300
0000
,
1000
0000
0001
0000
,
1000
0000
0000
0000
,
0010
0000
0100
0000
,
0010
0000
0000
0000
,
1001
0000
0000
0000
,
0110
0000
0000
0000
,
1001
0000
0000
0000
,
0110
0000
0000
0000
,
0001
0000
0000
0000
,
1000
0000
0000
0000
,
0010
0000
0100
0000
,
2002
0000
0000
0000
,
0000
0000
0000
0000
,
0000
0000
0000
0000
,
3003
0000
0000
0000
;

//---------------dance-single - ----------------
#NOTES:
     dance-single:
     :
     Easy:
     7:
     :
0000
0000
0000
0000
,
0000
0000
0000
0000
,
0000
0000
0000
0000
,
0000
0000
0000
0000
,
0000
0000
0000
0000
,
0000
0000
0000
0000
,
0000
0000
0000
0000
,
0000
0000
0000
0000
,
0020
0000
0001
0000
,
0001
0000
0031
0000
,
2000
0000
0100
0000
,
0100
0000
3100
0000
,
2002
0000
0000
0000
,
0000
0000
0000
0003
,
0001
0000
3001
0000
,
1001
0000
0100
0000
,
0010
0000
1000
0000
,
0001
0000
0010
0000
,
0001
0000
0100
0000
,
1000
0000
0010
0000
,
1000
0000
0001
0000
,
1000
0000
0100
0000
,
0010
0000
0001
0000
,
0100
0000
0001
0000
,
0010
0000
0100
0000
,
1000
0000
0010
0000
,
1000
0000
0100
0000
,
1000
0000
0001
0000
,
0010
0000
0100
0000
,
1100
0000
0101
0000
,
1100
0000
0101
0000
,
1000
0000
0001
0000
,
1000
0000
0100
0000
,
0010
0000
0001
0000
,
0100
0000
0010
0000
,
1000
0000
0100
0000
,
1000
0000
0001
0000
,
1000
0000
0100
0000
,
0010
0000
0001
0000
,
0100
0000
0001
0000
,
0010
0000
0001
0000
,
1000
0000
0001
0000
,
0010
0000
0100
0000
,
0010
0000
0001
0000
,
0100
0000
0010
0000
,
1000
0000
0100
0000
,
1000
0000
0010
0000
,
1001
0000
0001
0000
,
0100
0000
1000
0000
,
0010
0000
1000
0000
,
0100
0000
0010
0000
,
0001
0000
0100
0000
,
0010
0000
0100
0000
,
0001
0000
1000
0000
,
0100
0000
0010
0000
,
0011
0000
0001
0000
,
0100
0000
0010
0000
,
1001
0000
1000
0000
,
0100
0000
0001
0000
,
0101
0000
0101
0000
,
1100
0000
1100
0000
,
1001
0000
0010
0000
,
1000
0000
0001
0000
,
0011
0000
0000
0000
,
0000
0000
0100
0000
,
1100
0000
0000
0000
,
0000
0000
0001
0000
,
1001
0000
0000
0000
,
1010
0000
0000
0000
,
1100
0000
0000
0000
,
0010
0000
0010
0000
,
1001
0000
0000
0000
,
0000
0000
0100
0000
,
0110
0000
0000
0000
,
0000
0000
0001
0000
,
0011
0000
0000
0000
,
0101
0000
0000
0000
,
1001
0000
0000
0000
,
1000
0000
0001
0000
,
0010
0000
0001
0000
,
0100
0000
0100
0000
,
0010
0000
1000
0000
,
0100
0000
0100
0000
,
0110
0000
1001
0000
,
0100
0000
0010
0000
,
1000
0000
0001
0000
,
1000
0000
0100
0000
,
0010
0000
0010
0000
,
0001
0000
1000
0000
,
0010
0000
0010
0000
,
1000
0000
0001
0000
,
1000
0000
0001
0000
,
0010
0000
0100
0000
,
0001
0000
0100
0000
,
1000
0000
0010
0000
,
0110
0000
0001
0000
,
0010
0000
0100
0000
,
1100
0000
0010
0000
,
0101
0000
0010
0000
,
1000
0000
0001
0000
,
1000
0000
0100
0000
,
1010
0000
0001
0000
,
0011
0000
0100
0000
,
0110
0000
0010
0000
,
1000
0000
0001
0000
,
1001
0000
0010
0000
,
1010
0000
0100
0000
,
0001
0000
0010
0000
,
0100
0000
1000
0000
,
0010
0000
0010
0000
,
2002
0000
0000
3003
,
0001
0000
0001
0000
,
1000
0000
1000
0000
,
0010
0000
0010
0000
,
0100
0000
0100
0000
,
0001
0000
0101
0000
,
1000
0000
1100
0000
,
0010
0000
0100
0000
,
2002
0000
0000
0000
,
0000
0000
0000
0000
,
0000
0000
0000
0000
,
3003
0000
0000
0000
;

//---------------dance-single - ----------------
#NOTES:
     dance-single:
     :
     Medium:
     12:
     :
0000
0000
0000
0000
,
0000
0000
0000
0000
,
0000
0000
0000
0000
,
0000
0000
0000
0000
,
0000
0000
0000
0000
,
0000
0000
0000
0000
,
0000
0000
0000
0000
,
0000
0000
0000
0000
,
0020
0000
0001
0000
,
0001
0000
0031
0000
,
1020
0000
1000
0000
,
1000
0000
1030
0000
,
0001
0000
0001
0000
,
0001
0000
0001
0000
,
0001
0000
0001
0000
,
2001
0000
0000
3020
0000
0000
2030
0000
,
0000
3002
0000
0000
0203
0000
0300
0000
,
0020
0000
0000
2030
0000
0000
3002
0000
,
0000
2003
0000
0000
3200
0000
0300
0000
,
2000
0000
0000
3200
0000
0000
0320
0000
,
0000
0032
0000
0000
2003
0000
3000
0000
,
0020
0000
0000
0230
0000
0000
0302
0000
,
0000
2003
0000
0000
3020
0000
0030
0000
,
2000
0000
0000
3002
0000
0000
0023
0000
,
0000
0230
0000
0000
2300
0000
3000
0000
,
0002
0000
0000
0203
0000
0000
0302
0000
,
0000
2003
0000
0000
3020
0000
0030
0000
,
0110
0000
0001
1000
,
1001
0000
0010
0100
,
0101
0000
1100
0000
,
0011
0000
1010
0000
,
0001
0010
0100
0001
,
0010
0001
0100
0010
,
0100
0010
1000
0100
,
0010
1000
0001
0100
,
0001
0010
1000
0001
,
0100
1000
0010
0100
,
1000
0001
1000
0001
,
0010
0001
1000
0001
,
0100
1000
0010
1000
,
0001
0100
0010
0100
,
0001
0010
0001
0100
,
0001
1000
0010
1000
,
0100
1000
0010
0100
,
1000
0010
0100
0001
,
0010
1000
0100
1000
,
0001
0010
0100
1000
,
2100
0000
0000
0001
0000
0000
0100
0000
,
0000
0001
0000
0000
0020
0000
3030
0000
,
0201
0000
0000
0010
0000
0000
1000
0000
,
0000
0001
0000
0000
0020
0000
0330
0000
,
1010
0000
0000
1000
0100
0000
0000
0000
,
0011
0000
0000
0001
0100
0000
0000
0000
,
0110
0000
0000
0010
1000
0000
0000
0000
,
1001
0000
0000
0001
0010
0000
0000
0000
,
0102
0000
0000
1000
0000
0000
0010
0000
,
0000
1000
0000
0000
0200
0000
0303
0000
,
0120
0000
0000
0100
0000
0000
1000
0000
,
0000
0001
0000
0000
2000
0000
3030
0000
,
0101
0000
0011
0000
,
0110
0000
1100
0000
,
1001
0010
1000
0001
,
1000
0100
0010
0001
,
0202
0000
0000
0000
,
0000
0303
2200
3300
,
0022
0000
0000
0000
,
0000
0033
2002
3003
,
0220
0000
0000
0330
,
2020
0000
0000
3030
,
0202
0000
0000
0303
,
2000
0000
0002
3003
,
2200
0000
0000
0000
,
0000
3300
2002
3003
,
0022
0000
0000
0000
,
0000
0033
0220
0330
,
2002
0000
0000
3003
,
2020
0000
0000
3030
,
0220
0000
0000
0330
,
0001
1000
0001
1000
0001
1000
0001
0000
,
0000
0000
0020
0000
0000
2030
0000
0000
,
3200
0000
0000
0320
0000
0000
0030
0000
,
0000
0000
0002
0000
0000
2003
0000
0000
,
3010
0000
1000
0100
1000
0000
0000
0000
,
0201
0000
0302
0000
,
0203
0000
0010
0310
,
0000
1000
1000
1000
,
1100
0110
0011
1001
,
0020
0000
0000
2030
0000
0000
3002
0000
,
0000
0203
0000
0000
0302
0000
0003
0000
,
0010
0001
1000
0001
,
0010
0100
1000
0000
,
0010
0000
1000
0001
1000
0000
0100
0000
,
0010
0001
0100
0010
,
1000
0100
1001
0220
,
0030
0001
0001
0301
,
0010
0000
0000
0010
0001
0000
0000
0001
,
0100
0000
0000
0100
0010
0000
0000
0010
,
1000
0000
0000
1000
0001
0000
0000
0001
,
0100
0000
0000
0100
0010
0000
0000
0010
,
1000
0000
0000
1000
0100
0000
0000
0100
,
0010
0000
0000
0010
0001
0000
0000
0001
,
0100
0000
0000
0100
0001
0000
0000
0001
,
1000
0000
0000
1000
0010
0000
0100
0000
,
0001
0000
0000
0001
1000
0000
0000
1000
,
0100
0000
0000
0100
0010
0000
0000
0010
,
0001
0000
0000
0001
1000
0000
0000
1000
,
0010
0000
0000
0010
0100
0000
0000
0100
,
0010
0000
0000
0010
1000
0000
0000
1000
,
0001
0000
0000
0001
0100
0000
0000
0100
,
0001
0010
0100
1000
,
0001
0100
0010
1000
,
2200
3300
0220
0330
,
0022
0033
0202
0303
,
2020
3030
2200
3300
,
2002
3003
0202
0303
,
0001
0010
0100
1000
,
0010
0100
0001
1000
,
0202
0303
1100
0101
,
2200
0000
0000
0000
,
0000
0000
0000
0000
,
0000
0000
0000
0000
,
3300
0000
0000
0000
;

//---------------dance-single - ----------------
#NOTES:
     dance-single:
     :
     Hard:
     15:
     :
0000
0000
0000
0000
,
0000
0000
0000
0000
,
0000
0000
0000
0000
,
0000
0000
0000
0000
,
0000
0000
0000
0000
,
0000
0000
0000
0000
,
0000
0000
0000
0000
,
0000
0000
0000
0000
,
0020
0000
0001
0000
,
0001
0000
0031
0000
,
1020
0000
1000
0000
,
1000
0000
1030
0000
,
0001
1000
0001
1000
,
0001
1000
0001
1000
,
0001
1000
0001
1000
,
1001
0000
0000
0001
0010
0000
0011
0000
,
0000
1100
0000
0000
0101
0000
0000
1000
,
0100
0000
0000
0010
0001
0000
0101
0000
,
0000
0110
0000
0000
1010
0000
0000
0100
,
1000
0000
0000
0001
0100
0000
0101
0000
,
0000
1001
0000
0000
0110
0000
0000
0010
,
1000
0000
0000
0001
0010
0000
0011
0000
,
0000
1010
0000
0000
0010
0100
0010
0100
,
0010
0000
0000
1000
0001
0000
0101
0000
,
0000
1010
0000
0000
1100
0000
0001
1000
,
0100
0000
0000
0010
0001
0000
1001
0000
,
0000
1010
0000
0000
1100
0000
0001
1000
,
0010
0000
0000
0100
0010
0000
1000
0000
,
0110
0000
0000
0001
1000
0000
0100
0000
,
0011
0000
0000
0100
0010
0000
1000
0000
,
1001
0000
0010
1000
0001
1000
0010
0100
,
0001
0010
0100
1000
,
0010
0001
0010
1000
0010
0001
0010
1000
,
0100
0010
0001
0100
,
0010
0001
0010
1000
0010
0100
0010
0001
,
0010
1000
0100
0010
,
0001
0100
1000
0100
0001
0010
1000
0010
,
0001
0000
0010
0000
0100
0000
1000
0010
,
1000
0000
0010
0001
0010
1000
0100
0010
,
0001
0100
0010
1000
,
0100
0001
0100
1000
0100
0010
0100
0001
,
0100
0000
0010
0001
1000
0000
0001
0100
,
0001
0000
1000
0010
0001
0010
1000
0100
,
0010
0000
0001
1000
0100
0000
0010
0001
,
0100
0000
0001
0010
0100
0000
1000
0010
,
1000
0100
0010
0001
,
0100
1000
0100
0010
0100
1000
0100
0001
,
0010
0000
0001
0100
0000
0100
1000
0000
,
0001
0010
0000
0010
1000
0000
0000
0000
,
0100
0000
1000
0010
0000
0010
0001
0000
,
1000
0100
0000
0100
0001
1000
0001
0000
,
1010
0000
0001
0100
1000
0000
1000
0000
,
0101
0000
1000
0010
0001
0000
0001
0000
,
0011
0000
0010
0001
0100
0000
0100
0000
,
1100
0000
1000
0010
0100
0000
0100
0000
,
0110
0000
0001
0010
0000
0010
1000
0000
,
0001
0100
0000
0100
1000
0000
0000
0000
,
1001
0000
0010
1000
0001
1000
0010
0000
,
1000
0100
0001
0100
0010
0100
0001
0100
,
1000
0000
0010
0100
0010
0000
1000
0100
,
1000
0000
0001
0100
0001
0000
0010
0100
,
1000
0000
0010
0100
0001
0000
0001
0000
,
0011
0110
1100
1001
,
2010
0000
0001
0000
,
3001
0000
0011
0000
,
1200
0000
0010
0000
,
0310
0000
0011
0000
,
1002
0000
0103
0000
,
0210
0000
1300
0000
,
0102
0000
0013
0000
,
1000
0001
1000
0001
0010
0100
1000
0000
,
2100
0000
0001
0000
,
3100
0000
1010
0000
,
0021
0000
1000
0000
,
0031
0000
0101
0000
,
0210
0000
0310
0000
,
1020
0000
1030
0000
,
2001
0001
0001
3001
,
1000
0100
0010
0001
0010
0100
1000
0000
,
0010
0000
1000
0000
0001
1000
0000
0001
,
0010
0000
0100
2000
0000
0000
3000
0000
,
0001
0000
0010
0000
0001
0100
0000
0010
,
1000
0000
0100
0010
0002
0000
0003
1000
,
0020
0130
0002
1003
,
0200
0310
0011
1100
,
0001
1000
0001
0000
1001
0000
1001
0000
,
0100
0010
0100
0000
0110
0000
0110
0000
,
0001
0010
0100
1000
0000
1000
0001
0000
,
0100
0000
0001
0010
2000
0000
3000
0000
,
0100
1000
0100
1000
0001
1000
0100
0000
,
0010
0001
0010
0001
1000
0001
0010
0000
,
1001
0000
0010
1000
0100
0000
0101
0000
,
1000
0001
0100
0000
0010
1000
0100
0000
,
0010
0001
0010
1000
0010
0001
0100
0000
,
0001
0010
0100
1000
0100
0010
0001
1000
,
0100
0000
1000
0010
1000
0000
0100
0010
,
0001
0000
0100
0001
0010
0001
1000
0100
,
1000
0000
0001
0100
0001
0010
0100
0000
,
1000
0000
0010
1000
0001
0010
0100
0000
,
1000
0100
1000
0000
0001
0100
0001
0000
,
1000
0010
1000
0000
0001
0010
0001
0000
,
0100
0010
0100
1000
0100
0010
0100
0000
,
0100
0010
0100
0001
0100
0010
0100
0000
,
0011
0000
0001
1000
0010
0000
2020
0000
,
0030
0001
0100
3100
,
1000
0010
0200
0000
0301
2000
0000
3001
,
0020
0000
1000
0000
0130
0010
0001
0000
,
0002
0000
1003
0010
0100
0010
0100
0010
,
0001
0010
1000
0200
0000
0000
0300
0000
,
0110
0000
0010
0001
0010
1000
0010
0100
,
1000
0000
0001
0100
0001
0100
0001
0100
,
0010
0000
0000
0010
1000
0000
0000
1000
,
0100
0000
0000
0100
0001
0000
0000
0001
,
0010
0000
0000
0010
0001
0000
0000
0001
,
0100
0000
0000
0100
1000
0000
0000
1000
,
0001
0001
0010
0010
,
0100
0100
1000
1000
,
0001
0010
0100
1000
0100
0010
0001
0000
,
2200
0000
0000
0000
,
0000
0000
0000
0000
,
0000
0000
0000
0000
,
3300
0000
0000
0000
;

//---------------dance-single - ----------------
#NOTES:
     dance-single:
     :
     Challenge:
     17:
     :
0000
0000
0000
0000
,
0000
0000
0000
0000
,
0000
0000
0000
0000
,
0000
0000
0000
0000
,
0000
0000
0000
0000
,
0000
0000
0000
0000
,
0000
0000
0000
0000
,
0000
0000
0000
0000
,
0020
0000
0001
0000
,
0001
0000
0031
0000
,
1020
0000
0100
0000
,
0100
0000
0130
0000
,
0001
0001
0001
0001
,
0001
0001
0001
0001
,
0001
0001
0001
0001
,
1001
0000
0001
1000
0000
1000
0010
0000
,
0010
0100
0000
0100
0001
1000
0100
0010
,
0001
0000
0001
0100
0000
0100
0010
0000
,
1000
0001
0000
1000
0100
0010
0001
1000
,
0010
0000
0000
1000
0010
0000
0100
0000
,
0001
0010
0000
0010
0001
1000
0000
1000
,
0001
0000
0000
0011
0000
0000
1000
0000
,
0000
1010
0000
0000
0010
0100
0010
0100
,
0010
0000
1000
0100
0000
0100
0010
0000
,
0010
0001
0000
0001
0100
0010
0100
0010
,
1000
0000
0001
0010
0000
0010
0100
0000
,
0100
1000
0000
1000
0001
0100
0001
0100
,
0010
0000
1000
0001
0000
0001
0100
0000
,
0010
1000
0001
0100
0010
0100
0001
0000
,
1000
0100
1000
0010
0100
0001
1000
0000
,
0001
0010
0100
1000
0010
0100
0001
1000
,
0010
0100
0010
0100
0001
0100
0001
0100
,
1000
0100
0001
0100
1000
0100
0001
0100
,
0010
0001
0010
0001
0010
1000
0100
0001
,
0100
0010
0100
0001
0100
1000
0001
0100
,
1000
0100
0010
0100
1000
0100
0001
1000
,
0001
0010
0100
0001
0100
0010
0100
1000
,
0010
1000
0001
1000
0100
0010
0001
0100
,
1000
0100
0010
0001
0010
0100
0010
1000
,
0100
0001
0100
0010
0100
0001
0100
1000
,
0010
1000
0001
0010
1000
0010
0100
1000
,
0001
1000
0010
1000
0100
0010
0100
0001
,
0100
0010
0001
0100
0001
0010
1000
0010
,
1000
0010
0100
0010
0001
0100
0010
0001
,
0010
1000
0001
1000
0010
0100
1000
0100
,
0010
0001
0010
1000
0100
0001
0100
0010
,
1000
0010
0100
1000
0001
0100
0010
1000
,
0100
0000
1000
0010
0000
0100
0001
0000
,
0010
1000
0010
0001
0100
0010
1000
0001
,
0020
0000
0031
0100
1000
0100
0001
0000
,
0020
0000
1030
0010
0001
0010
1000
0000
,
0001
0000
0100
0010
1000
0100
1000
0100
,
0010
1000
0010
1000
0010
0001
0010
0001
,
0100
0001
0100
0010
0100
1000
0100
0000
,
0100
1000
0100
0010
0100
0001
0100
0000
,
0110
0000
0010
1000
0000
1000
0100
0000
,
0100
0010
0000
0010
0001
1000
0001
0100
,
0010
0000
1000
0001
1000
0010
1000
0100
,
1000
0010
0100
0010
1000
0001
0010
0001
,
0100
0010
1000
0001
0010
0100
1000
0001
,
0010
0100
0010
0001
1000
0001
1000
0010
,
0100
0101
1100
0101
,
0011
0110
1100
1010
,
1001
0000
0010
0000
1000
0001
0000
1000
,
0100
0010
0011
0001
,
0101
0000
0010
0000
1000
0100
0000
0100
,
0010
0000
0001
0100
0010
1000
0100
0010
,
0001
0000
1100
0000
1000
0010
0000
0100
,
0001
0010
0001
0000
1000
0010
0000
0010
,
0100
0001
0000
0010
0000
0001
1000
0010
,
1000
0100
0001
0100
1000
0010
0001
0010
,
1000
0100
0010
0001
0000
0001
1000
0001
,
0010
0100
1000
0001
0000
0001
0100
0000
,
0010
1000
0000
0010
0100
0001
0000
0010
,
0100
1000
0001
0100
0020
0000
0030
0000
,
1000
0100
0001
0100
1000
0010
0100
0001
,
0010
0100
0010
0001
1000
0001
0100
0000
,
0010
1000
0001
0100
0001
0100
1000
0010
,
0001
0010
1000
0100
1000
0001
0100
0010
,
1000
0000
0011
0000
0010
0100
0000
0100
,
1000
0000
1000
0010
0000
0100
0001
0000
,
0010
0000
1001
0000
0100
0010
0000
1000
,
0001
0000
0010
0100
2000
0000
3001
1000
,
0200
0310
0002
0103
,
0020
1030
1100
0101
,
1000
0001
0100
0000
0110
0000
0110
0000
,
1000
0100
0001
0100
0010
0100
1000
0000
,
0001
0010
0001
0100
0010
1000
0100
0010
,
1000
0010
0100
0010
0001
0100
0010
0000
,
1000
0001
1000
0100
0010
0100
1000
0001
,
0100
1000
0100
0010
1000
0001
0100
0000
,
0002
0000
0013
0100
1000
0000
1010
0000
,
0001
0100
0010
0100
0001
1000
0100
0000
,
0010
0001
1000
0100
1000
0100
0001
0010
,
0100
0010
1000
0001
1000
0001
0010
0100
,
1000
0000
0010
1000
0001
0010
0100
0000
,
1000
0010
1000
0010
0100
0001
0100
0001
,
0010
0100
1000
0001
1000
0010
0100
0001
,
0010
0100
0010
0001
0100
0010
1000
0001
,
0100
0001
0020
0000
0031
1000
0100
0010
,
0001
0100
0001
0010
1000
0010
0100
1000
,
0010
0100
0001
1000
0001
0010
0200
0000
,
0301
0100
1000
0001
1000
0010
0100
0001
,
0010
0000
0001
0100
1000
0000
1001
0000
,
0010
0000
1000
0001
1000
0100
0010
0100
,
1000
0001
1000
0010
0100
1000
0100
0010
,
0100
0001
0010
0100
1000
0001
1000
0010
,
0200
0000
0301
1000
0100
0010
0001
1000
,
0010
1000
0100
0020
0000
0031
0100
0000
,
0020
0000
1030
0001
1000
0100
0010
0001
,
0100
0010
1000
0001
0010
0100
1000
0001
,
0100
0001
0100
1000
0100
0010
0100
1000
,
0100
0001
0010
1000
0010
0100
0010
0001
,
1000
0010
0001
0010
1000
0100
0001
0100
,
0010
0100
0001
0100
0010
0001
1000
0010
,
0110
0011
0101
1010
,
1100
1001
1010
0101
,
0011
0010
0100
1000
1010
0001
0101
0100
,
2200
0000
0000
0000
,
0000
0000
0000
0000
,
0000
0000
0000
0000
,
3300
0000
0000
0000
;
