#VERSION:0.83;
#TITLE:Through the Fire and Flames;
#SUBTITLE:;
#ARTIST:Dragonforce;
#TITLETRANSLIT:;
#SUBTITLETRANSLIT:;
#ARTISTTRANSLIT:;
#GENRE:;
#ORIGIN:;
#CREDIT:;
#BANNER:Through the Fire and Flames-bn.png;
#BACKGROUND:Through the Fire and Flames-bg.png;
#PREVIEWVID:;
#JACKET:Through the Fire and Flames-jacket.png;
#CDIMAGE:;
#DISCIMAGE:;
#LYRICSPATH:;
#CDTITLE:;
#MUSIC:Through the Fire and Flames.ogg;
#OFFSET:0.000000;
#SAMPLESTART:94.750000;
#SAMPLELENGTH:20.000000;
#SELECTABLE:YES;
#DISPLAYBPM:200.000000;
#BPMS:0.000=200.000;
#STOPS:;
#DELAYS:;
#WARPS:;
#TIMESIGNATURES:0.000=4=4;
#TICKCOUNTS:0.000=4;
#COMBOS:0.000=1;
#SPEEDS:0.000=1.000=0.000=0;
#SCROLLS:0.000=1.000;
#FAKES:;
#LABELS:0.000=Song Start;
#BGCHANGES:;
#KEYSOUNDS:;
#ATTACKS:
;

//---------------dance-single - ----------------
#NOTEDATA:;
#CHARTNAME:;
#STEPSTYPE:dance-single;
#DESCRIPTION:;
#CHARTSTYLE:;
#DIFFICULTY:Hard;
#METER:17;
#RADARVALUES:0.885927,1.158081,0.375848,0.122559,0.641392,759.000000,713.000000,46.000000,15.000000,0.000000,0.000000,0.000000,0.000000,0.000000,0.885927,1.158081,0.375848,0.122559,0.641392,759.000000,713.000000,46.000000,15.000000,0.000000,0.000000,0.000000,0.000000,0.000000;
#CREDIT:;
#DISPLAYBPM:200.000000;
#NOTES:
// measure 0
0000
0000
0000
0000
,  // measure 1
0000
0000
0000
0000
,  // measure 2
0000
0000
0000
0000
,  // measure 3
0000
0000
0000
0000
,  // measure 4
0000
0000
0000
0000
,  // measure 5
0000
0000
0000
0000
,  // measure 6
0000
0000
0000
0000
,  // measure 7
0000
0000
0000
0000
,  // measure 8
1001
0100
0100
0100
,  // measure 9
1000
0100
0010
0001
,  // measure 10
1001
0100
0100
0100
,  // measure 11
0001
0010
0100
1000
,  // measure 12
1100
0001
0001
0001
,  // measure 13
1000
0010
0100
0001
,  // measure 14
0101
0000
0000
0000
,  // measure 15
0110
0110
0110
0000
,  // measure 16
1000
0010
1000
0010
1000
0000
0001
0100
0001
0100
0010
0000
1000
0000
0001
0000
,  // measure 17
0010
0100
0010
0100
0010
0000
0001
1000
0001
1000
0010
0000
0100
0000
0001
0000
,  // measure 18
0010
0001
0010
0001
0010
0000
0100
1000
0100
1000
0001
0000
0100
0000
0010
0000
,  // measure 19
1000
0100
1000
0100
1000
0000
0010
0100
0010
0100
0001
0000
1000
0000
0010
0000
,  // measure 20
1000
0001
1000
0001
1000
0000
0010
0100
0010
0100
0010
0000
0100
0000
0001
0000
,  // measure 21
0100
0010
0100
0010
0100
0000
0001
1000
0100
1000
0001
0000
0100
0000
0010
0000
,  // measure 22
0100
0001
0100
0001
0100
0000
0001
0010
0001
0010
0001
0000
1000
0000
0100
0000
,  // measure 23
1000
0100
1000
0100
0010
0100
0010
0100
1000
0001
1000
0001
0020
0000
0000
0000
,  // measure 24
0031
0100
0010
0100
0001
0000
1000
0010
0100
0010
1000
0000
0001
0000
0010
0000
,  // measure 25
0100
1000
0010
0100
0010
0000
1000
0001
0010
0100
1000
0000
0001
0000
0100
0000
,  // measure 26
0010
0100
0010
1000
0010
0000
1000
0001
0010
0001
0100
0000
0010
0000
1000
0000
,  // measure 27
0100
0010
0001
0100
0001
0000
0100
0001
1000
0010
1000
0000
0010
0000
0100
0000
,  // measure 28
0001
1000
0100
0010
0001
0000
0100
0001
0100
0010
1000
0000
0001
0000
0010
0000
,  // measure 29
0001
0100
0010
1000
0010
0000
1000
0001
0010
0100
0010
0000
0001
0000
1000
0000
,  // measure 30
0010
1000
0100
0010
0001
0000
1000
0001
1000
0100
1000
0000
0010
0000
0100
0000
,  // measure 31
0001
1000
0001
1000
0001
0010
0001
0010
0100
1000
0100
1000
0010
0100
0010
0100
,  // measure 32
0010
0000
1000
0100
0010
0000
1000
0001
,  // measure 33
1000
0000
1100
0000
0000
0000
0001
0100
,  // measure 34
0010
0000
1000
0001
0000
0011
0000
1010
,  // measure 35
0000
0000
0000
0100
,  // measure 36
0120
2030
3002
2003
,  // measure 37
3010
0000
0100
0002
0000
0000
1003
0000
,  // measure 38
1010
0000
0101
0000
1001
1001
0000
0110
,  // measure 39
0000
0000
1000
0100
0010
0001
0100
0010
1000
0001
0010
0100
1000
0010
0100
0001
,  // measure 40
0010
0000
0010
0001
0100
0010
1000
0100
,  // measure 41
1000
0001
0010
0100
1000
0010
0100
0001
,  // measure 42
0100
0010
1000
0100
0001
0100
1000
0010
,  // measure 43
0001
0010
1000
0100
0001
1000
0010
0100
,  // measure 44
0001
0010
0100
1000
0010
1000
0100
0010
,  // measure 45
0001
0100
1000
0010
0100
0001
1000
0100
,  // measure 46
0010
0001
0100
0010
1000
0001
1000
0100
,  // measure 47
1100
1100
0000
0001
0100
0100
0100
0100
,  // measure 48
0010
0000
1000
0100
0010
0100
1000
0001
,  // measure 49
0100
0010
1000
0100
0010
0100
1000
0001
,  // measure 50
0100
1000
0010
1000
0100
0001
1000
0010
,  // measure 51
0100
0010
1000
0001
0010
0100
1000
0001
,  // measure 52
0100
0001
0010
0100
0001
1000
0010
1000
,  // measure 53
0100
0010
0100
1000
0100
1000
0001
0010
,  // measure 54
0100
0010
0001
0100
0010
1000
0001
1000
,  // measure 55
0010
1001
0000
0110
0000
1001
0000
0110
,  // measure 56
1001
0010
0100
0001
0010
0100
1000
0000
,  // measure 57
1100
0010
0100
0001
1000
0100
0010
0000
,  // measure 58
0011
0001
0100
0010
1000
0100
0001
0000
,  // measure 59
0110
0100
0010
1000
0100
0010
0001
0000
,  // measure 60
1010
1000
0001
0010
0100
0010
0001
0000
,  // measure 61
0101
0010
1000
0100
0010
0001
1000
0000
,  // measure 62
1010
0000
0011
0000
0100
0100
0100
0100
,  // measure 63
0100
0102
2003
3200
,  // measure 64
0310
0000
0001
0100
0000
0000
0010
1000
0000
0000
0100
1000
0000
0000
0001
0100
,  // measure 65
0000
0000
0010
1000
0000
0000
0100
0010
0000
0000
0001
0100
0000
0000
0001
1000
,  // measure 66
0000
0000
0100
0010
0000
0000
0010
0001
0000
0000
0100
0010
0000
0000
1000
0001
,  // measure 67
1000
0100
0010
0001
0100
0110
0110
0000
,  // measure 68
1010
0001
0100
0010
1000
0100
0001
0000
,  // measure 69
0011
0100
1000
0010
0100
0001
1000
0000
,  // measure 70
0101
1000
0010
0100
0010
1000
0001
0000
,  // measure 71
1001
0100
0001
1000
0100
0010
1000
0000
,  // measure 72
0010
0000
1000
0001
0000
0000
0010
0100
0000
0000
1000
0010
0000
0000
0100
0001
,  // measure 73
0000
0000
0010
0001
0000
0000
0100
0001
0000
0000
1000
0100
0000
0000
1000
0010
,  // measure 74
0000
0000
1000
0001
0000
0000
0010
0100
0000
0000
1000
0010
0000
0000
1000
0001
,  // measure 75
0000
0000
0100
0001
0000
0000
1000
0100
0000
0000
0100
0010
0000
0000
0010
0100
,  // measure 76
1000
0100
1000
0100
1000
0000
0001
0000
0100
0000
0010
0000
0010
0000
0000
0000
,  // measure 77
1000
0001
1000
0001
1000
0000
0100
0000
0010
0000
0001
0000
0001
0000
0000
0000
,  // measure 78
1000
0100
0010
0001
1000
0100
0010
0001
1000
0010
0100
0001
1000
0010
0100
0001
,  // measure 79
0020
0100
0100
0130
,  // measure 80
1001
0000
1000
0010
1000
0000
0001
0010
0001
0000
1000
0100
1000
0000
0001
0100
,  // measure 81
0001
0000
0010
0100
1000
0000
0010
0100
0001
0000
1000
0001
0100
0000
0010
1000
,  // measure 82
0100
0000
0010
0001
1000
0000
0100
1000
0001
0000
0100
0010
0100
0000
0001
1000
,  // measure 83
0001
0000
1000
0100
0010
0000
0100
0010
0001
0000
0100
0001
1000
0000
0000
0000
,  // measure 84
0101
0000
1000
0000
0010
0000
0100
0000
0010
1000
0001
0000
0010
0000
0000
0000
,  // measure 85
0011
0000
0100
0000
1000
0000
0010
0000
0100
0001
1000
0000
0010
0000
0000
0000
,  // measure 86
1000
0000
0100
1000
0001
0000
0100
0001
1000
0000
0010
1000
0001
0000
0010
0001
,  // measure 87
1000
1100
0101
1100
,  // measure 88
1001
0000
0010
0100
0001
0000
0010
0100
1000
0000
0001
0100
1000
0000
0001
0010
,  // measure 89
1000
0000
0100
0010
0100
0000
0001
0010
0100
0000
1000
0010
0001
0000
1000
0100
,  // measure 90
0001
0000
0010
0100
1000
0000
0001
0100
0001
0000
1000
0010
0100
0000
0010
1000
,  // measure 91
0001
0000
0010
0100
1000
0000
0001
1000
0100
0000
1000
0010
0001
0000
0000
0000
,  // measure 92
0100
0001
0100
0001
0100
0000
0010
1000
0010
1000
0010
0000
1000
0000
0000
0000
,  // measure 93
1002
0203
0320
1030
,  // measure 94
2002
0000
0000
0000
,  // measure 95
0000
0000
0000
0000
,  // measure 96
0000
0000
0000
0000
,  // measure 97
0000
0000
0000
3003
;

//---------------dance-single - ----------------
#NOTEDATA:;
#CHARTNAME:;
#STEPSTYPE:dance-single;
#DESCRIPTION:;
#CHARTSTYLE:;
#DIFFICULTY:Medium;
#METER:13;
#RADARVALUES:0.659484,0.678875,0.310483,0.171583,0.008171,565.000000,527.000000,38.000000,21.000000,0.000000,0.000000,0.000000,0.000000,0.000000,0.659484,0.678875,0.310483,0.171583,0.008171,565.000000,527.000000,38.000000,21.000000,0.000000,0.000000,0.000000,0.000000,0.000000;
#CREDIT:;
#DISPLAYBPM:200.000000;
#NOTES:
0000
0000
0000
0000
,
0000
0000
0000
0000
,
0000
0000
0000
0000
,
0000
0000
0000
0000
,
0000
0000
0000
0000
,
0000
0000
0000
0000
,
0000
0000
0000
0000
,
0000
0000
0000
0000
,
1001
0000
0000
0000
,
1000
0100
0010
0001
,
1001
0000
0000
0000
,
0001
0010
0100
1000
,
1100
0000
0000
0000
,
1000
0010
0100
0001
,
0101
0000
0000
0000
,
0110
0110
0110
0000
,
0010
1000
0010
1000
0100
0010
0001
0100
,
0001
1000
0100
0010
0100
1000
0010
0100
,
0001
1000
0100
1000
0010
0100
0001
1000
,
0100
0010
0100
1000
0010
0100
0001
1000
,
0001
0100
0010
0100
0010
1000
0100
0010
,
0001
1000
0010
0100
0010
1000
0100
0010
,
0001
0100
0010
1000
0001
0010
0100
1000
,
0010
0100
0010
0100
0010
0100
0010
0000
,
1000
0100
0010
0100
1000
0010
0100
0001
,
0010
0100
1000
0010
1000
0001
0010
0100
,
1000
0001
1000
0001
0100
0010
0100
0001
,
0010
0100
0010
0001
0010
0100
1000
0001
,
0100
0001
1000
0100
1000
0010
0100
0001
,
0010
0100
1000
0010
0100
0001
1000
0001
,
1000
0100
0010
0100
1000
0010
0100
0001
,
1000
0001
1000
0001
1000
0001
1000
0000
,
1001
0100
0010
0001
,
0101
0101
0000
0000
,
2100
0000
0010
3020
0000
0230
0000
0302
,
0000
0000
0003
0000
,
0120
2030
3002
0203
,
0310
0100
0001
1000
,
1100
0000
1100
0000
0001
0001
0000
1001
,
0000
0000
0000
0000
0100
0000
0010
0000
0100
0000
0010
0000
1000
0001
1000
0001
,
1000
0000
0010
0100
0001
0000
1000
0100
,
0010
0000
0001
0100
0000
0001
1000
0100
,
1000
0000
0011
0000
0100
0010
1000
0001
,
0010
0000
1001
0000
0001
0100
1000
0000
,
0011
0000
1000
0100
0010
0100
1000
0000
,
1010
0000
0100
0001
1000
0001
0100
0000
,
0110
0000
1000
0010
0100
0001
1000
0000
,
0010
0100
0000
0001
1000
1000
0001
0001
,
0010
0000
1000
0100
0010
0001
0100
0010
,
1000
0001
0010
0100
1000
0010
0100
0001
,
0010
0000
1100
0000
0001
0100
0010
1000
,
0100
0000
1001
0000
1000
0010
0001
0000
,
1100
0000
0010
0100
0001
1000
0100
0000
,
0011
0000
1000
0100
0010
0001
0100
0000
,
0101
0000
0010
1000
0100
0010
0001
0000
,
1001
0100
0101
1100
,
0010
1000
0100
0010
0001
0100
1000
0000
,
0010
1000
0100
0010
0100
0010
0001
0000
,
0100
0001
1000
0100
0010
1000
0001
0000
,
0100
0001
0100
0010
1000
0100
0001
0000
,
0010
0001
0100
0010
1000
0100
0001
0000
,
1000
0010
0001
1000
0100
0010
0001
0000
,
0200
0320
2030
3002
,
0013
0011
1010
0011
,
1001
0000
0100
0010
1000
0100
0001
0000
,
0011
0000
0010
0001
1000
0100
1000
0000
,
0010
1000
0100
0010
0001
0100
1000
0000
,
0001
1000
0010
0001
0100
0010
1000
0000
,
0010
1000
0010
0100
0001
0010
0100
0000
,
0001
0100
0010
0100
0010
1000
0100
0000
,
0001
1000
0010
1000
0100
0010
0100
0000
,
1002
0100
1000
0103
,
0010
0001
0100
0001
1000
0001
1000
0100
,
0010
0100
1000
0010
0100
0001
1000
0000
,
0010
1000
0100
0010
0001
0100
0010
1000
,
0100
0010
0100
0010
0001
0100
1000
0000
,
0010
1000
0010
1000
0100
0100
0100
0000
,
0010
0001
0010
0001
0100
0100
0100
0000
,
0001
0001
0010
0010
0100
0100
1000
1000
,
0020
0100
0100
0130
,
1001
0000
0100
0010
1000
0100
0010
0001
,
0100
0001
0100
0010
0100
0010
1000
0010
,
1000
0100
0010
0001
0010
0100
1000
0000
,
0001
0010
0100
1000
0100
0010
0001
0000
,
0010
1000
0100
0010
0100
1000
0001
0000
,
0100
0001
0010
0100
0010
0001
1000
0000
,
0010
0100
0010
0100
0001
1000
0001
1000
,
0100
2000
3002
0103
,
1001
0000
0010
0001
0100
0010
1000
0100
,
0010
0100
1000
0010
0100
0001
1000
0100
,
0001
1000
0010
0100
0010
1000
0100
0010
,
0001
0100
1000
0010
0100
0001
1000
0000
,
0010
1000
0100
0010
0001
0100
0001
0000
,
0210
0320
2030
3001
,
2002
0000
0000
0000
,
0000
0000
0000
0000
,
0000
0000
0000
0000
,
0000
0000
0000
3003
;

//---------------dance-single - ----------------
#NOTEDATA:;
#CHARTNAME:;
#STEPSTYPE:dance-single;
#DESCRIPTION:;
#CHARTSTYLE:;
#DIFFICULTY:Easy;
#METER:9;
#RADARVALUES:0.387520,0.479206,0.277800,0.196094,0.000000,332.000000,298.000000,34.000000,24.000000,0.000000,0.000000,0.000000,0.000000,0.000000,0.387520,0.479206,0.277800,0.196094,0.000000,332.000000,298.000000,34.000000,24.000000,0.000000,0.000000,0.000000,0.000000,0.000000;
#CREDIT:;
#DISPLAYBPM:200.000000;
#NOTES:
0000
0000
0000
0000
,
0000
0000
0000
0000
,
0000
0000
0000
0000
,
0000
0000
0000
0000
,
0000
0000
0000
0000
,
0000
0000
0000
0000
,
0000
0000
0000
0000
,
0000
0000
0000
0000
,
1001
0000
0000
0000
,
1000
0000
0000
0000
,
1001
0000
0000
0000
,
0001
0000
0000
0000
,
1100
0000
0000
0000
,
1000
0000
0000
0000
,
0101
0000
0000
0000
,
0110
0110
0110
0000
,
0010
0100
0001
1000
,
0010
1000
0100
0001
,
0100
0001
1000
0010
,
1000
0100
0010
0001
,
0010
0100
1000
0001
,
1000
0010
0100
0001
,
0010
1000
0100
0001
,
1000
0100
0001
0010
,
1000
0100
1000
0010
,
0100
0001
0010
0100
,
0001
1000
0001
0100
,
0010
1000
0100
0001
,
0100
0010
1000
0001
,
0010
0100
1000
0010
,
1000
0001
1000
0010
,
0200
0000
0000
0300
,
1001
0000
0010
0000
,
1000
1000
0000
0000
,
0001
0100
1000
0100
,
0002
0000
0000
0003
,
0100
0100
2000
3000
,
0100
0100
0002
0003
,
0010
0100
0001
1000
,
2002
0000
0000
3003
,
0010
1000
0010
0100
,
0001
1000
0100
0010
,
0001
0100
1000
0001
,
0010
0100
0010
0001
,
0100
1000
0001
1000
,
0010
1000
0100
0010
,
0001
0100
1000
0001
,
0010
0100
0010
0100
,
0001
1000
0100
0001
,
0100
1000
0010
0001
,
0010
1000
0100
0010
,
0100
0010
0001
0100
,
0001
1000
0100
0010
,
0100
1000
0010
0100
,
0001
0010
0100
1000
,
0020
0000
0100
0130
,
1001
0100
1000
0001
,
0110
0100
0010
1000
,
1100
1000
0001
0010
,
2000
0000
0000
3001
,
1100
0010
1000
0001
,
0101
1000
0100
0010
,
0002
1000
0010
0103
,
2000
0100
0010
3001
,
1001
0010
1000
0100
,
0011
0100
0010
1000
,
0101
0010
0001
0100
,
1100
1000
0010
0000
,
0110
0100
0001
1000
,
1100
1000
0100
0001
,
0101
0010
1000
0001
,
1010
0000
0000
0000
,
0110
0100
0010
1000
,
0100
1000
0002
0003
,
0101
0010
1000
0100
,
1000
0001
0200
0300
,
1010
1000
0100
0001
,
0011
0100
1000
0010
,
1002
0100
1000
0010
,
0203
0320
2030
3001
,
1001
0100
0100
0100
,
1000
0100
0010
0001
,
0100
0001
1000
0100
,
0010
1000
0001
0010
,
0001
0100
1000
1000
,
0001
0010
1000
1000
,
0110
0010
0100
0001
,
1000
0020
0230
0301
,
0110
1000
1000
1000
,
0001
0010
0100
1000
,
0100
0010
1000
0100
,
0002
0003
0101
0101
,
1000
1000
0001
0001
,
1002
0203
0320
1030
,
2002
0000
0000
0000
,
0000
0000
0000
0000
,
0000
0000
0000
0000
,
0000
0000
0000
3003
;

//---------------dance-single - ----------------
#NOTEDATA:;
#CHARTNAME:;
#STEPSTYPE:dance-single;
#DESCRIPTION:;
#CHARTSTYLE:;
#DIFFICULTY:Beginner;
#METER:5;
#RADARVALUES:0.193760,0.359404,0.098047,0.065365,0.000000,166.000000,154.000000,12.000000,8.000000,0.000000,0.000000,0.000000,0.000000,0.000000,0.193760,0.359404,0.098047,0.065365,0.000000,166.000000,154.000000,12.000000,8.000000,0.000000,0.000000,0.000000,0.000000,0.000000;
#CREDIT:;
#DISPLAYBPM:200.000000;
#NOTES:
0000
0000
0000
0000
,
0000
0000
0000
0000
,
0000
0000
0000
0000
,
0000
0000
0000
0000
,
0000
0000
0000
0000
,
0000
0000
0000
0000
,
0000
0000
0000
0000
,
0000
0000
0000
0000
,
1001
0000
0000
0000
,
0000
0000
0000
0000
,
1001
0000
0000
0000
,
0000
0000
0000
0000
,
1100
0000
0000
0000
,
0000
0000
0000
0000
,
0101
0000
0000
0000
,
0110
0110
0110
0000
,
1000
0000
1000
0000
,
0001
0000
0001
0000
,
0100
0000
0100
0000
,
0010
0000
0010
0000
,
1000
0000
0100
0000
,
0010
0000
0001
0000
,
0100
0000
0010
0000
,
2000
0000
3000
0000
,
0001
0000
0001
0000
,
1000
0000
1000
0000
,
0010
0000
0010
0000
,
0100
0000
0100
0000
,
0010
0000
1000
0000
,
0100
0000
0010
0000
,
0100
0000
1000
0000
,
0002
0000
0003
0000
,
1001
0000
0000
0000
,
0000
0000
0000
0000
,
0110
0000
0000
0000
,
0000
0000
0000
0000
,
1010
0000
0000
0000
,
0000
0000
0000
0000
,
0001
0001
0001
0000
,
1001
0000
0000
0000
,
0010
0000
0010
0000
,
0100
0000
0100
0000
,
0001
0000
1000
0000
,
0001
0000
1000
0000
,
0010
0000
1000
0000
,
0100
0000
0010
0000
,
0001
0000
0100
0000
,
1000
0000
0000
0000
,
0010
0000
0100
0000
,
1000
0000
1000
0000
,
0010
0000
0100
0000
,
0001
0000
0001
0000
,
1000
0000
0001
0000
,
0100
0000
0010
0000
,
1000
0000
0100
0000
,
0001
0000
0100
0100
,
0100
0000
0010
0000
,
0100
0000
0010
0000
,
1000
0000
1000
0000
,
1000
0000
0000
0000
,
0001
0000
0001
0000
,
1000
0000
1000
0000
,
0020
0000
0000
0030
,
0000
1000
1000
1000
,
1000
0000
0001
0000
,
0100
0000
0000
0000
,
0001
0000
0010
0000
,
0100
0000
1000
0000
,
0010
0000
0010
0000
,
1000
0000
1000
0000
,
0001
0000
1000
0000
,
0200
0000
0300
0000
,
1000
0000
1000
0000
,
1000
0000
1000
0000
,
0001
0000
0001
0000
,
0001
0000
0001
0000
,
0100
0000
0100
0000
,
0010
0000
0010
0000
,
0200
0000
0000
0300
,
0000
0001
0001
0001
,
0001
0000
0000
1000
,
1000
0000
0010
0000
,
0100
0100
0100
0000
,
0000
0000
0010
0010
,
0010
0000
1000
0000
,
0100
0000
0010
0000
,
0002
0000
0000
0003
,
0000
0100
0100
0100
,
0100
0000
0000
0010
,
0010
0000
1000
0000
,
0100
0100
0100
0000
,
0001
0000
1000
0000
,
0010
0010
0010
0010
,
0010
0000
0100
0000
,
2002
0000
0000
0000
,
0000
0000
0000
0000
,
0000
0000
0000
0000
,
0000
0000
0000
3003
;
