#VERSION:0.83;
#TITLE:This is Love;
#SUBTITLE:;
#ARTIST:D-crew;
#TITLETRANSLIT:;
#SUBTITLETRANSLIT:;
#ARTISTTRANSLIT:;
#GENRE:;
#ORIGIN:;
#TAGS:;
#CREDIT:;
#BANNER:This is Love-bn.png;
#BACKGROUND:This is Love-bg.png;
#PREVIEWVID:;
#JACKET:This is Love-jacket.png;
#CDIMAGE:;
#DISCIMAGE:;
#LYRICSPATH:;
#CDTITLE:;
#MUSIC:This is Love.ogg;
#OFFSET:0.000000;
#SAMPLESTART:85.720001;
#SAMPLELENGTH:20.000000;
#SELECTABLE:YES;
#DISPLAYBPM:175.000000;
#BPMS:0.000000=175.000000;
#STOPS:;
#DELAYS:;
#WARPS:;
#TIMESIGNATURES:0.000000=4=4;
#TICKCOUNTS:0.000000=4;
#COMBOS:0.000000=1;
#SPEEDS:0.000000=1.000000=0.000000=0;
#SCROLLS:0.000000=1.000000;
#FAKES:;
#LABELS:0.000000=Song Start;
#BGCHANGES:;
#KEYSOUNDS:;
#ATTACKS:
;

//---------------dance-single - ----------------
#NOTEDATA:;
#CHARTNAME:;
#CHARTHASH:0:
#STEPSTYPE:dance-single;
#BANNER:;
#DESCRIPTION:;
#CHARTSTYLE:;
#DIFFICULTY:Hard;
#METER:13;
#METERF:0.000000;
#RADARVALUES:0.730111,0.763559,0.289973,0.217480,0.222011,564.000000,532.000000,32.000000,24.000000,0.000000,0.000000,0.000000,0.000000,0.000000,0.730111,0.763559,0.289973,0.217480,0.222011,564.000000,532.000000,32.000000,24.000000,0.000000,0.000000,0.000000,0.000000,0.000000;
#CREDIT:;
#DISPLAYBPM:175.000000;
#NOTES:
0000
0000
0000
0000
,
0000
0000
0000
0000
,
0000
0000
0000
0000
,
0000
0000
0000
0000
,
0000
0000
0000
0000
,
0010
0000
0100
0001
0010
0100
1000
0001
,
1000
0010
0100
1000
0100
0001
0010
0100
,
1100
0000
0000
0000
0001
0000
1000
0000
0001
0100
0001
0000
1000
0000
0000
0000
,
0010
0000
0001
0000
1000
0000
0001
0000
0100
0010
0000
0000
1000
0000
0000
0000
,
0101
0000
0001
0010
1000
0010
0100
1000
,
0010
0100
1000
0100
0010
1000
0001
0000
,
1010
0000
0000
0000
0100
0000
1000
0000
0001
0100
0001
0000
1000
0000
0000
0000
,
0010
0000
0100
0000
0001
1000
0000
0001
1000
0000
0100
0000
0010
0000
0001
0000
,
0200
0000
0301
1000
0010
1000
0100
1000
,
0020
0000
0130
0001
1000
0001
0100
0000
,
2001
0000
3001
1000
0010
1000
0100
1000
,
0001
0000
0010
0100
0010
0000
0000
0000
0001
0000
0100
0000
1000
0000
0000
0000
,
0110
0010
1000
0001
1000
0100
0010
0000
,
0011
0100
0010
1000
0001
0010
1000
0000
,
1100
0010
1000
0100
0001
1000
0010
0000
,
2002
3000
0100
0103
,
0110
0001
1000
0010
1000
0100
0001
0100
,
0010
0100
1000
0010
1000
0001
0010
1000
,
0010
0100
0010
0001
0100
1000
0100
0010
,
2000
0001
3001
0000
0102
0010
0013
0000
,
0100
0000
0001
1000
0001
0000
0010
0000
1000
0000
0010
0000
0100
0000
0000
0000
,
0010
0000
0001
0100
0001
0000
1000
0000
0100
0000
0010
0000
0001
0000
0000
0000
,
0100
0000
0001
0010
0001
0000
0100
0000
1000
0000
0100
0000
0010
0000
0000
0000
,
0110
0110
0000
1010
0000
0001
0001
0001
,
0000
0000
0012
0000
1003
0001
0100
0010
,
1000
0100
0001
0000
0010
0001
0100
0010
,
1000
0000
1100
0000
0001
1000
0010
0100
,
0001
0010
1000
0010
0001
0010
0100
0000
,
1001
0000
0000
0010
1000
0000
0001
0000
1000
0000
0100
0000
0001
0000
0100
0000
,
0010
0001
0100
0000
1000
0001
0010
0100
,
1000
0000
0110
0010
0100
0010
1000
0001
,
0010
0000
1000
0000
0010
0000
0001
0000
0100
0000
0010
0000
1000
0001
1000
0001
,
1000
0000
0010
0100
0010
0000
1000
0000
0100
0000
0010
0000
0001
0000
0200
0000
,
0010
0000
0301
1000
0100
0010
0001
0010
,
1000
0000
0000
0010
0100
0000
1000
0000
0001
0000
0100
0000
0010
0000
0000
0000
,
0101
0010
1000
0000
0100
0001
0100
0010
,
0200
1000
1300
0010
1000
0001
0010
0001
,
0200
0000
0010
0000
0310
0000
1000
0100
1000
0000
0001
0000
0010
0000
1000
0000
,
0010
0001
0100
0001
0010
0001
0100
0001
,
2000
0100
3100
0010
0002
1000
1003
0000
,
1010
0001
1000
0010
1000
0001
0100
0000
,
0110
0010
0100
0001
1000
0100
0010
0000
,
0011
1000
0001
1000
0010
0100
0001
0000
,
0110
1000
0010
0100
0010
1000
0001
0000
,
0101
0010
0100
0010
0100
0001
1000
0000
,
1100
0010
1000
0001
0010
0100
1000
0000
,
1001
0010
0100
0001
1000
0100
0001
0000
,
0011
0001
1000
0010
1000
0100
0001
0000
,
0010
0000
0000
0010
0001
0000
0000
0001
1000
0000
0000
1000
0010
0000
0000
0010
,
0001
0000
0000
0001
0010
0000
0000
0010
0100
0000
0000
0100
0001
0000
0000
0001
,
0010
0000
0000
0010
1000
0000
0000
1000
0010
0000
0000
0010
0100
0000
0000
0100
,
1000
0000
0000
1000
0001
0000
0000
0001
0100
0000
0000
0100
0010
0000
0010
0000
,
1000
0001
0010
1000
0010
0001
0100
0000
,
0010
0001
0010
0100
0010
1000
0010
0000
,
1000
0001
0010
0001
1000
0100
0010
0000
,
0001
0000
0100
0000
1000
0000
0100
0000
0010
0000
0100
0000
0001
1000
0001
1000
,
0002
0000
0000
0000
,
0000
0000
0010
0013
,
2001
0000
3100
1000
0010
0001
0010
1000
,
0100
0000
0000
1000
0001
0000
0000
0010
0001
0000
0000
0010
0100
0000
0000
1000
,
0010
0100
0001
1000
0100
0001
0100
0010
,
0001
0000
0100
0000
1000
0000
0010
0000
1000
0000
0001
0100
0001
0000
0000
0000
,
0110
0000
0010
0001
1000
0100
0001
0100
,
1000
0010
0100
0001
0010
0100
1000
0001
,
0200
0010
0310
0000
0200
0001
0301
0000
,
2000
0000
0001
0000
3001
0000
0000
0000
1000
0010
0000
0000
0100
0010
0000
0000
,
1010
0001
1000
0100
0001
0100
0010
0001
,
0100
0010
0001
0010
1000
0001
1000
0100
,
0020
0000
0001
0000
0031
0000
0000
1000
0002
0000
0100
0000
0103
0000
0010
1000
,
0020
0100
0130
0000
0101
0000
1100
0000
,
0101
0000
0001
0010
0001
0000
0000
0000
2000
0000
0000
0000
3020
0000
0000
0000
,
0130
1000
0100
0010
0100
1000
0100
0001
,
0010
0000
0000
0001
1000
0000
0000
0001
0100
0000
0000
0010
1000
0000
0000
0100
,
0010
0000
0001
0000
0100
0000
0010
0000
1000
0100
0000
0000
1000
0100
0000
0100
,
0020
0000
0000
0000
,
0000
0030
0000
0000
;

//---------------dance-single - ----------------
#NOTEDATA:;
#CHARTNAME:;
#CHARTHASH:0:
#STEPSTYPE:dance-single;
#BANNER:;
#DESCRIPTION:;
#CHARTSTYLE:;
#DIFFICULTY:Medium;
#METER:11;
#METERF:0.000000;
#RADARVALUES:0.551467,0.618119,0.326220,0.607132,0.004531,426.000000,390.000000,36.000000,67.000000,0.000000,0.000000,0.000000,0.000000,0.000000,0.551467,0.618119,0.326220,0.607132,0.004531,426.000000,390.000000,36.000000,67.000000,0.000000,0.000000,0.000000,0.000000,0.000000;
#CREDIT:;
#DISPLAYBPM:175.000000;
#NOTES:
0000
0000
0000
0000
,
0000
0000
0000
0000
,
0000
0000
0000
0000
,
0000
0000
0000
0000
,
0000
0000
0000
0000
,
0010
0000
0001
0100
0000
0010
0000
1000
,
0000
0001
0000
1000
0000
0100
0000
0010
,
0001
0000
0001
1000
0100
0010
0100
0000
,
0010
0000
0001
1000
0010
1000
0001
0000
,
1001
0000
0010
1000
0000
0001
0000
1000
,
0000
0100
0000
0010
0000
0002
1000
0000
,
0203
0000
0310
1000
0002
0000
1003
0100
,
0020
0000
0000
0000
0031
0000
1000
0000
0010
0100
0000
0000
0110
0000
0000
0000
,
0102
0000
1003
0001
0010
0100
1000
0000
,
0020
0000
1030
0001
1000
0100
0010
0000
,
1200
0000
0301
0100
1000
0001
1000
0000
,
0020
0000
0130
0001
0010
0100
1000
0000
,
0001
0010
0001
1000
0010
0100
0001
0000
,
0010
1000
0010
0100
0010
0001
0010
0000
,
0100
1000
0001
0010
0001
1000
0100
0000
,
2020
0030
0001
3001
,
0011
0000
0010
0001
0100
0010
1000
0000
,
0100
0010
0002
0000
0103
0010
2000
0000
,
3001
0000
1000
0010
0100
1000
0100
0000
,
0020
0000
1030
0100
0020
0000
0031
1000
,
0010
1000
0100
0001
0100
1000
0010
0100
,
0001
0011
0110
1100
,
1001
0000
0100
0010
1000
0001
1000
0000
,
0010
0100
0000
0101
0000
0001
0010
1000
,
0000
0000
1010
0000
0100
0010
0000
2000
,
0001
0000
3010
0000
1000
0100
0000
0020
,
0100
0000
0032
0000
0203
0000
0310
1000
,
0000
1100
0000
0101
0000
0001
0100
0000
,
0010
0000
0011
0000
0001
1000
0000
0200
,
0000
0320
1000
0000
0031
0100
0000
1010
,
0000
0000
0001
1000
0001
0010
0001
1000
,
0010
0100
0001
1000
0010
1000
0100
0000
,
0001
0000
0010
0001
0100
0010
1000
0001
,
0100
0000
0010
1000
0100
0001
0100
0010
,
0100
0000
1000
0001
0010
0001
0100
0010
,
1000
0100
1001
0110
,
1020
0000
0130
1000
0100
0001
1000
0000
,
0102
0000
0013
0100
0001
0100
1000
0000
,
1100
0011
1001
0110
,
2000
0001
3001
1000
0200
0010
0310
0000
,
0002
0000
1000
1000
0000
0100
0103
0000
,
2000
0000
0010
0010
0000
0100
3100
0000
,
0020
0000
0001
0001
0000
1000
1030
0000
,
0200
0000
0010
0010
0000
0001
0301
0000
,
0002
0000
0010
0010
0000
1000
1003
0000
,
2000
0000
0010
0010
0000
0100
3100
0000
,
0020
0000
0100
0100
0000
0001
0031
0000
,
0200
0000
0001
0001
0000
1000
1300
0000
,
0210
0001
1000
0310
,
1020
1000
0100
0031
,
2100
0010
0001
3100
,
0201
0010
1000
0301
,
0012
0010
0100
0010
,
1000
0100
1000
0013
,
2000
0010
0100
3001
,
1000
0001
1000
0100
0010
0001
0100
0000
,
2002
0000
0000
0000
,
0000
0003
0010
3010
,
0101
0000
0001
0010
0000
1000
0100
0000
,
2000
3002
0023
0230
,
2300
0000
3010
0100
0002
0000
1003
0100
,
0020
0000
1000
0000
0130
0010
0001
0000
,
1100
0000
0010
1000
0000
0001
0100
0000
,
0002
0023
0230
2300
,
3020
0000
1030
0001
2000
0000
3100
0010
,
0002
1003
1001
0011
,
1010
0000
0001
0100
1000
0100
0001
0000
,
0020
0230
2300
3002
,
0203
0000
0310
1000
0200
0000
0301
0100
,
2000
0001
3001
0000
0020
0000
0130
0000
,
0210
0000
0001
0000
1300
0100
0010
0000
,
0001
0100
1000
0000
1000
0100
0001
0000
,
0020
0000
0031
0100
2000
0000
3010
0100
,
0002
0010
0013
0001
0100
0010
1000
0000
,
0020
0000
0000
0000
,
0000
0030
0000
0000
;

//---------------dance-single - ----------------
#NOTEDATA:;
#CHARTNAME:;
#CHARTHASH:0:
#STEPSTYPE:dance-single;
#BANNER:;
#DESCRIPTION:;
#CHARTSTYLE:;
#DIFFICULTY:Easy;
#METER:7;
#METERF:0.000000;
#RADARVALUES:0.352110,0.436319,0.217480,0.362467,0.000000,272.000000,248.000000,24.000000,40.000000,0.000000,0.000000,0.000000,0.000000,0.000000,0.352110,0.436319,0.217480,0.362467,0.000000,272.000000,248.000000,24.000000,40.000000,0.000000,0.000000,0.000000,0.000000,0.000000;
#CREDIT:;
#DISPLAYBPM:175.000000;
#NOTES:
0000
0000
0000
0000
,
0000
0000
0000
0000
,
0000
0000
0000
0000
,
0000
0000
0000
0000
,
0000
0000
0000
0000
,
0010
0001
0100
0010
,
1000
0100
1000
0001
,
1001
0100
0010
1000
,
0110
0001
1000
0100
,
0001
0010
0001
0100
,
0010
1000
0100
0001
,
2000
3000
0002
0003
,
0200
0300
1001
1001
,
0110
1000
0010
0001
,
0100
0001
0010
1000
,
0110
0010
0001
0100
,
2000
3000
0110
0110
,
1001
0010
1000
0100
,
0001
0010
0100
1000
,
0010
1000
0001
0100
,
0020
0030
2000
3000
,
1001
0010
1000
0001
,
1000
0100
0010
0001
,
0100
0001
0010
1000
,
0020
0030
0200
0300
,
0002
0003
0010
0001
,
1000
0010
1000
0100
,
0020
0030
0001
0100
,
1000
0001
1000
0100
,
0000
1001
0100
0010
,
1000
0001
1000
0100
,
0010
0001
0100
0010
,
1000
0001
1000
0100
,
0000
0110
0010
0100
,
0010
0001
0100
1000
,
0001
0010
1000
0001
,
0200
0300
0002
0003
,
0010
0001
0100
0010
,
1000
0001
0010
1000
,
0100
0010
0100
1000
,
0010
0100
0001
1000
,
0110
0001
0100
0010
,
1001
1000
0100
0001
,
0010
0010
0100
0100
,
1000
0001
1000
0001
,
2000
0100
0000
3100
,
0002
1000
0000
1003
,
0200
0001
0000
0301
,
0020
0100
0000
0130
,
2000
0010
0000
3010
,
0002
0010
0000
0013
,
0200
1000
0000
1300
,
0020
0001
0000
0031
,
0010
0010
0010
0010
,
0001
0001
0001
0001
,
0100
0100
0100
0100
,
1000
1000
1000
1000
,
0002
0000
0010
0000
,
1000
0000
0100
0003
,
2000
0000
0010
0000
,
0001
0000
0100
3000
,
2002
0000
0000
0000
,
0000
0003
0010
3010
,
1001
0010
1000
0100
,
1000
0010
0100
0001
,
2000
3000
0002
0003
,
0200
0000
0000
0310
,
0110
0001
0010
1000
,
0100
0010
0001
0100
,
2000
3000
0020
0030
,
0002
0003
0110
0110
,
1001
0100
0001
0010
,
0001
0100
0010
1000
,
0200
0300
0020
0030
,
0002
0003
1001
1001
,
0220
0030
1000
0301
,
0010
1000
0100
0010
,
0002
0003
0200
0300
,
0220
0300
1000
0031
,
0020
0000
0000
0000
,
0000
0030
0000
0000
;

//---------------dance-single - ----------------
#NOTEDATA:;
#CHARTNAME:;
#CHARTHASH:0:
#STEPSTYPE:dance-single;
#BANNER:;
#DESCRIPTION:;
#CHARTSTYLE:;
#DIFFICULTY:Beginner;
#METER:4;
#METERF:0.000000;
#RADARVALUES:0.178644,0.290879,0.090617,0.199357,0.000000,138.000000,128.000000,10.000000,22.000000,0.000000,0.000000,0.000000,0.000000,0.000000,0.178644,0.290879,0.090617,0.199357,0.000000,138.000000,128.000000,10.000000,22.000000,0.000000,0.000000,0.000000,0.000000,0.000000;
#CREDIT:;
#DISPLAYBPM:175.000000;
#NOTES:
// measure 0
0000
0000
0000
0000
,  // measure 1
0000
0000
0000
0000
,  // measure 2
0000
0000
0000
0000
,  // measure 3
0000
0000
0000
0000
,  // measure 4
0000
0000
0000
0000
,  // measure 5
0010
0000
0001
0000
,  // measure 6
0100
0000
1000
0000
,  // measure 7
1001
0000
0000
0000
,  // measure 8
0110
0000
0000
0000
,  // measure 9
1000
0000
0010
0000
,  // measure 10
0100
0000
0001
0000
,  // measure 11
0010
0000
0010
0000
,  // measure 12
0010
0000
0001
0001
,  // measure 13
0002
0000
0000
0000
,  // measure 14
0003
0000
1000
1000
,  // measure 15
2000
0000
3000
0000
,  // measure 16
1001
0000
0110
0000
,  // measure 17
0020
0000
0030
0000
,  // measure 18
0200
0000
0300
0000
,  // measure 19
0020
0000
0030
0000
,  // measure 20
1001
0000
0110
0000
,  // measure 21
2000
0000
3000
0000
,  // measure 22
0100
0100
0100
0100
,  // measure 23
0200
0000
0300
0000
,  // measure 24
0010
0000
0001
0000
,  // measure 25
0100
0000
1000
0000
,  // measure 26
0010
0010
0010
0000
,  // measure 27
0100
0000
0001
0000
,  // measure 28
1000
0000
1000
1000
,  // measure 29
0000
1001
0000
0000
,  // measure 30
0010
0000
0010
0000
,  // measure 31
0010
0000
1000
0000
,  // measure 32
1000
0000
0001
0000
,  // measure 33
0000
0000
0100
0000
,  // measure 34
0010
0000
1000
0000
,  // measure 35
0001
0000
0010
0000
,  // measure 36
0001
0000
0100
0000
,  // measure 37
0000
1000
1000
0000
,  // measure 38
0001
0000
0100
0000
,  // measure 39
0001
0000
0010
0000
,  // measure 40
1000
0000
0100
0100
,  // measure 41
0100
0000
0010
0000
,  // measure 42
0010
0000
1000
0000
,  // measure 43
0100
0100
0100
0100
,  // measure 44
0100
0000
0010
0000
,  // measure 45
0002
0000
0003
0000
,  // measure 46
2000
0000
3000
0000
,  // measure 47
0020
0000
0030
0000
,  // measure 48
0200
0000
0300
0000
,  // measure 49
0002
0000
0003
0000
,  // measure 50
2000
0000
3000
0000
,  // measure 51
0020
0000
0030
0000
,  // measure 52
0200
0000
0300
0000
,  // measure 53
0002
0000
0003
0000
,  // measure 54
2000
0000
3000
0000
,  // measure 55
0020
0000
0030
0000
,  // measure 56
0200
0000
0300
0000
,  // measure 57
0002
0000
0000
0000
,  // measure 58
0000
0000
0003
0000
,  // measure 59
2000
0000
0000
0000
,  // measure 60
0000
0000
3000
0000
,  // measure 61
0110
0000
0000
0000
,  // measure 62
0000
0000
0010
0010
,  // measure 63
0010
0000
0001
0000
,  // measure 64
0100
0000
1000
0000
,  // measure 65
0010
0000
0010
0000
,  // measure 66
0010
0000
0000
1000
,  // measure 67
1000
0000
0001
0000
,  // measure 68
0010
0000
0100
0000
,  // measure 69
1000
0000
0010
0000
,  // measure 70
1000
0000
0001
0001
,  // measure 71
0001
0000
0100
0000
,  // measure 72
1000
0000
0010
0000
,  // measure 73
1000
0000
0100
0000
,  // measure 74
0001
0000
0001
0001
,  // measure 75
0001
0000
1001
0000
,  // measure 76
1000
0000
0110
0000
,  // measure 77
0010
0000
0100
0000
,  // measure 78
0001
0000
0000
0000
,  // measure 79
0020
0000
0000
0000
,  // measure 80
0000
0030
0000
0000
;
