#TITLE:This Must Be a Dream;
#ARTIST:Basic Element;
#BANNER:This Must Be a Dream-bn.png;
#BACKGROUND:This Must Be a Dream-bg.png;
#JACKET:This Must Be a Dream-jacket.png;
#MUSIC:This Must Be a Dream.ogg;
#OFFSET:0.789;
#SAMPLESTART:52.198;
#SAMPLELENGTH:20;
#DISPLAYBPM:138;
#BPMS:0=137.99;
#BGCHANGES:;

//---------------dance-single - ----------------
#NOTES:
     dance-single:
     :
     Beginner:
     2:
     :
0000
0000
0000
0000
,
0000
0000
0000
0000
,
0000
0000
0000
0000
,
0000
0000
0000
0000
,
0000
0000
0000
0000
,
0010
0000
0010
0000
,
0010
0000
0000
0000
,
1000
0000
1000
0000
,
0001
0000
0000
0000
,
0100
0000
0000
0000
,
0010
0000
0000
0000
,
0100
0000
0000
0000
,
0001
0000
0000
0000
,
1000
0000
1000
0000
,
0001
0000
0001
0000
,
0100
0000
0100
0000
,
0010
0000
0010
0000
,
1000
0000
1000
0000
,
0100
0000
0100
0000
,
0010
0000
0010
0000
,
0001
0000
0001
0000
,
0100
0000
0000
0000
,
0000
0000
0010
0000
,
1001
0000
1000
0000
,
0100
0000
0010
0000
,
0001
0000
0100
0000
,
0001
0000
0010
0000
,
0000
0110
0000
0000
,
0001
0000
0100
0000
,
0001
0000
0010
0000
,
1000
1000
0000
0000
,
0010
0000
1000
0000
,
0100
0000
0000
0000
,
0010
0000
0001
0000
,
0100
0000
0000
0000
,
0001
0000
1000
0000
,
0010
0000
0000
0000
,
1000
0000
0001
0000
,
0100
0000
0010
0000
,
1001
0000
0000
0000
,
1000
0000
1000
0000
,
1000
0000
0000
0000
,
0010
0000
0100
0000
,
0110
0000
0000
0000
,
0001
0000
0001
0000
,
0001
0000
0000
0000
,
1000
0000
0000
0000
,
0010
0010
0000
0000
,
0100
0100
0000
0000
,
0001
0001
0000
0000
,
1000
0000
0000
0000
,
0001
0000
0001
0000
,
0010
0000
0010
0000
,
0100
0000
0100
0000
,
1000
0000
1000
0000
,
0010
0000
0010
0000
,
1000
0000
1000
0000
,
0001
0000
0001
0000
,
0100
0000
0100
0000
,
0002
0000
0003
0000
,
0020
0000
0030
0000
,
0200
0000
0300
0000
,
2000
0000
3000
0000
,
0002
0000
0003
0000
,
2000
0000
3000
0000
,
0020
0000
0030
0000
,
0200
0000
0300
0000
;

//---------------dance-single - ----------------
#NOTES:
     dance-single:
     :
     Easy:
     6:
     :
0000
0000
0000
0000
,
0000
0000
0000
0000
,
0000
0000
0000
0000
,
0000
0000
0000
0000
,
0000
0000
0100
0100
,
0100
0001
0010
0001
,
0100
0000
0000
0010
,
1000
0001
1000
0100
,
0010
0000
0000
0000
,
0001
0001
0001
0000
,
1000
1000
1000
0000
,
0010
0010
0010
0000
,
0110
0000
1001
0000
,
0010
1000
0100
0000
,
0010
0001
0100
0000
,
0001
0010
1000
0000
,
0100
1000
0001
0000
,
1000
0010
1000
0000
,
0001
0010
0001
0000
,
0100
0001
0100
0000
,
1000
0100
1000
0000
,
0001
0000
0010
0000
,
0001
0000
1001
0110
,
0010
0100
0001
0001
,
0010
0100
1000
0010
,
1000
0001
1000
0100
,
0010
0001
0100
0010
,
0000
0110
0001
0100
,
2000
3000
0010
1001
,
0100
0010
1000
0001
,
0010
0010
0001
0100
,
0001
0010
0001
1000
,
0010
0100
0010
1000
,
0100
0010
0001
0100
,
0001
0010
1000
0100
,
1000
0010
1000
0100
,
0010
0001
1000
0010
,
1000
0100
0010
0001
,
0200
0300
1000
0001
,
1001
0000
0010
0000
,
1000
0100
0010
0001
,
0110
0000
0100
0000
,
1000
0001
0100
0010
,
1001
0000
0001
0000
,
0010
0001
0100
1000
,
0110
0000
0001
0000
,
0100
0000
1000
0000
,
0010
0010
0010
0000
,
0100
0100
0100
0000
,
0001
0001
0001
0000
,
0110
0000
1001
0000
,
1000
0100
0001
0000
,
0010
0001
0100
0000
,
0010
1000
0001
0000
,
1000
0010
0100
0000
,
0001
0010
0001
0000
,
1000
0010
1000
0000
,
0100
1000
0100
0000
,
0001
0100
0001
0000
,
0010
0100
0010
0000
,
0001
1000
0001
0000
,
0100
0010
0100
0000
,
1000
0001
1000
0000
,
0010
0000
1000
0000
,
0010
0000
0100
0000
,
0001
0000
0010
0000
,
0001
0000
0100
0000
;

//---------------dance-single - ----------------
#NOTES:
     dance-single:
     :
     Medium:
     9:
     :
0000
0000
0000
0000
,
0000
0000
0000
0000
,
0000
0000
0000
0000
,
0000
0000
0000
0000
,
0000
0000
0000
0000
,
0010
1000
0100
1000
,
0010
0100
0001
0010
,
0001
0100
0010
1000
,
0100
0010
0100
1000
,
0001
0001
1000
1000
,
0001
0001
1000
1000
,
0001
0001
1000
1000
,
0010
0010
0010
0010
,
1000
0001
0100
0000
0001
1000
0100
0000
,
0010
0001
0100
0000
0010
1000
0100
0000
,
1000
0001
0010
0000
0001
1000
0010
0000
,
1000
0100
1000
0000
0001
0100
0001
0000
,
1000
0010
1000
0000
0001
0010
0001
0000
,
0100
0010
0100
0000
0001
1000
0001
0000
,
1000
0100
0001
0000
0010
0100
1000
0000
,
0010
0100
0001
0000
1000
0001
0010
0000
,
0001
0011
1000
1010
,
0010
0100
1001
0110
,
2002
0000
3003
0000
0010
1000
0100
0000
,
2000
0000
3002
0000
0013
0100
0010
0000
,
0001
0100
0010
0000
1000
0100
0010
0000
,
0001
0100
0001
0000
1000
0100
0010
0000
,
0000
0001
1000
0000
0010
1000
0100
0000
,
1000
0020
0000
0000
0130
0010
0100
0000
,
0001
0011
1000
1010
,
0010
0100
0010
0000
0101
0000
1100
0000
,
0101
0000
0010
1000
0010
0100
0001
2000
,
0000
3100
0000
0000
0000
1000
0001
1000
,
0010
0100
0010
0100
0001
1000
0100
0020
,
0000
0031
0000
0000
0011
0000
1010
0000
,
0011
0000
0100
0001
0010
0100
1000
0002
,
0000
1003
0000
0000
0000
0010
1000
0100
,
1000
0001
1000
0001
0010
0100
1000
0020
,
0000
0130
0000
0000
1010
0000
1001
0000
,
2200
0000
0000
0000
3300
1000
0001
0100
,
0000
0001
0010
0100
0000
1000
0001
0000
,
0022
0000
0000
0000
0033
0010
0001
0200
,
0000
0320
0000
2030
0000
3001
0000
0220
,
0000
0000
0000
0000
0330
0010
1000
0002
,
0000
2003
0000
3200
0000
0320
0000
0031
,
0100
0000
0101
0000
0010
1000
0001
0000
,
1000
0000
1100
0000
0010
0100
0001
0000
,
1001
0000
1001
0000
0010
1000
0100
0000
,
0010
0000
0010
0000
0001
0100
1000
0000
,
0110
0000
0110
0000
0010
0100
0001
0000
,
1000
1000
1000
1000
,
0001
0000
0100
0000
0001
0010
0100
0000
,
1000
0000
0010
0000
1000
0001
0100
0000
,
0010
0000
1000
0000
0100
1000
0001
0000
,
0010
0000
0100
0000
0010
0001
1000
0000
,
0001
0000
0100
0000
0001
0010
0001
0000
,
0100
0000
0010
0000
1000
0100
1000
0000
,
0001
0000
1000
0000
0010
1000
0100
0000
,
0010
0000
0001
0000
0100
0010
0100
0000
,
0001
0010
0100
1000
,
0010
1000
0100
0010
,
0001
0100
0001
0010
,
1000
0100
0010
0001
,
0100
0100
0100
0000
,
0010
0010
0010
0000
,
1000
1000
1000
0000
,
0001
0001
0001
0000
;

//---------------dance-single - ----------------
#NOTES:
     dance-single:
     :
     Hard:
     11:
     :
0000
0000
0000
0000
,
0000
0000
0000
0000
,
0000
0000
0000
0000
,
0000
0000
0000
0000
,
0000
0000
0000
0000
,
1000
1000
1000
1000
,
0001
0001
0001
0001
,
0100
0100
0100
0100
,
0010
0010
0010
0010
,
0010
1000
0100
0000
0010
0001
0100
0000
,
0001
0010
1000
0000
0001
0100
1000
0000
,
0001
1000
0001
0000
0100
0010
0100
0000
,
0220
0000
0000
0330
,
0010
1000
0100
0010
0001
0100
1000
0000
,
0001
1000
0010
1000
0100
0010
0001
0000
,
0100
0001
0010
0001
0100
0010
1000
0000
,
0010
1000
0100
0010
0001
1000
0010
0000
,
1000
0001
0010
0001
0010
0100
1000
0000
,
0010
1000
0100
1000
0010
0100
0001
0000
,
0010
0001
0100
0010
0100
0010
1000
0000
,
0001
1000
0100
0010
1000
0100
0001
0000
,
0010
0101
0010
1100
,
0010
0000
0000
1001
0000
0000
0001
0000
1000
0100
0000
0000
,
2001
0000
3010
1000
0001
0100
0100
0000
,
0001
0010
0001
1000
0100
0100
0100
0000
,
0010
1000
0100
0010
0001
0100
0001
1000
,
0010
0100
0001
1000
0001
0010
0100
1000
,
0000
1010
0001
1000
0100
0010
0001
0100
,
0010
0202
0300
0000
1000
1000
1003
0000
,
0001
1000
0001
0010
0100
1000
0010
0000
,
1000
1000
1000
0000
0001
1000
0001
1000
,
1001
0000
0100
1000
0010
1000
0100
0010
,
0001
0100
1000
0000
0001
0010
1000
0000
,
0010
1000
0001
1000
0100
0010
0001
0100
,
0010
1000
0001
0000
0100
0010
0100
0010
,
0110
0000
0010
1000
0100
0010
0001
0100
,
0010
1000
0001
0000
0100
1000
0001
0000
,
0010
0001
0100
0001
0010
0100
1000
0010
,
1000
0100
0001
0000
0101
0000
1100
0000
,
0102
0100
0100
0103
,
0001
0010
0100
1000
0010
1000
0001
0000
,
1020
1000
1000
1030
,
0001
1000
0100
0010
0001
1000
0100
0000
,
0012
0010
0010
0013
,
0001
0100
0010
1000
0001
1000
0100
0000
,
0001
0000
0011
0000
1000
0001
0100
0000
,
0010
0000
1010
0000
0100
0010
1000
0000
,
0010
0000
1100
0000
0001
1000
0100
0010
,
0001
0000
0110
0000
0010
1000
0001
0100
,
0001
0000
0011
0000
0001
1000
0010
0100
,
2002
0000
0000
3003
,
0010
1000
0010
1000
0100
0010
0001
0000
,
0100
0001
0010
0001
1000
0100
0010
0000
,
1000
0010
1000
0100
0010
0001
0100
0000
,
0001
1000
0100
0010
0100
0010
0001
0000
,
1000
0001
0010
1000
0010
0001
0100
0000
,
0010
1000
0100
0010
0100
0001
0100
0000
,
1000
0001
0010
1000
0100
0010
0001
0000
,
0100
0010
0100
0010
1000
0001
0010
0000
,
0001
0010
0001
0000
1000
0010
1000
0000
,
0001
0100
0001
0000
1000
0100
1000
0000
,
0010
0100
0010
0000
1000
0001
1000
0000
,
0001
1000
0001
0000
0100
0010
0100
0000
,
0010
1000
0100
0001
,
0100
0001
1000
0010
,
0001
1000
0010
0100
,
1000
0100
0010
0001
;

//---------------dance-single - ----------------
#NOTES:
     dance-single:
     :
     Challenge:
     14:
     :
0000
0000
0000
0000
,
0000
0000
0000
0000
,
0000
0000
0000
0000
,
0000
0000
0000
0000
,
0000
0000
0000
0000
0100
0010
0100
0010
,
1001
0000
1000
0010
1000
0001
0010
0100
,
1000
0010
1000
0000
0001
0010
0001
0100
,
0001
0010
0100
1000
0010
1000
0001
0200
,
0000
0310
0100
0000
0001
0000
1000
0000
0000
0001
0010
0000
0100
0000
1000
0000
,
0010
0001
1000
0100
1000
0001
0010
0100
,
1000
0100
0010
0001
0010
1000
0001
0100
,
1000
0010
0100
0010
1000
0001
0100
0001
,
0011
0000
0000
1100
0000
0000
0101
0000
0000
1010
0000
0000
0001
1000
0001
1000
,
0001
0010
0010
0100
1000
0001
0100
1000
,
0100
0001
1000
0100
0001
0010
0010
1000
,
0001
0100
0100
0010
0001
1000
0010
1000
,
0001
0001
0100
1000
1000
0010
0010
0100
,
0100
0010
1000
0001
0001
1000
0010
0100
,
0001
0001
1000
0100
0100
0010
1000
0010
,
0100
0001
0010
0100
1000
0010
1000
0001
,
0001
0001
1000
0100
0100
0010
0010
1000
,
0010
0000
1000
0100
1000
0000
0001
0100
0001
0000
1000
0010
1000
0000
0001
0010
,
0001
0000
0000
0000
0000
0000
0100
0000
0000
0010
0000
0000
0100
0000
0000
0000
0000
0000
0001
0000
0000
1000
0000
0000
0001
0000
0000
0000
0000
0000
0000
0000
0100
0000
0000
0000
0010
0000
0000
0000
0000
0000
0000
0000
0000
0000
0000
0000
,
0210
0000
0000
0000
0310
0000
0100
0000
0101
0000
1100
0000
0101
0000
0000
2000
,
0000
3010
1000
0010
1000
0100
0010
0001
0100
0010
0100
0000
0110
0000
0000
0010
,
1000
0100
1000
0100
0010
0000
0001
0100
0001
0010
0001
1000
0010
0000
1000
0100
,
0000
0100
0010
0001
0100
0010
0100
0010
1000
0001
1000
0001
0010
0000
1100
0000
,
0000
0000
1010
0000
0101
0000
0001
0010
0100
0010
0001
0000
1000
0001
1000
0100
,
0010
0000
0000
0000
0000
0000
0022
0000
0000
0000
0000
0000
0000
0000
0000
0000
0000
0000
0000
0000
0030
1003
0000
0000
0001
0000
0000
0010
0000
0000
0200
0000
0000
0000
0000
0000
1300
0000
0000
0000
0000
0000
0000
0000
0000
0000
0000
0000
,
0010
0000
1001
0000
0110
0000
0010
1000
0001
0010
0001
0000
0100
0000
0000
0010
,
1000
0001
1000
0001
0100
0000
0000
0000
0010
0000
1000
0000
0001
0000
1000
0000
,
0101
0000
0000
0100
0010
0000
1000
0000
0001
0000
1000
0000
0100
0000
0010
0000
,
0001
0010
0000
0010
0100
0000
0100
1000
0000
1000
0001
0000
0100
0000
0010
0000
,
1000
0001
0010
0001
0100
0010
1000
0001
,
0010
0100
1000
0000
0010
0000
0000
0000
1000
0000
0001
0000
0010
0000
0100
0000
,
1100
0000
0000
0001
1000
0000
0001
0000
0010
0000
0100
0000
1000
0000
0010
0000
,
0100
0001
0000
0001
0010
0000
0010
0100
0000
0100
1000
0000
1000
0000
0001
0000
,
0010
0001
0100
0010
1000
0100
1000
0001
,
1000
0100
0010
0000
0001
0000
0100
0000
0010
0000
1000
0000
0001
0000
1000
0000
,
1010
0000
0000
1000
0100
0000
0000
0100
0010
0000
0001
0000
0100
0000
0001
0000
,
0010
0100
1000
0010
1000
0001
0100
0010
,
0110
0000
0000
0100
0001
0000
0000
0001
0010
0000
0100
0000
1000
0000
0001
0000
,
1000
0010
1000
0100
0010
0001
0100
0001
,
0011
0000
0000
1000
0010
0000
0000
0010
0100
0000
0001
0000
0010
0000
0100
0000
,
1000
0010
1000
0001
0010
0100
1000
0001
,
0100
0010
1000
0001
0010
0001
0100
0010
,
1000
0100
0000
0100
0010
0000
0010
0001
0000
0001
1000
0000
1000
0010
0000
0100
,
0001
0010
0000
0001
0010
0000
0100
1000
0000
0100
1000
0000
0010
0000
0100
0000
,
0010
1000
0000
0010
1000
0000
0001
0100
0000
0001
0100
0000
0001
0000
0010
0000
,
0100
0010
0000
0100
0010
0000
0001
1000
0000
0001
1000
0000
0100
0000
1000
0000
,
1100
0000
0010
0100
0000
0100
0001
0000
0001
1000
0000
1000
0100
0010
0100
0010
,
0001
0010
0100
1000
1000
0100
0001
0010
,
0010
0001
0001
1000
0010
1000
0100
0100
,
0100
0001
0010
0010
0001
1000
0100
1000
,
0001
0010
0001
1000
0010
0100
0100
1000
,
0001
0001
0100
0010
0010
1000
0100
1000
,
0001
0010
0010
0001
1000
0100
0100
1000
,
0010
1000
1000
0001
0100
0100
0010
0001
,
0001
0001
1000
0010
0010
1000
0100
0100
,
0010
1000
0000
0001
0100
0000
0001
0010
0000
0100
1000
0000
0010
0000
0100
0000
,
0001
0010
0000
0001
0100
0000
1000
0010
0000
1000
0100
0000
1000
0000
0001
0000
,
0010
0100
0000
0010
0001
0000
0100
1000
0000
0001
1000
0000
0010
0000
0100
0000
,
0001
1000
0000
0100
0010
0000
0100
1000
0000
0001
0010
0000
0001
0000
0100
0000
,
0010
0000
0000
0010
0000
0000
0010
0000
0000
0010
0000
0000
0010
0000
0010
0000
,
1000
0000
0000
1000
0000
0000
1000
0000
0000
1000
0000
0000
1000
0000
1000
0000
,
0100
0000
0000
0100
0000
0000
0100
0000
0000
0100
0000
0000
0100
0000
0100
0000
,
0001
0000
0000
0001
0000
0000
0001
0000
0000
0001
0000
0000
0001
0000
0001
0000
;
