#TITLE:This Beat Is.....;
#ARTIST:Shoichiro Hirata;
#BANNER:This Beat Is.png;
#BACKGROUND:This Beat Is-bg.png;
#JACKET:This Beat Is-jacket.png;
#MUSIC:This Beat Is.ogg;
#SAMPLESTART:61.858;
#SAMPLELENGTH:20;
#DISPLAYBPM:128;
#BPMS:0=128;
#BGCHANGES:;

//---------------dance-single - ----------------
#NOTES:
     dance-single:
     :
     Beginner:
     1:
     :
0000
0000
0000
0000
,
0000
0000
0000
0000
,
0000
0000
0000
0000
,
0000
0000
0000
0000
,
0000
0000
0000
0000
,
1000
0000
0000
0000
,
1000
0000
0000
0000
,
0001
0000
0000
0000
,
0000
0000
0000
0000
,
0002
0000
0000
0000
,
0003
0000
0000
0000
,
2000
0000
0000
0000
,
3000
0000
0000
0000
,
0001
0000
0001
0000
,
0001
0000
0000
0000
,
1000
0000
1000
0000
,
1000
0000
0000
0000
,
0001
0000
0001
0000
,
0001
0000
0000
0000
,
1000
0000
1000
0000
,
1000
0000
0000
0000
,
0001
0000
0001
0000
,
0001
0000
0000
0000
,
1000
0000
1000
0000
,
1000
0000
0000
0000
,
0200
0000
0000
0000
,
0300
0000
0000
0000
,
0020
0000
0000
0000
,
0030
0000
0000
0000
,
0001
0000
0001
0000
,
0001
0000
0000
0000
,
1000
0000
1000
0000
,
1000
1000
1000
0000
,
1000
0000
0100
0000
,
1000
0000
0000
0000
,
0001
0000
0100
0000
,
0001
0000
0000
0000
,
0001
0000
0010
0000
,
0001
0000
0000
0000
,
1000
0000
0010
0000
,
1000
0000
0000
0000
,
1000
0000
1000
0000
,
1000
0000
1000
0000
,
1000
0000
1000
0000
,
1000
0000
0000
0000
,
0001
0000
0001
0000
,
0001
0000
0001
0000
,
0001
0000
0001
0000
,
0001
0000
0000
0000
,
1000
0000
0100
0000
,
1000
0000
0100
0000
,
1000
0000
0010
0000
,
1000
0000
0000
0000
,
0001
0000
0100
0000
,
0001
0000
0100
0000
,
0001
0000
0010
0000
,
0020
0000
0000
0030
,
0000
0000
0000
0000
;

//---------------dance-single - ----------------
#NOTES:
     dance-single:
     :
     Easy:
     4:
     :
0000
0000
0000
0000
,
0000
0000
0000
0000
,
0000
0000
0000
0000
,
0000
0000
0000
0000
,
0000
0000
0000
0000
,
0001
0000
0100
0000
,
0001
0000
0100
0000
,
1000
0000
0100
0000
,
0000
0000
0000
0000
,
1000
1000
1000
0000
,
1000
0000
0000
0000
,
0001
0001
0001
0000
,
0001
0000
0000
0000
,
0100
0100
0100
0000
,
0100
0000
0000
0000
,
0010
0010
0010
0000
,
0010
0000
0000
0000
,
0001
1000
0001
1000
,
0001
0000
0000
0000
,
1000
0001
1000
0001
,
1000
0000
0000
0000
,
0010
0100
0010
0100
,
0010
0000
0000
0000
,
0100
0010
0100
0010
,
0100
0000
0000
0000
,
0002
0000
1000
0000
,
1000
0000
0003
0000
,
2000
0000
0001
0000
,
0001
0000
3000
0000
,
0001
0000
1000
0000
,
0001
0000
1000
0000
,
0001
0100
1000
0100
,
0001
0100
1000
1001
,
0001
0000
0100
0000
,
1000
1000
0100
0000
,
1000
0000
0010
0000
,
0001
0001
0010
0000
,
0001
0000
0100
0000
,
1000
0100
1000
0000
,
1000
0000
0010
0000
,
0001
0010
0001
1001
,
0001
1000
0001
1000
,
0001
1000
0001
0000
,
0010
0100
0010
0100
,
0010
0100
0010
0000
,
1000
0001
1000
0001
,
1000
0001
1000
0000
,
0100
0010
0100
0010
,
0100
0010
0100
0000
,
0001
0010
0001
0100
,
0001
0010
0001
0000
,
1000
0010
1000
0100
,
1000
0010
1000
0000
,
0001
0100
1000
0100
,
0001
0100
1000
0100
,
0001
0100
1000
0100
,
0000
0000
0000
1001
,
0000
0000
0000
0000
;

//---------------dance-single - ----------------
#NOTES:
     dance-single:
     :
     Medium:
     7:
     :
0000
0000
0000
0000
,
0000
0000
0000
0000
,
0000
0000
0000
0000
,
0000
0000
0000
0000
,
0000
0000
0000
0000
,
0001
0100
1000
0100
,
0001
0100
1000
0100
,
0001
0100
1000
0100
,
0000
0000
0000
0000
,
0001
0001
0001
0100
,
1000
0000
0000
0000
,
1000
1000
1000
0100
,
0001
0000
0000
0000
,
0001
0001
0001
0010
,
1000
0000
0000
0000
,
1000
1000
1000
0010
,
0001
0000
0000
0000
,
0001
0100
1000
0100
,
0001
0100
1000
0100
,
0001
0010
1000
0010
,
0001
0010
1000
0000
,
1000
0010
0001
0010
,
1000
0010
0001
0010
,
1000
0100
0001
0100
,
1000
0100
0001
0000
,
2000
0000
0000
0100
0000
0000
0000
0000
,
3002
0000
0000
0100
0000
0000
0000
0000
,
2003
0000
0000
0010
0000
0000
0000
0000
,
3002
0000
0000
0010
0000
0000
0000
0000
,
1003
1000
0010
0010
,
0001
0001
0100
0100
,
1000
0001
1000
0000
0001
1000
0001
0000
,
0100
0010
0100
0010
0100
0000
1001
0000
,
0000
0001
0010
0100
1000
0000
0001
0100
,
0002
0000
1000
1003
,
0000
1000
0100
0010
0001
0000
1000
0100
,
2000
0000
0001
3001
,
0000
0001
0100
0010
1000
0000
0100
0010
,
0200
0000
0010
0310
,
0000
1000
0010
0100
0001
0000
1000
0000
,
0001
0000
0000
0010
0000
0000
0100
0000
0000
1000
0000
0000
1001
0000
0000
0000
,
0001
0101
1000
1100
,
0001
0000
0000
0000
1000
0010
0100
0000
,
1000
1100
0001
0101
,
1000
0000
0000
0000
0001
0010
0100
0000
,
1000
1010
0001
0011
,
1000
1000
1000
0000
,
0001
0011
1000
1010
,
0001
0001
0001
0000
,
0001
0100
0010
0000
0110
0000
0000
0000
,
1000
0010
0100
0000
0110
0000
0000
0000
,
0010
0100
1000
0000
1001
0000
0000
0000
,
0100
0010
0001
0000
1001
0000
0000
0000
,
0000
0010
0100
0000
0001
0000
1001
0000
,
0000
1000
0100
0000
0010
0000
0110
0000
,
0000
0010
1000
0000
0001
0000
1001
0000
,
0000
0100
0100
0000
0110
0000
1001
0000
,
0000
0000
0000
0000
;

//---------------dance-single - ----------------
#NOTES:
     dance-single:
     :
     Hard:
     11:
     :
0000
0000
0000
0000
,
0000
0000
0000
0000
,
0000
0000
0000
0000
,
0000
0000
0000
0000
,
0000
0000
0000
0000
,
1000
0000
1100
0000
0001
0100
1000
0000
,
0001
0000
0101
0000
1000
0100
0001
0000
,
0010
0001
0100
0000
0010
0100
0001
0000
,
0000
0100
0010
1000
0100
0010
0001
0000
,
0002
1000
0100
1000
,
0010
0000
0000
0000
1000
1000
1000
0000
,
2003
0001
0100
0001
,
0010
0000
0000
0000
0001
0001
3001
0000
,
1000
0100
1000
0000
0001
0100
0001
0000
,
1000
0100
0001
0000
0001
0100
1000
0000
,
0001
0100
0001
0000
1000
0100
1000
0000
,
0001
0100
1000
0000
1000
0100
0001
0000
,
0001
0000
0011
0000
1000
0010
0001
0000
,
1000
0000
1010
0000
0001
0010
1000
0000
,
0001
0000
0101
0000
1000
0100
0001
0000
,
1000
0000
1100
0000
0001
0100
1000
0000
,
1000
0100
0001
0000
1000
0100
0001
0000
,
1000
0100
0001
0100
1000
0100
0010
0000
,
0001
0100
1000
0000
0001
0100
1000
0000
,
0001
0100
1000
0100
0001
0100
0010
0000
,
0002
0000
0000
0203
0000
0000
0000
0000
,
0320
0000
0000
2030
0000
0000
3000
0000
,
2000
0000
0000
3200
0000
0000
0000
0000
,
0320
0000
0000
0032
0000
0000
0003
0000
,
1100
1001
0101
1001
,
1010
0011
1010
0011
,
0100
1000
0010
0000
0100
0010
1000
0000
,
0100
0001
0010
0001
0100
0010
0001
0000
,
0000
0001
1000
0100
0010
0000
0001
0010
,
0100
0000
0000
1100
0000
0000
0001
0000
0000
0101
0000
0000
0010
0000
0000
0000
,
0000
1000
0001
0100
0010
0000
1000
0010
,
0100
0000
0000
0101
0000
0000
1000
0000
0000
1100
0000
0000
0010
0000
0000
0000
,
0001
0000
0000
0001
0000
0000
0100
0000
0000
0100
0000
0000
0000
0000
0100
0000
,
0010
0000
0000
0010
0000
0000
1000
0000
0000
1000
0000
0000
1000
0000
0000
0000
,
0010
0000
0000
0010
0000
0000
0100
0000
0000
0100
0000
0000
0000
0000
0100
0000
,
0001
0010
0000
0100
0000
0000
1000
0100
0000
0010
0000
0000
1001
0000
0000
0000
,
0001
0100
0101
0000
1000
0100
1100
0000
,
0001
0100
1000
0100
0001
0010
1000
0000
,
0001
0010
0011
0000
1000
0010
1010
0000
,
0001
0010
1000
0010
0001
1000
0001
0000
,
1000
0100
1100
0000
0001
0100
0101
0000
,
1000
0100
0001
0100
1000
0010
0001
0000
,
1000
0010
1010
0000
0001
0010
0011
0000
,
1000
0010
0001
0010
1000
0100
0010
0000
,
0001
0100
1000
0100
0010
0100
0001
0000
,
1000
0100
0001
0100
0010
0100
1000
0000
,
0001
0010
0100
0001
1000
0010
0100
0000
,
1000
0010
0100
1000
0001
0010
0100
0000
,
0000
0001
0010
0100
1100
0001
0101
0000
,
0000
0000
1000
0000
0010
0000
0100
0000
0101
0000
0000
0110
0000
0000
1001
0000
,
0000
1000
0010
0100
0101
1000
1100
0000
,
0000
0000
0001
0010
0000
0010
0100
0000
0100
1000
0000
1000
0001
0000
0000
0000
,
0000
0000
0000
0000
;

//---------------dance-single - ----------------
#NOTES:
     dance-single:
     :
     Challenge:
     13:
     :
0000
0000
0000
0000
,
0000
0000
0000
0000
,
0000
0000
0000
0000
,
0000
0000
0000
0000
,
0000
0000
0000
0000
,
1000
0001
0001
0100
0110
0110
2002
3003
,
0010
0000
0001
0000
0001
0000
1000
0001
1000
0000
0100
0010
0000
0100
0010
0000
,
0001
0100
0100
0010
0110
0110
1001
0220
,
0330
0000
0001
1000
0000
1000
0001
0000
1000
0001
0000
0001
1000
0000
0000
0000
,
1001
0000
0000
0000
0000
0000
1000
0000
0100
0000
0000
0100
0000
0000
0000
0000
0000
0000
0001
0000
0100
0000
0000
0100
,
0000
0000
0000
0000
0000
0000
0010
0000
0000
0001
0000
1000
0000
0000
1000
0000
0000
1000
0000
0000
0001
0100
0000
0000
,
0010
0000
0000
0000
0000
0000
1000
0000
0100
0000
0000
0100
0000
0000
0000
0000
0000
0000
0001
0000
0100
0000
0000
0100
,
0000
0000
0000
0000
0000
0000
0010
0000
0000
0001
0000
1000
0000
0000
1000
0000
0000
1000
0000
0000
0001
0100
0000
0000
,
1010
0000
0000
0000
0000
0000
1000
0000
0100
0000
0000
0100
0010
0000
0000
0000
0000
0000
0001
0000
0100
0000
0000
0100
,
0010
0000
0000
0000
0000
0000
0101
0000
0000
0001
0000
1000
0000
0000
0100
0000
0000
1000
0000
0000
0001
0100
0000
0000
,
0011
0000
0000
0000
0000
0000
1000
0000
0001
0000
0000
0001
0100
0000
0000
0000
0000
0000
0010
0000
1000
0000
0000
1000
,
0001
0000
0000
0000
0000
0000
1100
0000
0000
0010
0000
0100
0000
0000
0010
0000
0000
1000
0000
0000
0001
0100
0000
0000
,
0011
0000
0000
0000
0000
0000
1000
0000
0010
1000
0000
0010
1000
0000
0000
0000
0000
0000
0001
0000
0100
0001
0000
0100
,
0001
0000
0000
0000
0000
0000
1010
0000
0000
0100
0000
1000
0000
0000
0010
0000
0000
1000
0000
0000
0001
0100
0000
0000
,
0101
0000
0000
0000
0000
0000
1000
0000
0100
1000
0000
0100
1000
0000
0000
0000
0000
0000
0001
0000
0100
0001
0000
0100
,
0001
0000
0000
0000
0000
0000
1100
0000
0000
0010
0000
1000
0000
0000
0100
0000
0000
1000
0000
0000
0001
0100
0000
0000
,
0110
0000
0000
0000
0000
0000
1000
0000
0010
1000
0000
0010
1000
0000
0000
0100
0000
0000
0010
0000
0001
0010
0000
0001
,
0020
0000
0000
0230
0000
0000
1300
0000
0001
1000
0000
0010
0000
0000
0100
0000
0000
0001
0000
0000
0100
0010
0000
0000
,
1001
0000
0000
0000
0000
0000
0001
0000
0010
0001
0000
0010
0001
0000
0000
0100
0000
0000
0010
0000
1000
0010
0000
1000
,
0020
0000
0000
0230
0000
0000
0301
0000
0010
0001
0000
1000
0000
0000
1000
0000
0000
1000
0000
0000
0001
0100
0000
0000
,
0010
1000
0001
1000
0001
0100
0102
0000
,
1000
0000
0000
0000
1003
0000
0001
0010
0002
0000
0000
0000
0000
0000
0000
0000
,
0103
0000
0001
0000
1000
0000
0001
0000
1000
0000
0100
0000
1000
0010
0000
0000
,
0100
0000
0001
0000
0010
0001
0000
0000
1001
0000
0000
0000
0001
0000
0100
0000
,
1000
0010
0100
0010
0100
0001
2000
0000
,
0100
0000
3100
0010
0001
0100
0001
1000
,
0100
0010
0001
0100
1000
0100
0001
1000
,
0020
0000
0230
0000
0320
0000
0230
0000
0310
0100
0010
0100
0020
0000
0000
0000
,
1030
0000
0000
0001
0000
0000
0010
0000
0000
0100
0000
0000
1100
0000
0000
0000
0000
0000
0010
0000
0100
0001
0000
0000
,
0011
0000
0000
0000
0000
0101
0000
0000
0000
1010
0000
0000
0000
0000
1100
0000
0000
0000
0110
0000
0000
0001
0000
0000
,
1000
0000
0010
0000
0100
0000
0001
0000
0010
0000
0001
1000
0001
0000
0100
0000
,
0020
0000
0000
0000
0000
0000
1030
0000
0001
1000
0000
0001
0000
0000
0100
0000
0000
0110
0000
0000
0110
0000
0000
0000
,
1000
0000
0000
0001
0000
0000
0100
0000
0000
0010
0000
0000
1010
0000
0000
0000
0000
0000
0100
0000
1000
0100
0000
0000
,
1100
0000
0000
0000
0000
0011
0000
0000
0000
0101
0000
0000
0000
0000
1010
0000
0000
0000
1001
0000
0000
0000
0000
0110
,
0000
0000
0001
0000
0100
0000
0001
0000
1000
0000
0010
0000
0100
0002
0000
0000
,
0013
0001
0010
0001
0010
0001
0000
0000
0100
1000
0100
1000
0100
1000
0000
0000
,
1001
0000
0000
0000
0000
0100
1000
0000
0001
0000
0000
0001
0000
0000
0000
0000
0000
0100
0001
0000
1000
0000
0000
1000
,
0000
0000
0000
0010
0000
0000
1000
0000
0100
1000
0000
0001
0000
0000
0010
0000
0000
0010
0000
0000
0001
0100
0000
0000
,
0010
0000
0000
0000
0000
1000
0001
0000
0010
0000
0000
0010
0000
0000
0000
0000
0000
0001
1000
0000
0100
1000
0000
0100
,
0000
0000
0000
0010
0000
0000
0001
0000
0100
0001
0000
1000
0000
0000
0010
0000
0000
0100
0000
0000
0001
1000
0000
0000
,
0101
0000
0000
0000
0000
0001
0010
0000
0001
0010
0000
0001
1000
0000
0000
0000
0000
0010
1000
0000
0010
1000
0000
0010
,
0200
0000
0000
0302
0000
0000
0013
0000
0001
1000
0000
0010
0000
0000
0010
0000
0000
0100
0000
0000
0001
1000
0000
0000
,
1100
0000
0000
0000
0000
0001
0100
0000
0001
0100
0000
0001
0100
0000
0000
0000
0000
0010
1000
0000
0010
1000
0000
0010
,
1000
0000
0000
0001
0000
0100
0001
0000
0100
0010
0000
1000
0000
0000
1000
0100
0000
1000
0000
0000
0001
0010
0000
0001
,
0100
0010
0010
1000
0110
0110
1001
0200
,
0310
0000
0001
0000
0001
0000
1000
0001
1000
0000
0100
0010
0000
0100
0010
0000
,
0001
0100
0100
0010
1010
0101
1010
0002
,
0013
0000
0000
0100
0000
0000
1000
0000
0000
0001
0000
0100
0001
0000
0000
0010
0000
0100
1000
0000
0001
1000
0000
0010
,
0100
0001
0001
1000
1001
1001
0220
0330
,
0001
0000
0100
0000
0100
0000
0001
1000
0001
0000
1000
0010
0000
0010
0100
0000
,
0001
1000
1000
0100
0110
0110
2002
3003
,
0000
0000
0010
1000
0000
0010
1000
0000
0001
0100
0000
0001
0100
0000
0000
0000
;

//---------------dance-double - ----------------
#NOTES:
     dance-double:
     :
     Easy:
     4:
     :
00000000
00000000
00000000
00000000
,
00000000
00000000
00000000
00000000
,
00000000
00000000
00000000
00000000
,
00000000
00000000
00000000
00000000
,
00000000
00000000
00000000
00000000
,
10000000
00000000
01000000
00000000
,
10000000
00000000
01000000
00000000
,
00100000
00000000
00010000
00000000
,
00000000
00000000
00000000
00000000
,
00001000
00001000
00001000
00000000
,
00001000
00000000
00000000
00000000
,
00010000
00010000
00010000
00000000
,
00010000
00000000
00000000
00000000
,
00001000
00001000
00001000
00000000
,
00001000
00000000
00000000
00000000
,
00000100
00000100
00000100
00000000
,
00000100
00000000
00000000
00000000
,
00000001
00001000
00000001
00001000
,
00000001
00000000
00000000
00000000
,
00010000
00001000
00010000
00001000
,
00010000
00000000
00000000
00000000
,
10000000
00010000
10000000
00010000
,
10000000
00000000
00000000
00000000
,
00010000
10000000
00010000
10000000
,
00010000
00000000
00000000
00000000
,
02000000
00000000
00100000
00000000
,
00100000
00000000
03000000
00000000
,
00002000
00000000
00010000
00000000
,
00010000
00000000
00003000
00000000
,
00000010
00000000
00000100
00000000
,
00000010
00000000
00000100
00000000
,
00000001
00000100
00001000
00010000
,
00100000
10000000
00010000
10010000
,
00010000
00000000
01000000
00000000
,
20000000
00000000
31000000
00000000
,
10000000
00000000
00100000
00000000
,
00020000
00000000
00031000
00000000
,
00001000
00000000
00000100
00000000
,
00000002
00000000
00000103
00000000
,
00000001
00000000
00000010
00000000
,
00002000
00000000
00013000
00011000
,
00010000
00001000
00010000
00001000
,
01000000
00010000
01000000
00000000
,
00010000
01000000
00010000
01000000
,
00100000
10000000
00100000
00000000
,
10000000
01000000
10000000
01000000
,
00010000
00001000
00010000
00000000
,
00001000
00000010
00001000
00000010
,
00000001
00001000
00000001
00000000
,
00000001
00000100
00001000
00010000
,
00100000
10000000
00010000
00000000
,
10000000
01000000
00010000
00001000
,
00000010
00000001
00001000
00000000
,
00000001
00000100
00000010
00001000
,
00000100
00010000
00001000
00100000
,
00010000
01000000
00100000
10000000
,
00000000
00000000
00000000
10010000
,
00000000
00000000
00000000
00000000
;

//---------------dance-double - ----------------
#NOTES:
     dance-double:
     :
     Medium:
     7:
     :
00000000
00000000
00000000
00000000
,
00000000
00000000
00000000
00000000
,
00000000
00000000
00000000
00000000
,
00000000
00000000
00000000
00000000
,
00000000
00000000
00000000
00000000
,
10000000
01000000
00010000
01000000
,
10000000
00100000
01000000
00001000
,
00010000
00000100
00000001
00000100
,
00000000
00000000
00000000
00000000
,
00000001
00001000
00000001
00000100
,
00001000
00000000
00000000
00000000
,
10000000
00010000
10000000
01000000
,
00010000
00000000
00000000
00000000
,
00000001
00001000
00000001
00000010
,
00001000
00000000
00000000
00000000
,
10000000
00010000
10000000
00100000
,
00010000
00000000
00000000
00000000
,
00000001
00000100
00001000
00000100
,
00001000
00010000
00001000
00010000
,
00100000
00010000
00100000
10000000
,
00100000
10000000
01000000
00000000
,
10000000
01000000
00010000
01000000
,
00010000
00001000
00010000
00001000
,
00000010
00001000
00000010
00000001
,
00000010
00000001
00000100
00000000
,
00000002
00000000
00000000
00000100
00000000
00000000
00000000
00000000
,
00000203
00000000
00000000
00001000
00000000
00000000
00000000
00000000
,
00002300
00000000
00000000
00010000
00000000
00000000
00000000
00000000
,
00023000
00000000
00000000
00100000
00030000
00000000
00000000
00000000
,
10000000
10000000
00100000
00100000
,
00010000
00010000
00001000
00001000
,
00010000
00001000
00010000
00000000
00010000
01000000
10000000
00000000
,
00010000
00100000
01000000
10000000
00010000
00000000
10010000
00000000
,
00000000
00010000
10000000
00100000
01000000
00000000
00100000
00010000
,
00002000
00000000
00010000
00013000
,
00000000
00010000
00001000
00000100
00000001
00000000
00000001
00001000
,
00000002
00000000
00000100
00000103
,
00000000
00001000
00000001
00000100
00000010
00000000
00000100
00001000
,
00020000
00000000
00001000
00031000
,
00000000
00001000
00010000
00100000
10000000
00000000
10000000
00010000
,
10000000
00000000
00000000
01000000
00000000
00000000
00100000
00000000
00000000
00010000
00000000
00000000
10010000
00000000
00000000
00000000
,
00100000
01100000
01000000
01100000
,
10010000
00000000
00000000
00000000
00100000
00010000
00001000
00000000
,
00000100
00000110
00000010
00000110
,
00001001
00000000
00000000
00000000
00000100
00001000
00010000
00000000
,
10000000
10100000
00010000
00110000
,
10000000
01000000
00010000
00001000
,
00000010
00000011
00001000
00001010
,
00000001
00000100
00001000
00010000
,
00100000
10000000
01000000
00000000
01100000
00000000
00000000
00000000
,
00100000
00010000
01000000
00000000
01100000
00000000
00000000
00000000
,
00100000
00010000
00001000
00000000
00011000
00000000
00000000
00000000
,
00001000
00000100
00000001
00000000
00001001
00000000
00000000
00000000
,
00000000
00000001
00000100
00000000
00000010
00000000
00001001
00000000
,
00000000
00000010
00000100
00000000
00010000
00000000
00011000
00000000
,
00000000
00010000
01000000
00000000
10000000
00000000
10010000
00000000
,
00000000
10000000
01000000
00010000
01000000
00000000
10010000
00000000
,
00000000
00000000
00000000
00000000
;

//---------------dance-double - ----------------
#NOTES:
     dance-double:
     :
     Hard:
     10:
     :
00000000
00000000
00000000
00000000
,
00000000
00000000
00000000
00000000
,
00000000
00000000
00000000
00000000
,
00000000
00000000
00000000
00000000
,
00000000
00000000
00000000
00000000
,
10000000
00000000
01010000
00000000
10000000
01000000
00100000
00000000
,
00010000
00000000
01100000
00000000
00100000
00010000
00001000
00000000
,
00010000
00001000
00000100
00000000
00000010
00001000
00000100
00000000
,
00000000
00000001
00000100
00000010
00000001
00000100
00000010
00000000
,
00020000
00001000
00000100
00001000
,
00000100
00000000
00000000
00030000
,
00002000
00010000
01000000
00010000
,
01000000
00000000
00000000
00003000
,
00010000
01000000
10000000
00000000
10000000
01000000
00010000
00000000
,
00001000
00000100
00000001
00000000
00000001
00000100
00001000
00000000
,
00010000
00100000
10000000
00000000
10000000
00100000
00010000
00000000
,
00001000
00000010
00000001
00000000
00000001
00000010
00001000
00000000
,
00100000
00000000
00110000
00000000
10000000
00100000
00010000
00000000
,
10000000
00000000
10100000
00000000
00100000
00010000
00001000
00000000
,
00000100
00000000
00000101
00000000
00001000
00000100
00000001
00000000
,
00001000
00000000
00001010
00000000
00010000
00001000
00010000
00000000
,
00010000
01000000
00100000
00000000
00100000
01000000
10000000
00000000
,
10000000
01000000
00010000
00001000
00000010
00000001
00000010
00000000
,
00001000
00000010
00000100
00000000
00000100
00001000
00000001
00000000
,
00000001
00001000
00000100
00010000
00001000
00100000
00010000
00000000
,
20000000
00000000
00000000
32000000
00000000
00000000
00000000
00000000
,
03200000
00000000
00000000
00302000
00000000
00000000
00000000
00000000
,
00023000
00000000
00000000
00030200
00000000
00000000
00000000
00000000
,
00000320
00000000
00000000
00002030
00000000
00000000
00003000
00000000
,
00010000
01010000
10000000
11000000
,
00100000
00110000
00001000
00011000
,
00001100
00000011
00001001
00001010
,
00000110
00010100
00022000
00033000
,
00100000
00000000
01100000
00000000
10010000
00000000
10000000
00100000
,
00010000
00000000
00000000
00001000
00000000
00000000
00010000
00000000
00000000
00001000
00000000
00000000
00000100
00000000
00000000
00000000
,
00000010
00000000
00000110
00000000
00001001
00000000
00000001
00000010
,
00001000
00000000
00000000
00010000
00000000
00000000
00001000
00000000
00000000
00010000
00000000
00000000
01000000
00000000
00000000
00000000
,
10000000
00000000
00000000
10000000
00000000
00000000
01000000
00000000
00000000
01000000
00000000
00000000
00000000
00000000
00000000
00000000
,
00100000
00000000
00000000
00100000
00000000
00000000
00001000
00000000
00000000
00001000
00000000
00000000
00000000
00000000
00000000
00000000
,
00010000
00000000
00000000
00010000
00000000
00000000
00000100
00000000
00000000
00000100
00000000
00000000
00000000
00000000
00000000
00000000
,
00000020
00000000
00000000
00002030
00000000
00000000
00023000
00000000
00000000
00031000
00000000
00000000
00011000
00000000
00000000
00000000
,
00010000
01000000
01010000
00000000
10000000
01000000
11000000
00000000
,
10000000
01000000
00010000
00001000
00000010
00000001
00001000
00000000
,
00001000
00000100
00001100
00000000
00000001
00000100
00000101
00000000
,
00000001
00000100
00001000
00010000
00100000
10000000
00010000
00000000
,
10000000
00100000
00010000
00100000
10000000
01000000
00010000
01000000
,
10000000
00100000
00010000
00001000
00000100
00000001
00000101
00000000
,
00000001
00000010
00001000
00000010
00000001
00000100
00001000
00000100
,
00000001
00000010
00001000
00010000
01000000
10000000
11000000
00000000
,
10000000
01000000
00100000
01000000
00010000
00001000
00010000
00000000
,
00001000
00000010
00001000
00010000
00100000
00010000
00001000
00000000
,
00001000
00010000
00001000
00000010
00000100
00000010
00000001
00000000
,
00000001
00000100
00001000
00000100
00000001
00001000
00000001
00000000
,
00000000
00000001
00000100
00000010
00000110
00000000
00010010
00000000
,
00000000
00000000
00001000
00000000
01000000
00000000
00001000
00000000
00011000
00000000
00000000
01010000
00000000
00000000
01100000
00000000
,
00000000
10000000
00100000
01000000
01010000
00000000
11000000
00000000
,
00000000
00000000
10000000
00100000
00000000
00100000
00010000
00000000
00001000
00000000
00010000
00000000
00011000
00000000
00000000
00000000
,
00000000
00000000
00000000
00000000
;
