#TITLE:The flower in your smile;
#ARTIST:TACOS NAOMI feat.小久保裕之;
#ARTISTTRANSLIT:TACOS NAOMI feat. Hiroyuki Kokubo;
#BANNER:The flower in your smile.png;
#BACKGROUND:The flower in your smile-bg.png;
#JACKET:The flower in your smile-jacket.png;
#MUSIC:The flower in your smile.ogg;
#SAMPLESTART:43.997;
#SAMPLELENGTH:20;
#DISPLAYBPM:186;
#BPMS:0=186.528,4=186.002;
#BGCHANGES:;

//---------------dance-single - ----------------
#NOTES:
     dance-single:
     :
     Beginner:
     3:
     :
0000
0000
0000
0000
,
0000
0000
0000
0000
,
0000
0000
0000
0000
,
0000
0000
0000
0000
,
0000
0000
0000
0000
,
0001
0000
0000
0000
,
0001
0000
0000
0000
,
1000
0000
0000
0000
,
1000
0000
0000
0000
,
0010
0000
0000
0000
,
0000
0000
0000
0000
,
0100
0000
0000
0000
,
0000
0000
0000
0000
,
0001
0000
0000
0000
,
0001
0000
0000
0000
,
1000
0000
0000
0000
,
1000
0000
0000
0000
,
0010
0000
0000
0000
,
0010
0000
0000
0000
,
0100
0000
0000
0000
,
0100
0000
0000
0000
,
0001
0000
0000
0000
,
1000
0000
0000
0000
,
0001
0000
0000
0000
,
1000
0000
0000
0000
,
0010
0000
0010
0000
,
1000
0000
0000
0000
,
0001
0000
0001
0000
,
0100
0000
0000
0000
,
0010
0000
0000
0000
,
0001
0000
0000
0000
,
1000
0000
0000
0000
,
0010
0000
0000
0000
,
0000
0000
0000
0000
,
0000
0000
0000
0000
,
0001
0000
1000
0000
,
0010
0000
0000
0000
,
0100
0000
1000
0000
,
0001
0000
0000
0000
,
0010
0000
0000
0000
,
0100
0000
0000
0000
,
1000
0000
0000
0000
,
0010
0000
0000
0000
,
0001
0000
0100
0000
,
1000
0000
0000
0000
,
1000
0000
0100
0000
,
0001
0000
0000
0000
,
0010
0000
0000
0000
,
0100
0000
0000
0000
,
1000
0000
0000
0000
,
0001
0000
0000
0000
,
0100
0000
0000
0000
,
0100
0000
0000
0000
,
0010
0000
0010
0000
,
1000
0000
1000
0000
,
0100
0000
0100
0000
,
0001
0000
0001
0000
,
0010
0000
0000
0000
,
1000
0000
0000
0000
,
0001
0000
0000
0000
,
0010
0000
0000
0000
,
1000
0000
0100
0000
,
0001
0000
0010
0000
,
1000
0000
0000
0000
,
0001
0000
0000
0000
,
0100
0000
0001
0000
,
0010
0000
1000
0000
,
0001
0000
0000
0000
,
0100
0000
0000
0000
,
0010
0000
0000
0000
,
0000
0000
0000
0000
;

//---------------dance-single - ----------------
#NOTES:
     dance-single:
     :
     Easy:
     6:
     :
0000
0000
0000
0000
,
0000
0000
0000
0000
,
0000
0000
0000
0000
,
0000
0000
0000
0000
,
0000
0000
0000
0000
,
0100
0100
0010
0010
,
0001
1000
0100
0000
,
0100
0100
0010
0010
,
1000
0001
0100
0000
,
0001
0000
0010
0000
,
0001
0010
1000
0000
,
0010
0000
0001
0000
,
1000
0010
0100
0000
,
0010
0001
0100
0000
,
0010
1000
0100
0000
,
1000
0100
0001
0100
,
0010
0000
0001
0100
,
0001
0000
0100
0000
,
1000
0100
0001
0000
,
0100
0000
1000
0000
,
0001
0100
1000
0000
,
0100
1000
0002
0003
,
0100
0001
2000
3000
,
0001
0010
1000
0010
,
0100
0001
1000
0000
,
0000
0100
1000
0000
,
0000
0100
0010
0000
,
0000
0100
0001
0000
,
1000
0010
0001
0010
,
0000
1000
0001
0000
,
0000
0100
0010
0000
,
0000
0001
0100
0000
,
1000
0100
0001
0010
,
0001
0000
0000
1000
0000
0000
0001
0002
,
0000
0000
0000
0000
0000
0003
0000
0010
,
0000
0000
0100
0000
0010
0000
0000
1000
,
0000
0001
1000
0000
,
0100
0001
0010
1000
,
0100
0000
0001
0000
0100
0000
0000
0001
,
0000
0000
1000
0000
0100
0000
0000
0001
,
0000
0100
1000
0000
,
0010
0100
0001
0100
,
0010
0000
1000
0000
0100
0000
0000
1000
,
0000
0000
0010
0000
0100
0000
0000
0001
,
0000
1000
0001
0000
,
0010
1000
0100
0001
,
0010
0000
0100
0000
0010
0000
0000
1000
,
0000
0000
0001
0000
0010
0000
0000
1000
,
0000
0100
0001
0000
,
0100
0010
1000
0010
,
0100
0000
0001
0010
,
1000
0000
0010
0000
,
0001
0000
0100
0000
,
0010
0010
0100
0100
,
0010
1000
0100
0000
,
0010
0010
0100
0100
,
0010
0001
0100
0000
,
0001
0001
1000
1000
,
0010
1000
0001
0000
,
1000
1000
0001
0001
,
0010
0000
0001
0000
1000
0000
0000
0010
,
0000
0000
0100
0000
0010
0000
0000
1000
,
0000
0001
1000
0000
,
0010
0001
0010
1000
,
0001
0000
0010
0000
0100
0000
0000
0010
,
0000
0000
1000
0000
0001
0000
0000
0100
,
0000
0001
1000
0000
,
0010
0001
0100
1000
,
0010
0000
1000
0000
0100
0000
0001
0002
,
0000
0000
0000
0000
,
0000
0000
0000
0000
,
0000
0000
0000
0000
,
0000
0000
0000
0000
,
0000
0000
0000
0000
,
0003
0000
0000
0000
,
0000
0000
0000
0000
;

//---------------dance-single - ----------------
#NOTES:
     dance-single:
     :
     Medium:
     7:
     :
0000
0000
0000
0000
,
0000
0000
0000
0000
,
0000
0000
0000
0000
,
0000
0000
0000
0000
,
0000
0000
0000
0000
,
0010
0010
0100
0100
,
1000
0001
0010
1100
,
0010
0010
0100
0100
,
0001
1000
0010
0101
,
1000
0010
0100
0001
,
1000
0100
0001
0000
,
0100
0010
1000
0100
,
0001
0100
0010
0001
,
0100
1000
0022
0033
,
0100
0001
2020
3030
,
0001
0010
1000
0010
,
0100
0001
1000
0110
,
1000
0100
0010
1000
,
0001
0010
1000
0000
,
0010
0100
0001
0010
,
1000
0010
0001
1000
,
0010
0001
2200
3300
,
0010
1000
0202
0303
,
1000
0100
0001
0100
,
0010
1000
0001
0110
,
0001
0001
0000
1000
1000
0000
0000
0000
,
0010
0010
0000
0100
0100
0000
0000
0000
,
0010
0010
0000
1000
1000
0000
0000
0000
,
0001
0100
1000
0100
,
0001
0001
0000
1000
1000
0000
0000
0000
,
0010
0010
0000
0100
0100
0000
0000
0000
,
0001
0001
0000
0010
0010
0000
0000
0000
,
0001
0010
1000
0100
,
0001
0001
0000
1000
1000
0000
0002
2000
,
0000
0000
0000
0000
0000
3003
0000
0100
,
0000
0000
0010
0000
0100
0000
0001
0100
,
0000
1000
0001
0000
,
0010
1000
0100
0001
,
0010
0000
1000
0000
0010
0000
0100
1000
,
0000
0000
0001
0000
0110
0000
0000
1000
,
0000
0010
0101
0000
,
0100
0000
0010
0000
1000
0000
0010
1000
,
0000
0000
0001
0000
0010
0000
0000
0001
,
0000
0000
0100
0000
0010
0000
1000
0010
,
0000
0001
1000
0000
,
0100
0001
0010
1000
,
0100
0000
0010
0000
0100
0000
0010
0001
,
0000
0000
1000
0000
0110
0000
0000
0001
,
0000
0010
1100
0000
,
0010
0000
0100
0000
0001
0000
0100
0010
,
0000
1000
0100
0010
,
0001
0001
0100
0100
,
1000
1000
0010
0010
,
0100
0100
0010
0010
,
0100
0001
0010
1100
,
0100
0100
0010
0010
,
0100
1000
0010
0101
,
1000
1000
0001
0001
,
0100
0001
1000
0110
,
0001
0001
1000
1000
,
0100
0000
1000
0000
1001
0000
0010
0100
,
0000
0000
0010
0000
0100
0000
0001
0100
,
0000
1000
0001
0000
,
0100
1001
0100
1001
,
1000
0000
0100
0000
0010
0000
1000
0100
,
0000
0000
0001
0000
1100
0000
0000
0010
,
0000
1000
0101
0000
,
0100
1000
0010
0001
,
0100
0000
0001
0000
0010
0000
2000
0002
,
0000
0000
0000
0000
,
0000
0000
0000
0000
,
0000
0000
0000
0000
,
0000
0000
0000
0000
,
0000
0000
0000
0000
,
3003
0000
0000
0000
,
0000
0000
0000
0000
;

//---------------dance-single - ----------------
#NOTES:
     dance-single:
     :
     Hard:
     10:
     :
0000
0000
0000
0000
,
0000
0000
0000
0000
,
0000
0000
0000
0000
,
0000
0000
0000
0000
,
0000
0000
0000
0000
,
0101
0101
1010
0101
,
0010
0000
1000
0000
0001
0010
0100
0000
,
1100
1100
0011
1100
,
0010
0000
0001
0000
1000
0010
0100
0000
,
1000
0100
0010
1000
,
0001
0000
0010
0000
1000
0100
0001
0000
,
0010
0100
0001
0010
,
1000
0000
0010
0100
0000
0001
1000
0000
,
1010
0000
0001
1000
0200
0000
0300
0000
,
0011
0000
1000
0001
0200
0000
0300
0000
,
1000
0100
0001
0100
,
0010
0100
1000
0001
0000
0100
0010
0000
,
0001
0010
0100
0001
,
1000
0000
0100
0000
0001
0010
1000
0000
,
0100
0010
1000
0100
,
0001
0000
0100
0010
0000
1000
0001
0000
,
0101
0000
1000
0001
0020
0000
0030
0000
,
1100
0000
0001
1000
0020
0000
0030
0000
,
0001
0010
1000
0010
,
0100
0010
0001
1000
0000
0010
0100
0000
,
1000
1000
0000
0001
0001
0000
0010
0000
,
0100
0100
0000
0001
0100
0000
0010
0000
,
0100
0100
0000
0001
1000
0000
0100
0000
,
0010
0010
0000
0001
0010
0000
1100
0000
,
0001
0001
0000
1000
1000
0000
0010
0000
,
1000
0100
0000
0010
0001
0000
1000
0000
,
0010
0010
0000
0100
0010
0000
0001
0000
,
1000
0100
0001
0010
,
1000
0010
0000
1000
0100
0000
2000
0002
,
0000
0000
0000
0000
0000
3003
0000
0010
,
0000
1000
0100
0000
0010
0001
1000
0010
,
0000
0100
0001
0000
1000
0100
0010
0000
,
0100
0001
0010
1000
,
0100
0000
0010
0000
0100
1000
0010
0001
,
0000
0010
1000
0000
0101
0000
0000
0010
,
0000
0100
1000
0000
0110
0000
0000
0000
,
0010
0000
0100
0000
0001
0000
0100
0001
,
0000
0001
1000
0000
0100
0000
0010
0100
,
0000
0001
0010
0000
0100
1000
0001
0100
,
0000
0010
1000
0000
0001
0010
0100
0000
,
0010
1000
0100
0001
,
0010
0000
0100
0000
0010
0001
0100
1000
,
0000
0100
0001
0000
1010
0000
0000
0100
,
0000
0010
0001
0000
0110
0000
0000
0000
,
0100
0000
0010
0000
1000
0000
0010
1000
,
0000
1000
0001
0000
0010
1000
0100
0000
,
0100
0001
0010
1000
,
0100
1000
0010
0001
,
0101
0101
1010
0101
,
0010
0000
1000
0000
0001
0010
0100
0000
,
1100
1100
0011
1100
,
0010
0000
0001
0000
1000
0010
0100
0000
,
0101
0101
1100
0101
,
0010
0000
1000
0000
0001
1000
0010
0000
,
1100
1100
0101
1100
,
0010
0000
0001
0000
1000
0001
0010
0010
,
0000
1000
0100
0000
0010
0001
1000
0010
,
0000
0100
0001
0000
1000
0000
0000
0000
,
0010
0101
0010
1100
,
0001
0000
0010
0000
0100
1000
0001
0010
,
0000
0100
1000
0000
0101
0000
0000
0010
,
0000
0100
0001
0000
1100
0000
0000
0000
,
0010
1001
0101
1100
,
0010
0000
1000
0000
0100
0010
0002
2000
,
0000
0000
0000
0000
,
0000
0000
0000
0000
,
0000
0000
0000
0000
,
0000
0000
0000
0000
,
0000
0000
0000
0000
,
3003
0000
0000
0000
,
0000
0000
0000
0000
;

//---------------dance-single - ----------------
#NOTES:
     dance-single:
     :
     Challenge:
     13:
     :
0000
0000
0000
0000
,
0000
0000
0000
0000
,
0000
0000
0000
0000
,
0000
0000
0000
0000
,
0000
0000
0000
0000
,
1010
0000
1010
0000
1001
0010
1000
0100
,
0001
0100
0010
0100
0001
0100
1000
0010
,
0101
0000
0101
0000
1001
0010
1000
0001
,
0010
0000
1000
0000
0010
0000
0001
0100
0001
0000
1000
0000
0001
0000
0100
0000
,
0110
0000
0001
0010
1000
0010
0100
0010
,
0001
0000
0100
0000
1000
0000
0010
0100
0010
0000
1000
0000
0001
0000
0100
0010
,
0100
0000
0001
0010
1000
0010
0100
0010
,
0001
0000
0100
0000
0010
0000
2000
0000
0000
0000
0100
0000
3100
0000
1000
0001
,
1000
0000
0000
0010
0100
0000
0000
0100
0001
0000
0000
0001
1000
0000
0000
0010
,
1000
0000
0100
0000
0010
0000
0002
0000
0000
0000
0100
0000
0103
0000
0001
0010
,
0001
0000
1000
0010
1000
0000
0001
0000
0100
0000
0010
0000
1000
0000
0100
0000
,
0001
0000
0100
0000
0010
0000
0002
0000
0000
0000
1000
0000
1003
0000
0010
0100
,
0010
0000
0110
0010
0100
1000
0100
0001
,
0010
0000
0100
0000
1000
0000
0010
0000
0100
0000
0001
1000
0001
0000
0010
0000
,
1100
0000
0010
0100
1000
0100
0010
0001
,
0010
0000
1000
0000
0100
0000
0020
0000
0000
0000
0001
0000
0031
0000
1000
0100
,
1000
0000
0000
0000
0101
0000
0000
0000
1100
0000
0000
0000
0101
0000
1000
0001
,
1000
0010
0100
0002
0000
0010
0013
0100
,
1000
0000
0001
0000
0010
0000
0001
0000
0100
0000
0010
0000
1000
0000
0001
0100
,
0001
0000
0010
0000
0100
0000
1000
0010
1000
0000
0100
0000
0010
0001
0010
0001
,
0010
0100
1000
0010
0001
0010
1000
0200
,
0000
1300
0001
0000
0100
0010
0100
0001
,
0010
1000
0010
0001
0100
0010
1000
0100
,
0010
0001
1000
0010
0000
0100
0100
0001
,
1000
0000
0010
0000
1000
0000
0100
0010
0100
0000
0001
0000
0100
0000
1000
0000
,
0010
1000
0001
1000
0000
0100
0100
0010
,
0001
0100
0010
1000
0001
0100
1000
0010
,
0100
0000
0001
0000
0010
0000
0001
1000
0001
0000
0100
0000
0010
1000
0010
1000
,
0010
0010
1000
0001
0001
0100
0110
0110
,
0000
1000
0100
0001
1000
0100
0010
0002
,
0000
1003
0100
0100
0000
0010
0001
2000
,
0000
3010
0100
0100
0000
0001
1000
0001
,
0100
0010
0001
0010
0100
1000
0100
0002
,
0000
0000
0013
0000
0100
0000
1000
0010
1000
0000
0100
0000
0010
0000
0001
0000
,
0000
0101
0101
1000
0001
0010
0100
2100
,
0000
0000
3010
0000
1000
0000
0001
0100
0001
0000
1000
0000
0100
0000
0010
0000
,
0011
0000
0100
0001
0010
0100
1000
0002
,
0000
0000
1003
0001
1000
0000
0100
0000
0010
0000
0100
0000
0001
0000
0200
0000
,
0000
1300
0010
0010
0000
1000
0001
0200
,
0000
0301
0010
0010
0000
0100
0110
0000
,
1001
0000
1000
0010
1000
0001
0100
0020
,
0000
1030
0010
0001
0000
0100
0001
2000
,
0000
3100
1000
1010
0000
0001
1000
0020
,
0000
0130
0001
0011
0000
1000
0010
0100
,
0010
1000
0100
0001
0100
0010
0001
1000
,
0000
0000
0010
0000
0100
0000
0001
0000
1000
0000
0100
0000
0001
0000
0010
0100
,
0010
0000
0001
0000
0100
0000
0010
0000
1000
0100
1000
0000
0001
0000
0100
0000
,
0000
0000
0010
1000
0010
0000
0100
0000
0001
1000
0001
0000
0010
0000
0100
0000
,
1100
0000
1100
0000
1001
0010
0001
0100
,
1000
0000
0100
0000
0001
0000
0010
0100
0010
0000
0001
0000
1000
0000
0100
0000
,
0011
0000
0011
0000
1001
0010
0100
1000
,
0100
0000
0001
0000
0010
0000
0100
1000
0100
0000
0001
0000
0100
0000
1000
0000
,
1001
0000
1001
0000
0110
0001
1000
0010
,
0100
0000
1000
0000
0100
0000
0001
0010
0001
0000
0100
0000
0010
0000
1000
0000
,
0110
0000
0110
0000
1001
0010
0001
0100
,
1000
0000
0100
0000
0001
0000
0010
0100
0010
0000
0001
0000
1000
0100
2000
0000
,
0000
3010
0100
0001
0010
1000
0010
0200
,
0000
0000
0301
0000
0100
0000
1000
0000
0010
0000
0100
0000
0010
0000
1000
0001
,
1000
0000
0100
0010
0001
0100
0010
0200
,
0000
0000
0001
0000
0301
0000
1000
0100
1000
0000
0010
0000
0100
0000
0002
0000
,
0000
0013
0001
0100
1000
0100
0001
0012
,
0000
0000
0100
0000
0103
0000
0010
1000
0010
0000
0100
0000
0001
1000
0001
0000
,
0010
0000
0001
0100
0001
0000
1000
0000
0010
0000
0100
0000
0010
0000
2010
0000
,
0000
0000
0001
0000
3001
0000
0010
0100
1000
0000
0010
0000
0100
0001
0200
0000
,
0000
0000
0010
0000
0310
0000
1000
0001
1000
0000
0100
0000
0020
0000
0000
0000
,
0000
0000
0001
0000
0031
0000
1000
0010
1000
0000
0001
0000
0200
0000
0000
0000
,
0000
0000
1000
0000
1300
0000
0100
0001
0100
0000
0010
0000
2000
0000
0000
0000
,
0000
0000
0001
0000
3001
0000
0010
0100
0010
0000
0001
0000
1000
0000
0000
0000
,
0000
0000
1000
0100
1000
0000
0001
0100
0001
0000
0010
0000
0001
1000
0010
0100
;

//---------------dance-double - ----------------
#NOTES:
     dance-double:
     :
     Easy:
     5:
     :
00000000
00000000
00000000
00000000
,
00000000
00000000
00000000
00000000
,
00000000
00000000
00000000
00000000
,
00000000
00000000
00000000
00000000
,
00000000
00000000
00000000
00000000
,
10000000
00000000
00010000
00000000
,
00100000
00010000
10000000
00000000
,
01000000
00000000
00010000
00000000
,
00001000
00000100
00000001
00000000
,
00000010
00000000
00001000
00000000
,
00000001
00001000
00000010
00000000
,
00000100
00000000
00001000
00000000
,
00010000
01000000
10000000
01000000
,
00010000
00010000
00001000
00000000
,
00001000
00001000
00010000
00000000
,
00000010
00000000
00000001
00000000
,
00001001
00000000
00000100
00000100
,
00000010
00000000
00000100
00000000
,
00000001
00000100
00001000
00000000
,
00010000
00000000
00100000
00000000
,
10000000
10000000
00010000
00010000
,
00100000
10000000
01000000
00000000
,
00100000
00010000
01000000
00000000
,
00010000
00000000
00001000
00000000
,
00011000
00000000
00001000
00001000
,
00000010
00000001
00001000
00000000
,
00000010
00000100
00000001
00000000
,
00000100
00001000
00010000
00000000
,
00001000
00010000
00100000
00000000
,
00100000
10000000
00010000
00000000
,
00100000
00010000
01000000
00000000
,
10000000
10000000
01000000
00000000
,
00010000
00010000
00001000
00000000
,
00000010
00000000
00000001
00000000
,
00002002
00000000
00000000
00003003
,
00000001
00000100
00001000
00000000
,
00010000
01000000
10000000
00000000
,
00100000
01000000
10000000
01000000
,
00100000
00100000
01000000
00000000
,
00010000
00001000
00000010
00000000
,
00000010
00001000
00010000
00000000
,
00001000
00000100
00000001
00000010
,
00001000
00000001
00001000
00000000
,
00000001
00000010
00001000
00000000
,
00010000
00100000
10000000
00000000
,
00010000
10000000
00100000
01000000
,
00100000
10000000
01000000
00000000
,
00010000
00001000
00000100
00000000
,
00010000
00001000
00000100
00000000
,
00000010
00001000
00000001
00000010
,
00000100
00000100
00001000
00001000
,
00000010
00000000
00000010
00000000
,
00000010
00000000
00000010
00000000
,
00001000
00000000
00000010
00000000
,
00000001
00000100
00001000
00000000
,
00010000
00000000
00100000
00000000
,
10000000
01000000
00010000
00000000
,
00001000
00000000
00000010
00000000
,
00000001
00000100
00001000
00000000
,
00010000
00000000
00100000
00000000
,
10000000
01000000
00010000
00000000
,
00010000
00001000
00000010
00000000
,
00010000
00001000
00000010
00000000
,
00000001
00001000
00000010
00000100
,
00000001
00001000
00000001
00000000
,
00000010
00001000
00010000
00000000
,
00000010
00001000
00010000
00000000
,
00100000
10000000
00010000
00100000
,
01000000
01000000
00010000
00010000
,
00022000
00000000
00000000
00000000
,
00000000
00000000
00000000
00000000
,
00000000
00000000
00000000
00000000
,
00000000
00000000
00000000
00000000
,
00000000
00000000
00000000
00000000
,
00033000
00000000
00000000
00000000
,
00000000
00000000
00000000
00000000
;

//---------------dance-double - ----------------
#NOTES:
     dance-double:
     :
     Medium:
     7:
     :
00000000
00000000
00000000
00000000
,
00000000
00000000
00000000
00000000
,
00000000
00000000
00000000
00000000
,
00000000
00000000
00000000
00000000
,
00000000
00000000
00000000
00000000
,
00100000
00100000
10000000
01000000
,
00010000
00001000
00000100
00000000
,
00000010
00000010
00000001
00000100
,
00001000
00010000
01000000
00000000
,
00100000
00010000
10000000
00100000
,
01000000
00010000
10000000
00000000
,
01000000
00010000
00001000
00000010
,
00001000
00010000
00001000
00000100
,
00000010
00000001
00001100
00000000
,
00000010
00001000
00000101
00000000
,
00001000
00010000
00100000
10000000
,
01010000
00000000
00000000
00000000
00100000
00010000
00100000
00000000
,
10000000
00010000
01000000
00001000
,
00100000
00010000
00001000
00000000
,
00000100
00000010
00010000
00000100
,
00000001
00000100
00001000
00000100
,
00001000
00010000
00011000
00000000
,
01000000
10000000
01010000
00000000
,
00100000
00010000
00100000
10000000
,
01100000
00000000
00000000
00000000
00010000
10000000
00010000
00000000
,
00001000
00000100
00000010
00001001
,
00000010
00000100
00000001
00001100
,
00000010
00001000
00010000
00011000
,
00100000
10000000
00010000
01100000
,
10000000
01000000
02020000
03030000
,
00001000
00000010
00000202
00000303
,
00001000
00000100
00000001
00000100
,
00011000
00010010
00011000
00010100
,
00000010
00001000
00000000
00001000
00010000
00000000
00010000
00200000
,
00000000
00000000
00000000
00000000
00000000
00300000
00000000
01000000
,
00000000
00000000
00010000
00000000
10000000
00000000
01000000
00100000
,
00000000
00010000
00001000
00000000
,
00000100
00000010
00000001
00001000
,
00000010
00000000
00000100
00000000
00000001
00000000
00000000
00001000
,
00000000
00000000
00010000
00000000
00100000
00000000
00010000
10000000
,
00000000
00100000
01000000
00000000
,
00100000
10000000
01000000
00010000
,
00001000
00000000
00000010
00000000
00000001
00000000
00000000
00000100
,
00000000
00000000
00000010
00000000
00000100
00000000
00000001
00000010
,
00000000
00001000
00010000
00000000
,
00001000
00000100
00001000
00010000
,
00100000
00000000
10000000
00000000
00010000
00000000
00000000
11000000
,
00000000
00000000
01010000
00000000
00011000
00000000
00000000
00101000
,
00000000
00010100
00000110
00000000
,
00010000
00001000
00000100
00000001
,
00000010
00000001
00000100
00001000
,
00000010
00000010
00000010
00000010
,
00000010
00000010
00000010
00000010
,
00000100
00000100
00000001
00000010
,
00001000
00010000
00100000
00000000
,
01000000
01000000
10000000
00100000
,
00010000
00001000
00000010
00000000
,
00000100
00000100
00000001
00000010
,
00001000
00010000
00100000
00000000
,
01000000
01000000
10000000
00100000
,
00010000
00000000
00001000
00000000
00000010
00000000
00000000
00000100
,
00000000
00000000
00000010
00000000
00000100
00000000
00000001
00000010
,
00000000
00001000
00010000
00000000
,
00001000
00000100
00001000
00010000
,
00100000
00000000
10000000
00000000
00010000
00000000
00000000
11000000
,
00000000
00000000
10100000
00000000
00110000
00000000
00000000
00011000
,
00000000
00001010
00000011
00000000
,
00010000
00001000
00000100
00000001
,
00000010
00000000
00000100
00000000
00000010
00000000
00000200
00002000
,
00000000
00000000
00000000
00000000
,
00000000
00000000
00000000
00000000
,
00000000
00000000
00000000
00000000
,
00000000
00000000
00000000
00000000
,
00000000
00000000
00000000
00000000
,
00003300
00000000
00000000
00000000
,
00000000
00000000
00000000
00000000
;

//---------------dance-double - ----------------
#NOTES:
     dance-double:
     :
     Hard:
     10:
     :
00000000
00000000
00000000
00000000
,
00000000
00000000
00000000
00000000
,
00000000
00000000
00000000
00000000
,
00000000
00000000
00000000
00000000
,
00000000
00000000
00000000
00000000
,
00000011
00000011
00001100
00000011
,
00001010
00011000
00110000
00000000
,
10100000
10100000
01010000
10100000
,
01010000
00011000
00001010
00000000
,
00000100
00001000
00000010
00000001
,
00000100
00001000
00010000
00000000
00100000
00000000
00000000
00000000
,
01000000
00010000
01000000
10000000
,
00100000
00010000
00001000
00000000
00000010
00000001
00001000
00000000
,
00000001
00000100
00000001
00000001
,
00000100
00001000
00010000
00100000
,
00010000
00001000
00010000
01000000
,
10010000
00000000
00000000
00000000
00100000
01000000
00100000
00000000
,
00010000
00001000
00000010
00000001
,
00001000
00000001
00000100
00000000
00000001
00000000
00000000
00000000
,
00000100
00001000
00010000
00100000
,
00010000
00001000
00000100
00000000
00001000
00010000
01000000
00000000
,
00100000
01000000
10000000
10000000
,
00100000
00010000
00001000
00000100
,
00000001
00000100
00000010
00000100
,
00001001
00000000
00000000
00000000
00000100
00000010
00000100
00000000
,
00001000
00010000
00100000
10000000
,
01010000
00000000
00000000
00000000
00100000
00010000
10000000
00000000
,
01000000
00010000
00001000
00000010
,
00000110
00000000
00000000
00000000
00001000
00000001
00000100
00000000
,
00000010
00001000
00011000
00000000
,
01000000
10000000
01010000
00000000
,
00001000
00000010
00000001
00000100
,
00011000
00000000
00010000
01000000
,
00100000
00010000
00000000
10000000
00100000
00000000
00020000
00002000
,
00000000
00000000
00000000
00000000
00000000
00033000
00000000
00001010
,
00000000
00000100
00000001
00000000
00001100
00000000
00000000
00000011
,
00000000
00001000
00010000
00000000
00110000
00000000
00000000
00000000
,
10000000
00100000
01000000
00100000
,
00010000
00000000
00001000
00000000
00010000
00000000
01000000
10000000
,
00000000
01000000
00010000
00000000
00001000
00010000
00001000
00000010
,
00000000
00000001
00001000
00000000
00000010
00000100
00000001
00000000
,
00001000
00000100
00000001
00000100
,
00001000
00000000
00010000
00000000
00100000
00000000
00000000
11000000
,
00000000
00010000
00100000
00000000
11000000
00000000
00000000
01010000
,
00000000
00001000
00000010
00000000
00001001
00000000
00000000
00000000
,
00000100
00001000
00000010
00010000
,
00001000
00000000
00000100
00000000
00000001
00000000
00000010
00000100
,
00000000
00010000
00001000
00000000
01010000
00000000
00100000
00010000
,
00000000
10000000
00100000
00000000
01010000
00000000
00000000
00000000
,
00100000
01000000
00010000
00100000
,
01000000
00010000
00001000
00000010
,
00001002
00001000
00001000
00001000
,
00000100
00000100
00000100
00000103
,
00000011
00000011
00001100
00000011
,
00000100
00001000
00010000
00100000
,
10100000
10100000
01010000
10100000
,
01000000
00010000
00001000
00000010
,
00000011
00000011
00001100
00000011
,
00000100
00001000
00010000
00100000
,
10100000
10100000
01010000
10100000
,
01010000
00000000
00011000
00000000
00001010
00000000
00000000
00000010
,
00000000
00000100
00000001
00000000
00001100
00000000
00000001
00000010
,
00000000
00001000
00010000
00000000
00110000
00000000
00000000
00000000
,
10000000
00100000
01000000
00100000
,
00010000
00000000
00001000
00000000
00010000
00000000
01000000
10000000
,
00000000
01000000
00010000
00000000
00001000
00010000
00001000
00000100
,
00000000
00000001
00001000
00000000
00000010
00000100
00000001
00000000
,
00001000
00000100
00000001
00000100
,
00001000
00000000
00010000
00000000
00100000
00000000
20000000
02000000
,
00000000
00000000
00000000
00000000
,
00000000
00000000
00000000
00000000
,
00000000
00000000
00000000
00000000
,
00000000
00000000
00000000
00000000
,
00000000
00000000
00000000
00000000
,
33000000
00000000
00000000
00000000
,
00000000
00000000
00000000
00000000
;
