#TITLE:The Heavens Above;
#ARTIST:U1 /F Anneliese;
#BANNER:The Heavens Above.png;
#BACKGROUND:The Heavens Above-bg.png;
#JACKET:The Heavens Above-jacket.png;
#MUSIC:The Heavens Above.ogg;
#SAMPLESTART:69.857;
#SAMPLELENGTH:20;
#BPMS:0=140;
#BGCHANGES:;

//---------------dance-single - ----------------
#NOTES:
     dance-single:
     :
     Beginner:
     3:
     :
0000
0000
0000
0000
,
0000
0000
0000
0000
,
0000
0000
0000
0000
,
0000
0000
0000
0000
,
0000
0000
0000
0000
,
1000
0000
0000
0000
,
0001
0000
0000
0000
,
0100
0000
0000
0000
,
0010
0000
0000
0000
,
0001
0000
0001
0000
,
0100
0000
0100
0000
,
1000
0000
1000
0000
,
0010
0000
0010
0000
,
0001
0000
1000
0000
,
0001
0000
1000
0000
,
0100
0100
0000
0000
,
0001
0001
0000
0000
,
0020
0000
0030
0000
,
0020
0000
0030
0000
,
0200
0000
0300
0000
,
0200
0000
0300
0000
,
0100
0000
0100
0000
,
0001
0000
0001
0000
,
0010
0000
0010
0000
,
1000
0000
1000
0000
,
0001
0001
0000
0000
,
0100
0100
0000
0000
,
1000
1000
0000
0000
,
0001
0001
0000
0000
,
0100
0000
0100
0000
,
0010
0000
0010
0000
,
0001
0000
0001
0000
,
0010
0000
0010
0000
,
1000
0000
0000
0000
,
0100
0000
0000
0000
,
0001
0000
0000
0000
,
1000
0000
0000
0000
,
0010
0000
0000
0000
,
0001
0000
0001
0000
,
0100
0000
0100
0000
,
1000
0000
1000
0000
,
0010
0000
0000
0000
,
0001
0000
0100
0000
,
0010
0000
0000
0000
,
1000
0000
0100
0000
,
0001
0000
0000
0000
,
1000
0000
0100
0000
,
0001
0000
0000
0000
,
0001
0000
0100
0000
,
1000
0000
0000
0000
,
0010
0000
0000
0000
,
1000
0000
0000
0000
,
0001
0000
0000
0000
,
0001
0000
1000
0000
,
0001
0000
1000
0000
,
0010
0000
0010
0000
,
0100
0100
0100
0000
,
1001
0000
0000
0000
,
0000
0000
0000
0000
;

//---------------dance-single - ----------------
#NOTES:
     dance-single:
     :
     Easy:
     7:
     :
0000
0000
0000
0000
,
0000
0000
0000
0000
,
0000
0000
0000
0000
,
0000
0000
0000
0000
,
0000
0000
0000
0000
,
0100
0000
1000
0100
,
0001
0000
0100
0001
,
0100
1000
0010
0001
,
0010
1000
0001
0100
,
2000
3100
0002
0103
,
0010
1000
0020
1000
,
1030
0010
1000
0100
,
0001
0100
2000
0100
,
3100
0010
0001
0100
,
1000
0100
0002
0010
,
0013
0001
0100
1000
,
0100
0001
0010
0001
,
0022
0003
2000
0030
,
0200
3000
0002
0303
,
0202
0303
2020
3000
,
1000
1030
0100
0100
,
0001
0001
0010
0010
,
1020
1000
1000
1030
,
0201
0001
0001
0301
,
0010
0001
0010
1000
,
0200
0301
0200
1300
,
0100
0001
0020
1000
,
1030
0010
0001
0100
,
1000
0100
0002
0100
,
0103
0010
1000
0100
,
0001
0100
2000
0100
,
3100
0010
0001
0010
,
0001
0200
0301
0100
,
2200
3000
0002
0300
,
0020
0033
0001
0001
,
0022
0033
2200
3000
,
1000
1300
0100
0100
,
0001
0001
0010
0010
,
1000
0100
1000
0100
,
0010
0001
0010
0001
,
1000
0100
0001
0100
,
2020
0000
0000
0000
,
0000
3030
0010
1000
,
0002
0000
0200
0303
,
1000
0100
1000
0200
,
0002
0303
0010
1000
,
0100
0001
0100
1000
,
0200
0000
0002
0303
,
0010
1000
0100
0002
,
0020
0033
0001
0100
,
0010
1000
0001
0100
,
0202
0003
2000
3300
,
0010
1000
0100
0001
,
0200
0000
2000
0300
,
0020
3000
0031
0010
,
2000
0000
0002
3003
,
0010
0001
1000
0100
,
1001
0000
0000
0000
,
0000
0000
0000
0000
;

//---------------dance-single - ----------------
#NOTES:
     dance-single:
     :
     Medium:
     9:
     :
0000
0000
0000
0000
,
0000
0000
0000
0000
,
0000
0000
0000
0000
,
0000
0000
0000
0000
,
0000
0000
0000
0000
,
1000
0000
0100
1000
0001
0000
0010
0001
,
0100
0000
0001
0100
0010
0000
1000
0010
,
1000
0000
0010
1000
0001
0000
0100
0001
,
0010
0000
0001
0010
0100
0000
1000
0100
,
1000
0000
0010
1000
0001
0000
0100
0001
,
0010
1000
0100
1000
,
0010
0000
0001
0010
0100
0000
1000
0100
,
0010
0001
0100
1000
,
0100
0000
0001
0100
0010
0000
1000
0010
,
1000
0100
0001
0100
,
1000
0000
0100
1000
0001
0000
0010
0001
,
0100
1000
0100
0001
,
0020
0000
0000
0032
0200
0000
0000
0000
,
0300
1000
0000
0013
,
0200
0000
0000
2300
0020
0000
0030
0000
,
0002
3000
0020
0003
,
2000
0030
0020
3000
,
0002
0030
0200
0003
,
2300
0000
0000
3100
0002
0000
0000
0013
,
2000
3010
0001
0100
,
0001
0000
0010
0001
1000
0000
0100
1000
,
0010
0001
0100
0001
,
0010
0000
1000
0010
0100
0000
0001
0100
,
0010
1000
0100
0001
,
0100
0000
1000
0100
0010
0000
0001
0010
,
0001
0100
1000
0100
,
0001
0000
0100
0001
1000
0000
0010
1000
,
0100
0001
0100
1000
,
0020
0000
0000
2030
0200
0000
0000
0000
,
0300
0001
0000
3010
,
0200
0000
0000
0302
0020
0000
0030
0000
,
2000
0003
0020
3000
,
0002
0030
0020
0003
,
2000
0030
0200
3000
,
0302
0000
0000
0103
2000
0000
0000
3010
,
0002
0013
1000
0100
,
0202
0000
0003
1000
,
0002
0000
0300
0013
2000
0000
0000
3010
,
0022
0000
0033
0202
0000
0003
0000
1300
,
0200
0000
0000
0302
0100
0000
0013
0000
,
2200
0000
3000
0001
,
2000
0000
0300
3010
0002
0000
0000
0013
,
2020
0000
3030
2200
0000
3000
0000
0301
,
0200
0000
0000
2300
0100
0000
3010
0000
,
0100
0001
0010
0000
0100
1000
0010
0000
,
0100
0001
0010
0000
0100
1000
0010
0000
,
0202
0000
0303
0022
0000
0000
0000
0000
,
0000
0000
0000
0030
0000
1003
0100
0000
,
0010
0001
0100
0000
0010
1000
0100
0000
,
0010
0001
0100
0000
0010
1000
0100
0000
,
0010
0001
0010
0001
0010
0100
1000
0100
,
1000
0010
1000
0010
0100
0001
0010
1000
,
0010
0000
0000
0000
,
0000
0000
0000
0000
;

//---------------dance-single - ----------------
#NOTES:
     dance-single:
     :
     Hard:
     11:
     :
0000
0000
0000
0000
,
0000
0000
0000
0000
,
0000
0000
0000
0000
,
0000
0000
0000
0000
,
0000
0000
0000
0000
,
0100
0000
0000
0001
0000
0000
0010
0000
0100
0000
0000
1000
0000
0000
0010
0000
,
0100
0000
0000
1000
0000
0000
0010
0000
0100
0000
0000
0001
0000
0000
0100
0000
,
1000
0000
0000
0010
0000
0000
0100
0000
1000
0000
0000
0001
0000
0000
0010
0000
,
0100
0000
0000
0001
0000
0000
0010
0000
1000
0000
0000
0010
0000
0000
0100
0000
,
1000
0000
0010
0000
0100
0010
1000
0000
,
0100
0000
0010
0000
1000
0001
0010
0000
,
1000
0000
0010
0000
0001
0010
0100
0000
,
0010
0000
1000
0000
0100
0010
1000
0000
,
0010
0000
0001
0000
0010
0001
1000
0000
,
0100
0000
1000
0000
0010
0001
0100
0000
,
1000
0000
0010
0000
0100
0001
1000
0000
,
0010
0000
0000
0000
0100
0000
1000
0000
0010
0000
0000
0100
0000
0000
0010
0000
,
2200
0000
3300
0022
0000
0000
0033
0000
,
1000
0000
0000
0010
0000
0000
0100
0000
0010
0000
0000
1000
0000
0000
0001
0000
,
0010
0000
0000
0100
0000
0000
0001
0000
0010
0000
0000
0100
0000
0000
1000
0000
,
0010
0000
0000
0100
0000
0000
0001
0000
0010
0000
0000
0100
0000
0000
1000
0000
,
0010
0000
0000
0001
0000
0000
0010
0000
1000
0000
0000
0100
0000
0000
0001
0000
,
0010
0000
0000
0001
0000
0000
1000
0000
0010
0000
0000
0100
0000
0000
0001
0000
,
0010
0000
0000
1000
0000
0000
0001
0000
0010
0000
0000
0100
0000
0000
1000
0000
,
0010
0000
0000
0001
0000
0000
0100
0000
1000
0000
0000
0010
0000
0000
0100
0000
,
2000
0000
3100
0001
0010
0100
1000
0000
,
0002
0000
1003
0100
0010
1000
0001
0000
,
0200
0000
0310
1000
0010
0100
0001
0000
,
0020
0000
0031
0100
0010
1000
0010
0000
,
2000
0000
3001
0010
0100
1000
0010
0000
,
0002
0000
0103
1000
0010
0001
0100
0000
,
2000
0000
3010
0001
0100
0001
1000
0000
,
0020
0000
0000
0000
0031
0000
0100
0000
1000
0000
0000
0010
0000
0000
0100
0000
,
2020
0000
3030
0202
0000
0000
0303
0000
,
1000
0000
0010
0001
0100
0001
0010
0000
,
0202
0000
0303
2020
0000
0000
3030
0000
,
0100
0000
0000
0001
0000
0000
0010
0000
0100
0000
0000
1000
0000
0000
0001
0000
,
0100
0000
0000
0001
0000
0000
0010
0000
1000
0000
0000
0001
0000
0000
0100
0000
,
1000
0000
0000
0001
0000
0000
0010
0000
1000
0000
0000
0010
0000
0000
0001
0000
,
0100
0000
0000
1000
0000
0000
0010
0000
0100
0000
0000
1000
0000
0000
0010
0000
,
0100
0000
0000
0001
0000
0000
0010
0000
1000
0000
0000
0001
0000
0000
0100
0000
,
1000
0001
0100
0010
1000
0001
0100
0000
,
0010
0001
1000
0100
0010
1000
0100
0000
,
0010
0001
1000
0010
0100
0001
1000
0000
,
0100
0001
0010
1000
0100
0010
1000
0000
,
0010
0001
1000
0010
0100
0001
1000
0000
,
0100
0001
0010
0100
1000
0001
0010
0000
,
0100
0001
0010
1000
0100
0010
1000
0000
,
0100
0000
0000
0000
0010
0000
0001
0000
1000
0000
0000
0100
0000
0000
0010
0000
,
2000
0000
3200
0000
0301
0010
1000
0001
,
0200
0000
0320
0000
1030
0001
0010
0100
,
2000
0000
3200
0000
0310
1000
0100
0001
,
0020
0000
0032
0000
0103
1000
0001
0100
,
0020
0000
2030
0000
3010
0001
1000
0010
,
0200
0000
0320
0000
1030
0001
0010
0001
,
2000
0000
3002
0000
0013
0100
0001
1000
,
0020
0000
0000
0000
0230
0000
0001
0000
1300
0000
0000
0010
0000
0000
0001
0000
,
2200
0000
0000
3300
,
0000
0000
0000
0000
;

//---------------dance-single - ----------------
#NOTES:
     dance-single:
     :
     Challenge:
     13:
     :
0000
0000
0000
0000
,
0000
0000
0000
0000
,
0000
0000
0000
0000
,
0000
0000
0000
0000
,
0000
0000
0000
0000
,
1000
0000
0000
0010
0000
0000
1000
0000
0001
0000
0000
0010
0000
0000
0011
0000
,
1000
0000
0000
0100
0000
0000
1000
0000
0001
0000
0000
0100
0000
0000
0101
0000
,
1000
0000
0000
0001
0000
0000
1000
0000
0010
0000
0000
0100
0000
0000
0110
0000
,
0001
0000
0000
0001
1000
0000
0000
1000
0010
0000
0000
0010
0100
0000
0000
0100
,
0001
0000
0000
0010
0001
0000
1000
0000
0100
0000
0001
0000
0100
0000
0010
0000
,
0001
0000
0100
0000
0010
0000
1000
0000
0100
0010
0000
0100
0010
0000
0001
0000
,
0100
0000
0000
0001
1000
0000
0100
0000
0001
0000
0100
0000
0010
0000
0001
0000
,
0100
1000
0100
0001
0010
0100
1000
0001
,
0100
0000
0000
0010
1000
0000
0100
0000
0001
0000
0100
0000
1000
0000
0001
0000
,
0100
0000
0010
0000
0001
0000
0010
0000
1000
0001
0000
1000
0001
0000
0100
0000
,
0010
0000
0000
1000
0001
0000
0100
0000
1000
0000
0100
0000
0001
0000
0010
0000
,
1000
0010
0001
1000
0010
0100
0010
1000
,
2001
0000
3010
1000
0100
0010
0001
0100
,
0001
0010
0001
1000
0001
0010
0001
1000
,
1002
0000
0000
0000
0103
0000
0010
0000
1000
0000
0000
0100
1000
0000
0001
0000
,
0010
0000
0000
0001
0000
0000
0100
0000
0010
0000
0000
1000
0000
0000
0001
0000
,
1000
0000
0000
0010
0000
0000
0100
0000
0001
0000
0000
0010
0000
0000
0001
0000
,
0100
0000
0000
0010
0000
0000
1000
0000
0100
0000
0000
1000
0000
0000
0001
0000
,
0010
0000
0001
1000
0000
0001
1000
0000
0010
0000
0100
0001
0000
0100
0001
0000
,
0010
0000
0100
1000
0000
0100
1000
0000
0001
0000
0100
0010
0000
0100
0010
0000
,
0110
0000
0000
0001
0010
0000
1000
0000
0010
0000
0100
0000
1000
0000
0001
0000
,
0100
0000
0010
0000
1000
0000
0001
0000
0010
0100
0000
0100
1000
0000
0001
0000
,
0100
0000
0000
0010
1000
0000
0001
0000
0100
0000
1000
0000
0100
0000
0010
0000
,
1000
0100
0001
0100
1000
0010
0100
0001
,
0010
0000
0000
0001
0100
0000
0001
0000
1000
0000
0100
0000
0010
0000
0100
0000
,
0001
0000
0100
0000
1000
0000
0001
0000
0100
0010
0000
0010
1000
0000
0001
0000
,
0010
0000
0000
0100
1000
0000
0010
0000
1000
0000
0001
0000
0010
0000
0100
0000
,
0001
0100
0010
0100
1000
0010
1000
0001
,
0011
0000
0000
0010
0001
0000
1000
0000
0010
0000
0000
0100
0000
0000
0001
0000
,
1000
0000
0000
0100
0000
0000
0010
0000
0001
0000
0000
1000
0000
0000
0010
0000
,
1010
0000
0000
1000
0001
0000
0010
0000
0100
0000
0000
1000
0000
0000
0010
0000
,
0100
0000
0000
0010
0000
0000
1000
0000
0100
0000
0000
0010
0000
0000
0001
0000
,
0010
0000
0000
0001
1000
0000
0001
0000
0100
0000
0000
0010
1000
0000
0010
0000
,
0100
0000
0000
0001
0010
0000
0001
0000
1000
0000
0000
0010
0100
0000
0010
0000
,
1000
0000
0100
0010
0000
0000
0001
0000
1000
0000
0001
0100
0000
0000
0010
0000
,
1000
0000
0100
1000
0000
0000
0001
0000
0100
0000
0010
0000
1000
0001
1000
0000
,
1001
0010
1000
0100
1000
0001
0100
1000
,
0100
0000
0001
0000
0010
0000
0100
0000
1000
0010
0000
0010
1000
0000
0001
0000
,
0100
1000
0100
0010
1000
0001
1000
0100
,
0010
0000
0000
0001
0000
0000
1000
0000
0000
0001
0000
0100
0010
0000
1000
0000
,
1100
0001
0100
1000
0100
0010
1000
0001
,
0010
0000
0100
0000
1000
0000
0010
0000
0100
0001
0000
0001
0100
0000
0010
0000
,
1000
0001
1000
0010
0100
1000
0100
0001
,
0010
0000
0000
0100
0000
0000
1000
0000
0000
0001
0000
1000
0001
0000
0100
0000
,
0110
0010
1000
0100
1000
0001
0010
1000
,
0010
0000
0001
0000
1000
0000
0010
0000
0100
0001
0000
1000
0100
0000
0010
0000
,
0001
0100
0010
1000
0100
0010
0001
0100
,
0001
0000
0000
1000
0000
0000
0100
0000
1000
0010
0000
0100
0001
0000
1000
0000
,
1100
0010
0100
1000
0100
0010
1000
0001
,
0010
0000
0100
0000
0010
0000
0001
0000
1000
0100
0000
0100
1000
0000
0001
0000
,
0010
0001
1000
0001
0100
0010
1000
0100
,
1000
0000
0010
0000
0100
0000
1000
0000
0100
0000
0001
0000
0010
0100
0010
0200
,
0020
0000
0000
0000
,
0000
0000
0000
0000
,
0000
0000
0000
0000
,
0330
0000
0000
0000
;

//---------------dance-double - ----------------
#NOTES:
     dance-double:
     :
     Easy:
     6:
     :
00000000
00000000
00000000
00000000
,
00000000
00000000
00000000
00000000
,
00000000
00000000
00000000
00000000
,
00000000
00000000
00000000
00000000
,
00000000
00000000
00000000
00000000
,
00000100
00000000
00000001
00000100
,
00001000
00000000
00010000
00100000
,
10000000
01000000
00010000
00001000
,
00000010
00000001
00000100
00001000
,
00020000
01030000
20000000
31000000
,
00010000
00001000
00000200
00001000
,
00001300
00010000
01000000
10000000
,
01000000
00010000
00002000
00000100
,
00003100
00000001
00000100
00001000
,
00010000
00100000
20000000
01000000
,
31000000
00010000
00001000
00000010
,
00000001
00000100
00001000
00010000
,
00220000
00030000
20000000
00300000
,
02000000
30000000
00020000
03030000
,
00022000
00033000
00002200
00003000
,
00000001
00000301
00000100
00001000
,
00010000
00010000
00100000
00100000
,
10000000
00100000
00010000
00001000
,
00000010
00000001
00000010
00001000
,
00010000
01000000
10000000
01000000
,
00020000
00031000
00000200
00000301
,
00000100
00001000
00020000
00100000
,
00130000
10000000
01000000
00010000
,
00001000
00000010
00000002
00000100
,
00000103
00001000
00010000
01000000
,
10000000
01000000
00020000
00001000
,
00031000
00000010
00000001
00000010
,
00001000
00020000
10030000
01000000
,
00220000
00300000
00002000
00030000
,
00000200
00003300
00000001
00000100
,
00002020
00003030
00022000
00003000
,
01000000
01030000
10000000
10000000
,
01000000
00010000
00001000
00000010
,
00000001
00000010
00001000
00010000
,
00100000
10000000
00100000
00010000
,
00001000
00000010
00000001
00000100
,
00002200
00000000
00000000
00000000
,
00000000
00003300
00010000
00100000
,
00020000
00000000
02000000
03030000
,
00010000
00001000
00000010
00002000
,
00000200
00003300
00010000
00100000
,
10000000
00100000
00010000
00001000
,
00000020
00000000
00000002
00000033
,
00000100
00001000
00010000
02000000
,
20000000
33000000
01000000
00010000
,
00001000
00000100
00000001
00000100
,
00002200
00000300
00020000
00033000
,
01000000
10000000
01000000
00010000
,
00002000
00000000
00000020
00003000
,
00000000
00000030
00001000
00010000
,
00200000
00000000
20000000
30300000
,
00100000
00010000
00001000
00000100
,
00001001
00000000
00000000
00000000
,
00000000
00000000
00000000
00000000
;

//---------------dance-double - ----------------
#NOTES:
     dance-double:
     :
     Medium:
     10:
     :
00000000
00000000
00000000
00000000
,
00000000
00000000
00000000
00000000
,
00000000
00000000
00000000
00000000
,
00000000
00000000
00000000
00000000
,
00000000
00000000
00000000
00000000
,
00100000
00000000
10000000
01000000
00010000
00000000
00001000
01000000
,
00001000
00000000
00010000
00000100
00000001
00000000
00000100
00000100
,
00000010
00000000
00000001
00000100
00001000
00000000
00010000
00000100
,
00010000
00000000
00001000
01000000
10000000
00000000
01000000
01000000
,
00100000
10000000
01000000
00000000
00010000
01000000
00010000
00000000
,
00000010
00001010
00000001
00000101
,
00001000
00000100
00001000
00000000
00010000
00100000
10000000
00000000
,
02000000
00100000
03010000
00001000
,
00000010
00000001
00000100
00000000
00001000
00000100
00001000
00000000
,
00100000
00110000
10000000
11000000
,
00010000
01000000
00010000
00000000
00001000
00000010
00000001
00000000
,
00000200
00000010
00001300
00010000
,
02000000
00000000
00000000
13000000
00200000
00000000
00000000
00000000
,
00000000
00020000
00300000
00001000
,
00032000
00000000
00000000
00003010
00000002
00000000
00000000
00000000
,
00000200
00000003
00002000
00000300
,
00020000
00003000
02000000
00030000
,
20000000
03000000
00200000
30000000
,
00020000
00000000
00300000
00001000
00032000
00000000
00000000
00003010
,
00000001
00000000
00000100
00000000
00001000
00000000
00010000
00001000
,
00000010
00000001
00000100
00000000
00001000
00000100
00001000
00000000
,
00100000
00110000
10000000
11000000
,
00010000
01000000
00010000
00000000
00001000
00000010
00000001
00000000
,
00000200
00000010
00001300
00010000
,
00100000
10000000
01000000
00000000
00010000
01000000
00010000
00000000
,
00000010
00001010
00000001
00000101
,
00001000
00000100
00001000
00000000
00010000
00100000
10000000
00000000
,
02000000
00100000
03010000
00001000
,
00000200
00000000
00000000
00000301
00000020
00000000
00000000
00000000
,
00000000
00002000
00000030
00010000
,
00023000
00000000
00000000
00130000
20000000
00000000
00000000
00000000
,
02000000
30000000
00020000
03000000
,
00002000
00030000
00000200
00003000
,
00000002
00000300
00000020
00000003
,
00002000
00000000
00000030
00010000
00023000
00000000
00000000
00130000
,
10000000
01000000
00010000
01000000
,
00200000
00000000
00000000
00010000
,
10000000
00000000
00300000
01000000
00020000
00000000
00030000
00010000
,
00000020
00000000
00000030
00002020
00000000
00000000
00000030
00003001
,
00000020
00000000
00000000
00001030
00000200
00000000
00001300
00000000
,
00000020
00000000
00000000
00001000
,
00000001
00000000
00000030
00000100
00002000
00000000
00003000
00001000
,
00200000
00000000
00300000
00220000
00000000
00000000
00300000
10030000
,
00200000
00000000
00000000
00310000
02000000
00000000
03010000
00000000
,
00001000
00010000
00001000
00000000
00000010
00000001
00000100
00000000
,
00001000
00000100
00001000
00000000
00010000
01000000
10000000
00000000
,
00200000
00000000
00000000
00020000
00000000
00000000
00000000
00000000
,
00000000
00000000
00000000
00030000
00000000
10300000
01000000
00000000
,
00010000
00001000
00010000
00000000
00100000
10000000
01000000
00000000
,
00010000
01000000
00010000
00000000
00001000
00000100
00000001
00000000
,
00000010
00001000
00010000
00001000
01000000
00010000
00100000
00000000
,
10000000
01000000
00010000
00001000
00000100
00001000
00000100
00000001
,
00000010
00000000
00000000
00000000
,
00000000
00000000
00000000
00000000
;

//---------------dance-double - ----------------
#NOTES:
     dance-double:
     :
     Hard:
     12:
     :
00000000
00000000
00000000
00000000
,
00000000
00000000
00000000
00000000
,
00000000
00000000
00000000
00000000
,
00000000
00000000
00000000
00000000
,
00000000
00000000
00000000
00000000
,
01000000
00000000
00000000
00010000
00000000
00000000
00100000
00000000
01000000
00000000
00000000
00010000
00000000
00000000
00001000
00000000
,
00000100
00000000
00000000
00000010
00000000
00000000
00000100
00000000
00000001
00000000
00000000
00001000
00000000
00000000
00000100
00000000
,
00010000
00000000
00000000
00100000
00000000
00000000
01000000
00000000
10000000
00000000
00000000
00010000
00000000
00000000
00100000
00000000
,
00010000
00000000
00000000
00001000
00000000
00000000
00000100
00000000
00000010
00000000
00000000
00001000
00000000
00000000
00010000
00000000
,
00001000
00000000
01000000
00000000
00100000
01000000
10000000
00000000
,
01000000
00000000
00100000
00000000
10000000
00010000
00001000
00000000
,
00000100
00000000
00000010
00000000
00000001
00001000
00000100
00000000
,
00010000
00000000
00100000
00000000
01000000
00100000
00010000
00000000
,
00001000
00000000
00010000
00000000
00001000
00010000
00000100
00000000
,
00000001
00000000
00000100
00000000
00000010
00001000
00100000
00000000
,
10000000
00000000
00100000
00000000
01000000
00010000
00001000
00000000
,
00010000
00000000
00000000
00000000
00000100
00000000
00000010
00000000
00001000
00000000
00000000
00000100
00000000
00000000
00000010
00000000
,
00002200
00000000
00003300
00220000
00000000
00000000
00330000
00000000
,
10000000
00000000
00000000
00100000
00000000
00000000
01000000
00000000
00100000
00000000
00000000
10000000
00000000
00000000
00010000
00000000
,
00001000
00000000
00000000
00000100
00000000
00000000
00000010
00000000
00000001
00000000
00000000
00000100
00000000
00000000
00000010
00000000
,
00001000
00000000
00000000
01000000
00000000
00000000
00010000
00000000
00100000
00000000
00000000
01000000
00000000
00000000
10000000
00000000
,
00100000
00000000
00000000
00010000
00000000
00000000
00001000
00000000
00000100
00000000
00000000
00000010
00000000
00000000
00000100
00000000
,
00001000
00000000
00000000
00010000
00000000
00000000
01000000
00000000
00100000
00000000
00000000
01000000
00000000
00000000
00010000
00000000
,
00001000
00000000
00000000
00000100
00000000
00000000
00000010
00000000
00000100
00000000
00000000
00001000
00000000
00000000
00010000
00000000
,
00001000
00000000
00000000
00010000
00000000
00000000
01000000
00000000
10000000
00000000
00000000
00100000
00000000
00000000
01000000
00000000
,
00020000
00000000
00031000
00000100
00000010
00000100
00001000
00000000
,
00020000
00000000
10030000
01000000
00100000
01000000
00010000
00000000
,
00002000
00000000
00003100
00000001
00000100
00000010
00001000
00000000
,
00200000
00000000
00310000
01000000
00100000
10000000
00100000
00000000
,
00002000
00000000
00003100
00000001
00000100
00000010
00001000
00000000
,
00020000
00000000
01030000
10000000
00100000
00010000
01000000
00000000
,
00002000
00000000
00003100
00000010
00000100
00000010
00001000
00000000
,
00020000
00000000
00000000
00000000
00130000
00000000
01000000
00000000
10000000
00000000
00000000
00100000
00000000
00000000
01000000
00000000
,
00022000
00000000
00033000
00002200
00000000
00000000
00003300
00000000
,
00000010
00000000
00001000
00010000
00001000
00010000
00100000
00000000
,
02020000
00000000
03030000
20200000
00000000
00000000
30300000
00000000
,
01000000
00000000
00000000
00010000
00000000
00000000
00001000
00000000
00000100
00000000
00000000
00000010
00000000
00000000
00001000
00000000
,
00000100
00000000
00000000
00001000
00000000
00000000
00010000
00000000
01000000
00000000
00000000
00010000
00000000
00000000
01000000
00000000
,
10000000
00000000
00000000
00010000
00000000
00000000
00001000
00000000
00000100
00000000
00000000
00000010
00000000
00000000
00001000
00000000
,
00010000
00000000
00000000
01000000
00000000
00000000
00100000
00000000
01000000
00000000
00000000
10000000
00000000
00000000
00100000
00000000
,
01000000
00000000
00000000
00010000
00000000
00000000
00001000
00000000
00000100
00000000
00000000
00000010
00000000
00000000
00001000
00000000
,
00100000
00010000
01000000
00100000
10000000
00010000
01000000
00000000
,
00001000
00000100
00000001
00000100
00000010
00001000
00000100
00000000
,
00010000
01000000
10000000
00100000
01000000
00010000
00100000
00000000
,
00001000
00000100
00000010
00001000
00010000
00001000
00010000
00000000
,
01000000
00010000
10000000
00100000
01000000
00010000
00001000
00000000
,
00000100
00000010
00000001
00001000
00000100
00010000
00100000
00000000
,
01000000
00010000
00100000
10000000
01000000
00100000
00010000
00000000
,
00001000
00000000
00000000
00000000
00000100
00000000
00000010
00000000
00001000
00000000
00000000
00000100
00000000
00000000
00001000
00000000
,
00020000
00000000
02030000
00000000
03010000
00100000
10000000
00010000
,
00002000
00000000
00003200
00000000
00000301
00000010
00001000
00010000
,
00200000
00000000
02300000
00000000
03100000
10000000
01000000
00010000
,
00200000
00000000
00320000
00000000
01030000
10000000
00010000
00001000
,
00000200
00000000
00000320
00000000
00001030
00010000
01000000
00100000
,
02000000
00000000
03200000
00000000
10300000
00010000
00100000
00010000
,
00002000
00000000
00003200
00000000
00000310
00000001
00001000
00000010
,
00000200
00000000
00000000
00000000
00002300
00000000
00010000
00000000
00013000
00000000
00000000
01000000
00000000
00000000
00010000
00000000
,
22000000
00000000
00000000
33000000
,
00000000
00000000
00000000
00000000
;
