#TITLE:The Great Escape;
#ARTIST:Boys Like Girls;
#BANNER:The Great Escape-bn.png;
#BACKGROUND:The Great Escape-bg.png;
#JACKET:The Great Escape-jacket.png;
#MUSIC:The Great Escape.ogg;
#OFFSET:-0.05;
#SAMPLESTART:36.83;
#SAMPLELENGTH:20;
#DISPLAYBPM:150;
#BPMS:0=150,211.75=160,212=150;
#BGCHANGES:;

//---------------dance-single - ----------------
#NOTES:
     dance-single:
     :
     Beginner:
     3:
     :
0000
0000
0000
0000
,
0000
0000
0000
0000
,
0000
0000
0000
0000
,
0000
0000
0000
0000
,
1001
0000
0000
0000
,
0000
0000
0000
0000
,
0000
0000
0000
0000
,
0000
0000
0000
0000
,
0001
0000
0010
0000
,
0001
0000
0100
0000
,
1000
0000
0010
0000
,
1000
0000
0100
0000
,
0020
0000
0000
0000
,
0000
0000
0030
0000
,
0001
0000
1000
0000
,
0110
0000
0000
0000
,
0010
0000
1000
0000
,
0010
0000
1000
0000
,
0100
0000
0010
0000
,
0001
0000
0100
0000
,
0001
0000
0001
0000
,
0001
0000
0001
0002
,
0000
0000
0003
0000
,
1001
0000
0000
0000
,
1001
0000
0010
0000
,
1000
0000
0100
0000
,
0010
0000
0010
0000
,
0010
0000
0001
0000
,
0100
0000
0110
0000
,
0110
0000
1000
0000
,
0001
0000
0100
0000
,
0100
0000
0000
0010
,
0010
0000
0000
1000
,
1000
0000
0000
0000
,
0001
0000
1000
0000
,
1001
0000
0000
0000
,
0010
0000
0010
0000
,
0100
0000
0100
0000
,
0001
0000
0001
0000
,
1000
0000
1000
0000
,
0100
0000
0010
0000
,
0001
0000
1000
0000
,
0010
0000
0100
0000
,
0001
0000
1000
0000
,
0110
0000
0000
0000
,
0001
0000
0000
0000
,
0010
0000
0001
0000
,
0100
0000
0000
0000
,
0010
0000
1000
0000
,
1000
0000
0000
0000
,
0100
0000
1000
0000
,
0001
0000
0000
0000
,
1001
0000
0000
0000
,
1001
0000
1000
0000
,
0100
0000
0010
0000
,
0001
0000
0001
0000
,
0001
0000
0100
0000
,
0010
0000
0110
0000
,
0110
0000
1000
0000
,
0100
0000
0100
0000
,
0100
0000
0000
1000
,
1000
0000
0000
0001
,
0001
0000
0000
0000
,
1000
0000
0010
0000
,
1001
0000
0000
0000
,
0110
0000
0000
0000
;

//---------------dance-single - ----------------
#NOTES:
     dance-single:
     :
     Easy:
     7:
     :
0000
0000
0000
0000
,
0000
0000
0000
0000
,
0000
0000
0000
0000
,
0000
0000
0000
0000
,
1001
0010
1000
0001
,
1000
0100
0010
0001
,
0100
0010
1000
0001
,
0100
0010
0110
1000
,
0001
0010
0001
0100
,
1000
0010
0100
0000
,
0010
1000
0100
0010
,
0001
0100
0001
1001
,
0110
1000
0010
0100
,
0001
0010
0001
1000
,
0010
0010
1000
0001
,
0100
0010
1000
0001
,
0010
1001
1001
0100
,
0010
1000
0100
0000
,
1000
0110
0110
0001
,
0010
0001
0100
0000
,
0020
0030
2000
3000
,
0200
0300
0010
0002
,
1000
1000
1000
1003
,
2002
0003
0010
3010
,
1001
0010
1000
0100
,
0110
0010
0001
0100
,
0110
0001
1001
0100
,
0110
0010
0001
0100
,
1001
0010
1000
0100
,
0110
0010
0001
0100
,
1001
0001
0110
0010
,
1001
0010
1000
0100
,
0110
0010
0010
0010
,
0110
0010
0010
0010
,
0001
0100
1000
0100
,
1001
0000
2000
3002
,
0013
0000
0000
0001
0000
0000
0100
0000
,
2000
0000
0001
3001
,
1000
0000
0000
0001
0000
0000
0010
0000
,
0200
0000
1000
1300
,
0001
0000
0000
0100
0000
0000
1000
0000
,
0020
0000
0100
0130
,
0010
0000
0000
1000
0000
0000
0100
0000
,
0000
0002
0000
0000
0010
0000
0013
0000
,
1001
0000
0100
0000
,
0010
0000
1000
0000
,
0001
0000
0100
0000
,
0010
0000
1000
0000
,
0100
0000
0010
0000
,
0001
0000
0100
0000
,
1000
0000
0001
0000
,
0100
0010
0100
0010
,
0220
0030
0010
0310
,
1001
0001
0010
0100
,
0110
0010
0001
0100
,
1001
1000
1001
0010
,
0110
0100
0001
0010
,
0110
0001
0100
1000
,
1001
0010
1000
0100
,
0110
0001
0110
1000
,
1001
0010
0100
0001
,
0110
1000
1000
1000
,
0001
0001
0001
0001
,
0100
0100
0010
1000
,
1001
0000
2000
0002
,
0000
0000
0000
0000
,
0000
0000
0000
0000
,
3003
0000
0000
0000
;

//---------------dance-single - ----------------
#NOTES:
     dance-single:
     :
     Medium:
     9:
     :
0000
0000
0000
0000
,
0000
0000
0000
0000
,
0000
0000
0000
0000
,
0000
0000
0000
0000
,
1001
0000
0000
0000
0010
1000
0100
0000
,
0000
1100
0000
0101
0000
1000
0001
0000
,
0000
0011
0000
0000
1000
0010
1000
0000
,
0001
0100
0000
0001
0100
0000
0001
0100
,
0001
0000
0010
0100
1000
0000
1010
0000
,
1000
0010
0000
0110
0000
0000
0000
0000
,
0000
0000
0001
0010
0001
1000
0100
0000
,
1000
0010
0000
1010
0000
0001
1000
0020
,
0000
0230
0000
0302
0000
1003
0100
0000
,
0011
0000
0001
0200
0000
0320
0000
1030
,
0001
2000
0000
3200
0000
0320
0000
0032
,
0000
0100
1000
0103
,
1000
0001
0100
0000
0101
0000
1100
0000
,
0020
0000
1030
0002
0000
0000
0003
0000
,
0000
1000
0100
0000
0110
0000
0010
0001
,
0100
0010
0000
1001
0000
0000
0000
0000
,
2000
3100
0002
0013
,
2000
3010
0200
0302
,
1000
0000
1000
0000
1003
0001
1000
0001
,
1000
0000
0000
0010
0000
0010
0100
0000
,
1001
0000
1000
0010
0000
0100
0000
0001
,
0110
0000
0000
0010
0000
1000
0000
0001
,
2000
0000
3100
0000
0020
0000
0031
2000
,
0000
3001
0100
0020
0000
2030
0000
3001
,
0012
0000
0103
0000
1020
0000
0000
0230
,
0000
0000
0301
2000
0000
3002
0000
0103
,
0102
0000
0013
0000
2100
0000
0000
3002
,
0000
0000
0100
0000
0103
0010
1000
0001
,
0000
0000
0010
0000
0010
0001
1000
0100
,
0000
0000
1000
0000
1000
0010
0100
0001
,
0010
0100
0000
1000
0000
0001
0000
0100
,
0020
0000
1000
0031
,
0110
0000
0010
1000
0000
0001
0100
0000
,
0001
0010
0001
0000
2100
0000
3100
0000
,
0011
0000
1000
0001
0000
0010
0100
0000
,
1000
0010
1000
0000
0201
0000
0310
0000
,
1010
0000
1000
0100
0000
0010
0001
0000
,
0100
0010
0100
0000
2001
0000
3100
0000
,
0020
0000
0000
2030
0000
0000
3002
0000
,
0000
0203
0000
0320
0000
1030
0001
0000
,
1001
1000
1000
1000
,
0110
0010
0010
0010
,
0011
0001
0101
0100
,
1010
0010
1000
0100
,
1100
0100
0100
0100
,
1010
1000
1000
1000
,
0011
0100
0101
1000
,
0010
0000
0010
0000
0010
0100
0010
0100
,
0010
0000
0000
1100
0000
0001
1000
0000
,
1001
0000
1000
0100
0000
0010
0000
0001
,
0110
0000
0000
1000
0000
0001
0000
1000
,
0020
0000
0130
0000
0002
0000
1003
0020
,
0000
0000
0130
0002
0000
2003
0000
3100
,
2100
0000
3010
0000
0102
0000
0000
2003
,
0000
0000
3100
0020
0000
0032
0000
1003
,
1020
0000
0130
0000
0021
0000
0000
0032
,
0000
0000
1000
0000
1003
0100
0010
0001
,
0000
0000
0001
0000
0001
1000
0010
0100
,
0000
0000
0010
0000
0010
1000
0001
0100
,
0001
0010
0000
0001
0000
0100
0000
1000
,
0020
0000
2030
0002
,
0000
0000
0000
0000
,
0000
0000
0000
0000
,
3003
0000
0000
0000
;

//---------------dance-single - ----------------
#NOTES:
     dance-single:
     :
     Hard:
     12:
     :
0000
0000
0000
0000
,
0000
0000
0000
0000
,
0000
0000
0000
0000
,
0000
0000
0000
0000
,
1001
0000
0000
0000
0000
0000
0000
0000
0010
0100
0000
0100
0010
0000
0000
0000
,
1000
1100
0000
0101
0000
1100
0101
0000
,
0001
0000
0011
0000
0000
0000
1000
0000
0010
0100
0010
0100
0010
0000
1000
0000
,
0001
0010
0001
0000
0000
0000
1000
0010
1000
0000
0000
0000
0001
1000
0001
1000
,
0001
0000
0010
0001
1000
0000
1010
0000
,
0001
1000
0010
1000
0100
0010
0001
0000
,
0010
0000
1000
0001
1000
0010
0100
0000
,
0001
1000
0000
0110
0000
0010
1010
2001
,
0000
3001
0010
0200
0000
1000
1300
0000
,
0010
1000
0010
0200
0000
0001
0301
1000
,
0010
0100
0010
2000
0000
3002
0000
0203
,
0000
0010
0310
1000
0001
0100
0001
0000
,
0010
0100
1100
0000
0011
0000
1000
0001
,
1000
0010
0100
0002
0000
0010
0013
0000
,
0001
0100
1001
0000
0110
0000
1000
0010
,
1000
0000
0001
0000
1000
0000
0200
0000
0000
0000
0310
0000
0001
0100
0001
0100
,
0002
0000
0013
0100
2000
0000
3010
0100
,
0020
0000
1030
0001
0200
0000
0302
0000
,
1003
0001
0100
0010
0001
0010
1000
0100
,
0011
0000
0000
2010
0000
0001
3001
0000
,
2001
0000
3010
1010
0000
1000
0001
0100
,
0210
0000
0301
0101
0000
1000
0010
0100
,
0002
0000
0013
0100
2000
0000
3010
0100
,
0002
0000
1003
0020
0000
2030
0000
3100
,
2100
0000
3001
0010
0002
0000
0103
0020
,
0000
1030
0010
0210
0000
0302
0000
1000
,
2003
0000
3010
1000
0200
0000
0310
0001
,
0100
0010
0100
0001
0000
1000
0001
0100
,
0110
0000
0010
1000
0001
0010
0100
1000
,
1010
0000
1000
0001
1000
0100
0010
0001
,
0100
0020
0000
2030
0000
3002
0000
0013
,
2200
0300
3002
1003
,
1001
0000
0010
1000
0100
0010
0001
0000
,
1000
0010
1000
0010
1000
0001
0100
0000
,
0101
0000
0010
0001
1000
0010
0100
0000
,
0010
1000
0010
1000
0001
0100
0001
0100
,
0110
0000
1000
0100
1000
0001
0010
0000
,
0001
0100
0001
0010
0001
1000
0100
0000
,
1100
0000
0010
1000
0001
0010
0100
0000
,
1000
0010
0100
0002
0000
1003
0100
0000
,
1001
0000
0000
0010
0000
0100
0000
0010
,
1000
0000
0000
0001
0000
0100
0000
0001
,
0020
0030
0002
0003
,
0100
0000
0000
0001
0000
1000
0000
0001
,
0010
0000
0000
0000
0200
0000
0000
2300
,
0000
0000
3001
0100
0000
0100
0000
0100
,
0020
1030
0002
0103
,
0001
0100
0010
1000
0100
1000
0010
0001
,
0011
0000
0000
2100
0000
0001
3001
0000
,
2001
0000
3001
0011
0000
1000
0010
0100
,
0120
0000
1030
1010
0000
0001
0010
0100
,
2000
0000
3001
1000
0020
0000
0130
0001
,
0010
0100
1000
0001
0000
0001
0100
0000
,
0012
0000
1003
0010
0200
0000
0301
0010
,
2000
0000
3100
0120
0000
0032
0000
1000
,
2003
0000
3010
0100
0002
0000
0013
0001
,
1000
0010
1000
0002
0000
0103
0010
1000
,
0101
0000
0001
0010
0001
0100
0010
1000
,
1100
0000
1000
0010
1000
0100
0010
0001
,
0100
0020
0000
2030
0000
3002
0000
1003
,
0200
0300
2000
0002
,
0000
0000
0000
0000
,
0000
0000
0000
0000
,
3003
0000
0000
0000
;

//---------------dance-single - ----------------
#NOTES:
     dance-single:
     :
     Challenge:
     13:
     :
0000
0000
0000
0000
,
0000
0000
0000
0000
,
0000
0000
0000
0000
,
0000
0000
0000
0000
,
2100
0000
0000
0000
3001
0000
1000
0000
0010
0100
0000
0100
0010
0000
0000
0000
,
0001
0010
1000
0001
0100
0010
1000
0000
,
0100
0000
0010
0000
0001
0000
0100
0000
1000
0010
1000
0010
1000
0000
0001
1000
,
0001
1000
0001
0000
0100
0000
0010
1000
0010
0000
0100
0000
0001
1000
0001
1000
,
0001
0000
0011
0010
0001
0100
0010
1000
,
0100
0001
0100
0010
0100
1000
0010
0100
,
0001
1000
1000
1000
0010
0100
0001
0010
,
1000
0000
0010
0000
0100
0000
0010
0000
0001
0000
0100
0000
1000
0000
0010
0100
,
0010
1000
0001
0100
1000
0100
0001
0010
,
0001
1000
0001
1000
0010
0100
0010
0100
,
0001
0010
0100
1000
0001
1000
0010
0100
,
0010
1000
0010
0001
1000
0100
0001
0100
,
1000
0001
1010
0000
0101
0010
0001
0100
,
1000
0100
0010
0100
1000
0100
0001
0010
,
1000
0010
1001
0000
0110
0100
0001
0010
,
0001
0000
1000
0000
0100
0000
0010
0000
0001
0000
0100
0000
0010
1000
0010
1000
,
0020
0000
1030
0001
0200
0000
0310
1000
,
0200
0000
0310
0001
1000
0100
0002
0000
,
0013
0010
0100
0100
1000
0001
1000
0001
,
0011
0000
0000
2010
0000
0010
3100
0000
,
1001
0000
0010
1000
0100
0010
0001
0100
,
0110
0000
0001
0010
1000
0001
0100
1000
,
0010
0001
1000
0001
0100
1000
0100
0010
,
0100
0000
1000
0001
1000
0000
0010
0000
0100
0000
0001
0000
1000
0000
0001
0000
,
0101
0000
0100
0010
1000
0001
1000
0100
,
1100
0000
0010
1000
0100
0010
0001
1000
,
0010
1000
0100
0001
1000
0001
0010
0100
,
1000
0000
0010
0000
0100
0000
0010
0000
1000
0000
0100
0000
0010
0000
0001
1000
,
0001
0000
0100
0000
0010
0000
1000
0000
0100
0000
0010
0000
0100
0000
1000
0001
,
1000
0000
0010
0000
0100
0000
0001
0000
0010
0000
0100
0000
1000
0000
0001
0100
,
0001
0010
0100
1000
0010
1000
0001
0100
,
0110
0000
0000
1000
0001
0000
0000
0000
1100
0000
0000
0000
0101
0000
0000
0000
,
0011
0010
0100
1000
0010
1000
0100
0010
,
0001
0100
0001
0010
0100
1000
0010
0100
,
0010
1000
0100
0010
0001
0100
0001
0010
,
0100
1000
0010
0100
0010
1000
0001
0100
,
0010
1000
0100
1000
0010
0100
0001
0010
,
1000
0000
0001
0000
1000
0000
0100
0000
0010
0000
0001
0000
0100
0010
0100
0010
,
0100
0001
0010
0001
1000
0100
0001
0010
,
1000
0001
1000
0010
0100
0010
1000
0000
,
2010
0000
3001
1001
0000
1010
0000
1100
,
0012
0000
0103
0101
0000
1001
0000
0110
,
2000
0000
3010
0100
0002
0000
0013
0100
,
2000
0000
3001
0101
0000
1100
0000
0001
,
0021
0000
0031
0100
0020
0000
1030
0001
,
2010
0000
3100
0110
0000
1001
0000
0001
,
2000
0000
3001
1000
0200
0000
0310
0001
,
0010
0010
0100
0100
1000
0001
1000
0001
,
0011
0000
0000
0000
0000
0000
2100
0000
0000
0000
3001
0000
1000
0100
1000
0100
,
2000
0000
3010
1000
0100
0001
0100
0010
,
0110
0000
1000
0010
1000
0100
0010
0001
,
0100
0010
1000
0001
0010
0100
1000
0010
,
1000
0001
0010
0100
1000
0010
0100
0001
,
1001
0000
0010
1000
0001
1000
0100
0010
,
0001
0000
0100
0000
0010
0000
1000
0000
0100
0000
0010
0000
0001
1000
0001
1000
,
0001
0010
1000
0010
0100
0010
1000
0001
,
0010
0000
1000
0000
0100
0000
0010
0000
0001
0000
0100
0000
1000
0010
1000
0010
,
1000
0000
0100
0000
0010
0000
0001
0000
0010
0000
1000
0000
0001
0000
0100
0010
,
0100
0000
0010
0000
1000
0000
0100
0000
0010
0000
0001
0000
0100
0000
0001
0010
,
0001
1000
0001
0010
0100
1000
0010
0100
,
0101
0000
2010
0002
,
0000
0000
0000
0000
,
0000
0000
0000
0000
,
3003
0000
0000
0000
;
