#TITLE:The Cult of Gnosyllis;
#ARTIST:Orange Koresh;
#BANNER:The Cult of Gnosyllis.png;
#BACKGROUND:The Cult of Gnosyllis-bg.png;
#JACKET:The Cult of Gnosyllis-jacket.png;
#MUSIC:The Cult of Gnosyllis.ogg;
#SAMPLESTART:13.52;
#SAMPLELENGTH:20;
#DISPLAYBPM:124;
#BPMS:0=124.138,12=124.352,36=123.818,68=124.352,84=124.098,100=123.818,116=124.031,132=123.804;
#BGCHANGES:;

//---------------dance-single - ----------------
#NOTES:
     dance-single:
     :
     Beginner:
     3:
     :
0000
0000
0000
0000
,
0000
0000
0000
0000
,
0000
0000
0000
0000
,
0000
0000
0000
0000
,
0000
0000
0000
0000
,
1000
0000
1000
0000
,
1000
0000
0000
0000
,
0001
0000
0001
0000
,
0001
0000
0000
0000
,
1000
0000
1000
0000
,
1000
0000
0000
0000
,
0010
0000
0010
0000
,
0010
0000
0000
0000
,
0100
0000
0100
0000
,
0100
0000
0000
0000
,
0001
0000
0000
0000
,
0001
0000
0000
0000
,
1000
0000
0000
0000
,
1000
0000
0000
0000
,
0001
0000
0001
0000
,
0000
0000
1000
0000
,
0000
1000
0000
0000
,
1000
0000
0000
0000
,
0010
0000
0010
0000
,
0001
0000
0001
0000
,
1000
0000
1000
0000
,
0001
0000
0000
0000
,
1000
0000
1000
0000
,
0001
0000
0001
0000
,
0010
0000
0000
0000
,
0010
0000
0000
0000
,
0000
0100
0000
0100
,
0000
0010
0000
0010
,
0000
1000
0000
1000
,
0000
0001
0000
0001
,
0000
1000
0000
1000
,
0000
0010
0000
0010
,
0000
1000
0000
1000
,
0000
0001
0000
0001
,
0001
0000
0100
0000
,
0000
0000
0100
0000
,
0000
0000
0000
0000
,
0010
0000
0000
0000
,
0200
0000
0000
0300
;

//---------------dance-single - ----------------
#NOTES:
     dance-single:
     :
     Easy:
     6:
     :
0000
0000
0000
0000
,
0000
0000
0000
0000
,
0000
0000
0000
0000
,
0000
0000
0000
0000
,
0000
0000
0000
0000
,
1000
0100
1000
0100
,
0010
0001
0010
0001
,
0100
0010
1000
0010
,
0100
0001
1000
0000
,
0100
0010
0001
0010
,
0100
1000
0010
0000
,
0100
0001
1000
0001
,
0100
0010
1000
0000
,
0010
0100
0001
1000
,
0001
0100
0010
0000
,
2001
0000
3001
0000
,
1002
0000
1003
0000
,
0210
0000
0310
0000
,
0120
0000
0130
0000
,
1001
0000
0001
0000
,
1001
0000
1000
0000
,
1001
0001
0100
0001
,
0100
0010
1000
0010
,
1000
0000
1000
1000
,
0001
0000
1000
1000
,
0001
0000
0100
0001
,
1000
0000
0100
0001
,
1000
0000
0010
1000
,
0001
0000
0010
0001
,
1000
0000
0001
0100
,
0010
0000
1000
0100
,
0020
0000
0031
0010
,
0002
0000
0103
0001
,
2000
0000
3010
1000
,
0200
0000
0310
0100
,
0020
0000
0130
1000
,
0002
0000
0013
0001
,
2000
0000
3010
1000
,
0002
0003
2000
3000
,
1001
0000
0010
0000
,
1001
0000
0100
0000
,
1001
0100
1000
0100
,
0010
0001
0010
0001
,
2002
0000
0000
0000
,
0000
3003
0000
0000
;

//---------------dance-single - ----------------
#NOTES:
     dance-single:
     :
     Medium:
     7:
     :
0000
0000
0000
0000
,
0000
0000
0000
0000
,
0000
0000
0000
0000
,
0000
0000
0000
0000
,
0000
0000
0000
0000
,
2001
0100
0100
0010
,
0100
0010
0010
3001
,
1000
1010
0100
1010
,
0001
0000
0000
0011
0000
0000
1000
0000
0001
0000
1000
0000
,
0001
0101
1000
0101
,
0010
0000
0000
1010
0000
0000
0010
0000
0100
0000
0010
0000
,
2010
3001
0021
0130
,
1200
0000
0000
0300
0000
0000
0001
0000
0100
0000
0010
0000
,
1020
0130
0201
0310
,
0102
0000
0000
1003
0000
0000
0001
0000
1000
0000
0001
0000
,
0100
0010
0000
0000
,
0001
1000
0000
0000
,
0010
0100
0000
0000
,
1000
0001
0000
0000
,
1000
0000
0001
0000
1000
0000
0000
0000
0000
0000
0000
0000
,
0001
0000
1000
0000
0001
0000
0000
0000
0000
0000
0000
0000
,
1002
0100
0100
0010
,
0100
0010
0010
1003
,
1001
0001
0011
1000
,
1100
0001
0101
0010
,
1010
0100
1100
0010
,
0011
0000
1000
0001
,
1001
2000
0100
0100
,
3100
0002
0010
0010
,
0013
0200
0010
0010
,
0310
0000
1001
0000
,
0010
1000
0100
0010
,
0100
1000
0010
0100
,
0001
0010
0001
0100
,
0010
1000
0100
0001
,
0100
1000
0010
0001
,
0010
1000
0001
0100
,
1000
0100
0001
1000
,
0010
0100
0001
0000
,
1000
0000
0001
0000
1000
0000
0000
0000
0000
0000
0000
0000
,
0100
0000
0010
0000
0100
0000
0000
0000
0000
0000
0000
0000
,
1001
0001
0101
1000
,
1100
0001
0011
1000
,
1001
0000
0000
0000
;

//---------------dance-single - ----------------
#NOTES:
     dance-single:
     :
     Hard:
     11:
     :
0000
0000
0000
0000
,
0000
0000
0000
0000
,
0000
0000
0000
0000
,
0000
0000
0000
0000
,
0000
0000
0000
0000
,
1001
0100
0001
0100
,
1000
0100
0001
0100
,
0001
0000
0100
0010
0000
0000
1000
0000
0100
0010
0000
0000
,
0001
0000
1000
0010
0000
0000
0100
0000
0100
0000
0100
0000
,
0010
0000
1000
0100
0000
0000
0010
0000
0001
0100
0000
0000
,
0010
0000
1000
0001
0000
0000
0100
0000
0100
0000
0100
0000
,
0001
0100
0001
0100
0000
0000
1000
0100
1000
0100
0000
0000
,
1000
0001
1000
0001
0000
0000
0100
0000
0010
0000
1000
0000
,
0001
0010
0001
0010
0000
0000
1000
0010
1000
0010
0000
0000
,
0100
0010
0100
0010
0000
0000
1000
0000
0001
0000
0010
0000
,
0001
0100
0010
0100
0000
0000
0001
0001
0100
0001
0000
0000
,
1000
0100
0010
0010
0000
0000
0001
0001
0100
0001
0000
0000
,
1000
0001
0010
0100
0000
0000
1000
0100
1000
1000
0000
0000
,
0001
0100
0010
0010
0000
0000
0100
0010
0100
0100
0000
0000
,
0110
0000
0101
0000
1100
0000
0000
0000
0000
0000
0000
0000
,
1010
0000
0011
0000
1001
0000
0000
0000
0000
0000
0000
0000
,
0110
0000
0000
0010
1000
0100
0010
0100
1000
0100
0010
0001
,
0010
0100
1000
0100
1000
0100
0010
0001
0010
0100
1000
0000
,
1100
0000
0000
0000
0010
1000
0100
0000
0100
0000
1000
0000
,
0101
0000
0000
0000
0010
1000
0100
0000
0010
0000
0001
0000
,
1100
0000
0000
0000
0010
1000
0100
0000
0010
0000
0001
0000
,
0110
0000
0000
0000
0100
1000
0001
0000
1100
0000
0110
0000
,
0101
0000
1000
0000
0010
1000
0010
0000
0100
0000
0010
0000
,
0110
0000
0001
0000
1000
0100
1000
0000
0010
0000
1000
0000
,
1010
0000
0100
0000
0001
0100
0001
0000
1000
0000
0100
0000
,
0110
0000
0000
0000
0001
0010
0001
0000
0100
0000
0100
0000
,
0010
0000
1000
0100
0000
0000
0010
0000
0001
0100
0000
0000
,
0001
0000
1000
0100
0000
0000
0010
0000
0001
0100
0001
0100
,
0001
0000
0100
0010
0000
0000
1000
0000
0100
0010
0000
0000
,
0100
0000
1000
0010
0000
0000
0010
0000
1000
0100
1000
0100
,
1000
0000
0001
0000
0010
0001
0010
0000
0100
0000
1000
0001
,
1000
0000
0100
0000
0010
0001
0010
0000
0100
0000
1000
0000
,
0001
0000
0100
0000
0010
1000
0010
0000
0100
0000
0010
0100
,
0010
0000
1000
0000
0100
1000
0100
0000
0010
0000
0001
0000
,
0000
0000
0101
0000
0110
0000
0000
0000
0000
0000
0000
0000
,
0110
0000
1100
0000
0110
0000
0000
0000
0000
0000
0000
0000
,
1001
0000
0000
0100
1000
0010
0100
0001
1000
0010
0100
0001
,
0010
0100
1000
0100
0010
0100
1000
0010
0100
0001
1000
0000
,
1001
0000
0000
0000
;

//---------------dance-single - ----------------
#NOTES:
     dance-single:
     :
     Challenge:
     16:
     :
0000
0000
0000
0000
,
0000
0000
0000
0000
,
0000
0000
0000
0000
,
0000
0000
0000
0000
,
0000
0000
0000
0000
,
1001
0000
0000
0001
0010
0100
1000
0100
0010
0001
0010
0100
,
1000
0000
0010
0000
0100
0000
0100
0000
0001
0000
0001
0000
0010
0000
1000
0100
0001
0000
1000
0000
0010
1000
0100
0000
,
1000
0001
0010
0100
1000
0001
0100
0001
0010
0010
0100
1000
,
0001
0010
0100
0010
0100
1000
1100
0000
0110
0000
0011
0000
,
0100
0001
0010
1000
0001
1000
0010
0001
0100
1000
0100
0010
,
1000
0000
0100
0000
0001
0000
0010
0000
0100
0000
1000
0000
0010
0000
0001
1000
0001
0000
0010
0000
0100
0000
1000
0000
,
0100
0010
0001
1000
0001
0010
0100
1000
1000
0001
0100
0010
,
1000
0100
0010
0100
0010
0001
0011
0000
0110
0000
1100
0000
,
0001
0001
0001
0010
0010
0010
0100
0100
0100
1000
1000
1000
,
0100
1000
0001
0100
0010
1000
1010
0000
1001
0000
0101
0000
,
0011
0000
0000
1000
0100
1000
0010
0100
0001
0010
0100
0001
,
1000
0100
1000
0100
0000
1000
0010
0100
0001
0010
0100
0001
,
1000
0010
1000
0010
1000
0000
0001
0100
0001
0100
0001
0000
0010
0000
0100
0000
0001
0000
0010
0000
0100
0000
0001
0000
,
1000
0100
1000
0001
0100
0001
1000
0010
1000
0001
0010
0001
,
0101
0000
1010
0000
0101
0000
0010
0000
0001
0100
0010
1000
,
1100
0000
0011
0000
1100
0000
0001
0000
0100
0010
1000
0001
,
1001
0000
0000
0010
0001
1000
0010
0100
0001
0010
1000
0100
,
0001
0010
1000
0100
1000
0100
0010
1000
0001
0001
0010
0100
,
0120
0000
0000
0031
0010
0100
1100
0000
0101
0000
1100
0000
,
0012
0000
1000
0003
1000
0010
0110
0000
1001
0000
0110
0000
,
2010
0000
0100
3000
0100
0010
0011
0000
1100
0000
0011
0000
,
0201
0000
0000
0000
0010
0000
0300
0000
0010
0000
1000
0000
0001
0000
0010
0100
1000
0000
0001
0000
0100
0000
0010
0000
,
1010
0000
1010
0001
0010
0100
1100
0000
0101
0000
0011
0000
,
0110
0000
0110
0001
1000
0010
1010
0000
1001
0000
1100
0000
,
1001
0000
1001
1000
0100
0001
0011
0000
0110
0000
1100
0000
,
0011
0000
0011
1000
0100
0001
1001
0000
0101
0000
0011
0000
,
0110
0000
0001
0000
0001
0100
1000
0000
1000
0000
1000
0010
,
0100
0000
0000
0000
0100
0000
0000
0000
0100
0000
0001
0000
1000
0000
0100
0010
0100
0000
1000
0000
0001
0000
0010
0000
,
0001
0000
0001
0000
0001
0010
1000
0000
1000
0000
1000
0010
,
0100
0000
0000
0000
0000
0000
0000
0000
0100
0000
0000
0000
0000
0000
0000
0000
0100
0000
0000
0000
0001
0000
0000
0000
1000
0000
0000
0000
0000
0000
0100
0000
0000
0010
0000
0000
0001
0000
0000
1000
0000
0000
0001
0000
0000
1000
0000
0000
,
0010
0100
0001
0000
0010
0100
1000
0010
1000
0000
0001
0100
,
0010
0000
1000
0000
0001
0000
0000
0000
0010
0000
0001
1000
0001
0000
0000
0000
0100
0000
0000
0000
0010
0000
0000
0000
,
1000
0100
1000
0001
0100
0001
1000
0010
1000
0001
0010
0001
,
0100
0000
0010
0000
0100
0000
0001
0000
1000
0000
0001
0000
0010
0000
0001
0100
1000
0000
0010
0000
0100
0000
0001
0000
,
0011
0000
1001
0000
1010
0000
0100
0000
1000
0001
1000
0010
,
0101
0000
1001
0000
1100
0000
0010
0000
0001
0100
0001
1000
,
1001
0000
0000
0001
0010
1000
0100
1000
0010
0001
0100
0010
,
1000
0000
0001
0000
0100
0000
0001
0000
0010
0000
1000
0000
0100
0000
0010
0001
0100
0000
1000
0000
0001
0100
1000
0000
,
0202
0000
0000
0000
,
0000
0000
0303
0000
;

//---------------dance-double - ----------------
#NOTES:
     dance-double:
     :
     Easy:
     6:
     :
00000000
00000000
00000000
00000000
,
00000000
00000000
00000000
00000000
,
00000000
00000000
00000000
00000000
,
00000000
00000000
00000000
00000000
,
00000000
00000000
00000000
00000000
,
00010000
01000000
00100000
10000000
,
00010000
01000000
00001000
00010000
,
00000010
00001000
00000001
00000100
,
00000010
00000100
00000001
00000000
,
00000010
00000001
00001000
00000100
,
00010000
00001000
00100000
00000000
,
01000000
00010000
00001000
00100000
,
00001000
00010000
00000100
00000000
,
00000010
00001000
00010000
00000100
,
00010000
00001000
00100000
00000000
,
20010000
00000000
30010000
00000000
,
10020000
00000000
10030000
00000000
,
00021000
00000000
00031000
00000000
,
00012000
00000000
00013000
00000000
,
00011000
00000000
00001000
00000000
,
00001001
00000000
00001000
00000000
,
00001001
00000100
00001000
00000001
,
00000010
00000100
00010000
00001000
,
01000000
00000000
00010000
00010000
,
10000000
00000000
10000000
10000000
,
00010000
00000000
01000000
00010000
,
10000000
00000000
01000000
00010000
,
00001000
00000000
00001000
00010000
,
00000010
00000000
00001000
00000001
,
00000100
00000000
00000010
00000100
,
00001000
00000000
00010000
00001000
,
00200000
00000000
00310000
00100000
,
02000000
00000000
03100000
10000000
,
00200000
00000000
01300000
00010000
,
02000000
00000000
03001000
00010000
,
00002000
00000000
00013000
00001000
,
00000200
00000000
00001300
00000100
,
00000020
00000000
00000031
00001000
,
00000002
00000003
00002000
00003000
,
00001001
00000000
00001000
00000000
,
00011000
00000000
00010000
00000000
,
10010000
00010000
01000000
00100000
,
10000000
00010000
01000000
00001000
,
00022000
00000000
00000000
00000000
,
00000000
00033000
00000000
00000000
;

//---------------dance-double - ----------------
#NOTES:
     dance-double:
     :
     Medium:
     8:
     :
00000000
00000000
00000000
00000000
,
00000000
00000000
00000000
00000000
,
00000000
00000000
00000000
00000000
,
00000000
00000000
00000000
00000000
,
00000000
00000000
00000000
00000000
,
00001000
00000010
00000010
00000100
,
00000001
00000100
00000100
00001000
,
00010000
00110000
00100000
10100000
,
01000000
00000000
00000000
11000000
00000000
00000000
10000000
00000000
01000000
00000000
00010000
00000000
,
00001000
00001010
00000010
00000011
,
00000100
00000000
00000000
00000101
00000000
00000000
00001000
00000000
00000001
00000000
00000100
00000000
,
00000201
00001300
00021000
00031000
,
00110000
00000000
00000000
00010000
00000000
00000000
00010000
00000000
10000000
00000000
01000000
00000000
,
12000000
03010000
00012000
00013000
,
00001010
00000000
00000000
00001000
00000000
00000000
00000001
00000000
00000100
00000000
00001000
00000000
,
00010000
00001000
00000000
00000000
,
00100000
01000000
00000000
00000000
,
00001000
00010000
00000000
00000000
,
00000100
00000010
00000000
00000000
,
00000001
00000000
00000010
00000000
00001000
00000000
00000000
00000000
00000000
00000000
00000000
00000000
,
00010000
00000000
00100000
00000000
10000000
00000000
00000000
00000000
00000000
00000000
00000000
00000000
,
00010000
01000000
01000000
00100000
,
10000000
00100000
00100000
00010000
,
00001000
00001100
00000100
00000101
,
00001100
00000001
00000101
00001000
,
00001100
00010000
00011000
00010000
,
00110000
00000000
10000000
00010000
,
10010000
00020000
00100000
00100000
,
00130000
20000000
01000000
01000000
,
31000000
00020000
00001000
00001000
,
00031000
00000000
00011000
00000000
,
00010000
00000010
00001000
00000001
,
00000100
00000010
00001000
00000100
,
00000010
00000001
00000100
00001000
,
00010000
01000000
10000000
00100000
,
10000000
00010000
01000000
00100000
,
10000000
01000000
00010000
00001000
,
00000100
00000010
00001000
00000001
,
00000100
00001000
00010000
00000000
,
10000000
00000000
01000000
00000000
00010000
00000000
00000000
00000000
00000000
00000000
00000000
00000000
,
00001000
00000000
00000100
00000000
00000001
00000000
00000000
00000000
00000000
00000000
00000000
00000000
,
00001001
00000010
00001010
00000001
,
00000101
00001000
00001100
00010000
,
00011000
00000000
00000000
00000000
;

//---------------dance-double - ----------------
#NOTES:
     dance-double:
     :
     Hard:
     11:
     :
00000000
00000000
00000000
00000000
,
00000000
00000000
00000000
00000000
,
00000000
00000000
00000000
00000000
,
00000000
00000000
00000000
00000000
,
00000000
00000000
00000000
00000000
,
00011000
00001000
00010000
00001000
,
00010000
00001000
00010000
00011000
,
00100000
00010000
00100000
00100000
00000000
00000000
11000000
00000000
00000000
00100000
00000000
00000000
,
01000000
00010000
01000000
01000000
00000000
00000000
01100000
00000000
00000000
00010000
00000000
00000000
,
00100000
10000000
00100000
00100000
00000000
00000000
01010000
00000000
00000000
10000000
00000000
00000000
,
10000000
01000000
10000000
10000000
00000000
00000000
01010000
00000000
00000000
00011000
00000000
00000000
,
00000010
00001000
00000010
00000100
00000000
00000000
00000001
00001000
00000001
00001000
00000000
00000000
,
00000010
00000001
00000010
00000100
00000000
00000000
00001000
00000100
00001000
00000100
00000000
00000000
,
00000010
00000001
00000100
00000001
00000000
00000000
00001000
00000100
00001000
00000010
00000000
00000000
,
00000010
00000100
00000010
00000100
00000000
00000000
00000110
00000000
00000000
00001100
00000000
00000000
,
00010000
00001000
00010000
00001000
00000000
00000000
00010000
00010000
00010000
00010000
00000000
00000000
,
00001000
00010000
00001000
00010000
00000000
00000000
00001000
00001000
00001000
00001000
00000000
00000000
,
00011000
00100000
01000000
10000000
,
10100000
01000000
00010000
10000000
,
10010000
00000000
01010000
00000000
00110000
00000000
00000000
00000000
00000000
00000000
00000000
00000000
,
00110000
00000000
00011000
00000000
00001100
00000000
00000000
00000000
00000000
00000000
00000000
00000000
,
00001001
00000000
00000000
00000001
00000010
00000100
00001000
00000100
00000010
00000001
00000010
00000100
,
00001000
00000100
00000010
00000001
00000010
00000100
00001000
00000100
00000010
00000001
00000010
00000100
,
00001000
00000000
00000000
00000000
00000001
00000001
00000100
00000000
00000010
00000000
00001000
00000000
,
00000100
00000000
00000000
00000000
00010000
00010000
00001000
00000000
01000000
00000000
00010000
00000000
,
00100000
00000000
00000000
00000000
01000000
01000000
10000000
00000000
00010000
00000000
01000000
00000000
,
10000000
00000000
00000000
00000000
00010000
00010000
01000000
00000000
00010000
00000000
01000000
00000000
,
01010000
00000000
00000000
00100000
10000000
00100000
10000000
00000000
00100000
00000000
10000000
00000000
,
11000000
00000000
00000000
01000000
00100000
01000000
00100000
00000000
00001000
00000000
00010000
00000000
,
00011000
00000000
00000000
00000100
00001000
00000100
00001000
00000000
00000001
00000000
00000100
00000000
,
00000101
00000000
00000000
00000010
00000100
00000010
00000100
00000000
00000010
00000000
00001000
00000000
,
00000001
00000000
00000100
00000001
00000000
00000000
00001000
00000000
00000100
00001000
00000100
00001000
,
00000010
00000000
00010000
00001000
00000000
00000000
01000000
00000000
00010000
01000000
00010000
01000000
,
00100000
00000000
10000000
01000000
00000000
00000000
10000000
00000000
00100000
01000000
00100000
01000000
,
00010000
00000000
10000000
01000000
00000000
00000000
00100000
00000000
00010000
01000000
00010000
01000000
,
00010000
00000000
01010000
00000000
00000000
00000000
00000000
00000000
00001000
00010000
00001000
00010000
,
00001000
00000000
00011000
00000000
00000000
00000000
00000000
00000000
00000100
00001000
00000100
00001000
,
00000100
00000000
00001100
00000000
00000000
00000000
00000000
00000000
00000010
00000100
00000010
00000100
,
00000010
00000000
00000110
00000000
00000000
00000000
00000000
00000000
00000000
00000000
00000000
00000000
,
00000000
00000000
00000110
00000000
00000011
00000000
00000000
00000000
00000000
00000000
00000000
00000000
,
00000110
00000000
00001100
00000000
00011000
00000000
00000000
00000000
00000000
00000000
00000000
00000000
,
00011000
00001000
00010000
00001000
,
00010000
00001000
00010000
00001000
,
00011000
00000000
00000000
00000000
;
