#TITLE:Tell Me;
#ARTIST:Just Dave;
#BANNER:Tell Me-bn.png;
#BACKGROUND:Tell Me-bg.png;
#JACKET:Tell Me-jacket.png;
#MUSIC:Tell Me.ogg;
#SAMPLESTART:35.8;
#SAMPLELENGTH:20;
#DISPLAYBPM:144:179;
#BPMS:0=155,4=160,8=159,12=161,16=162,20=161.2,24=159.84,28=165,32=164,34=162.51,36=161.09,40=161.65,42=159.137,48=158,51=157,53=156,55=160.13,56=154,57=157.45,58=163,62=158.145,64=160.75,65=156.94,66=164.5,71=162.125,84=163.05,88=161.165,90=165.6,94=162.345,96=160.6,97=157.85,104=159.864,108=163.765,120=162.019,127=157.984,144=158.888,148=168,150=163.5,152=159.3,153=166.7,155=164.4,164=162.23,169=160.075,172=161.189,175=160.405,179=159.5,188=160.137,193=158.959,195=157.456,204=158.214,207=179,208=160.5,216=162.231,224=161.27,228=159.84,230=164.2,234=162.3,240=164.451,251=162.152,256=160.087,260=158.752,264=160.442,265=165.7,276=161.247,280=159.324,288=161.325,292=165.13,298=162.187,299=159.8,321=150,328=151,331=148,332=151.2,336=149,339=152.3,343=156,344=144;
#BGCHANGES:;

//---------------dance-single - ----------------
#NOTES:
     dance-single:
     :
     Beginner:
     3:
     :
0000
0000
0000
0000
,
0000
0000
0000
0000
,
0000
0000
0000
0000
,
0000
0000
0000
0000
,
1000
0000
0001
0000
,
0010
0000
0001
0000
,
0100
0000
0010
0000
,
1000
0000
0000
0000
,
0100
0000
0010
0000
,
0001
0000
0100
0000
,
0010
0000
1000
0000
,
0001
0000
0000
0000
,
0010
0000
0010
0000
,
0100
0000
0100
0000
,
1000
0000
0001
0000
,
1000
0000
0001
0000
,
1000
0000
1000
0000
,
0001
0000
0001
0000
,
0100
0000
0100
0000
,
0001
0000
0000
0000
,
0020
0000
0000
0000
,
0000
0000
0030
0000
,
0200
0000
0000
0000
,
0000
0000
0300
0000
,
1000
0000
0010
0000
,
0100
0000
0010
0000
,
1000
0000
0001
0000
,
0010
0000
0000
0000
,
0001
0000
0100
0000
,
0001
0000
0010
0000
,
0100
0000
1000
0000
,
0100
0000
0000
0000
,
1000
0000
1000
0000
,
0001
0000
0010
0000
,
0001
0000
0100
0000
,
0010
0000
0000
0000
,
1000
0000
0001
0000
,
0010
0000
0001
0000
,
0100
0000
0100
0000
,
0100
0000
0000
0000
,
0002
0000
0000
0000
,
0000
0000
0003
0000
,
2000
0000
0000
0000
,
0000
0000
3000
0000
,
0000
0010
0010
0000
,
1000
0000
0100
0000
,
0000
1000
1000
0000
,
0001
0000
0010
0000
,
0000
0100
0100
0000
,
0010
0000
0001
0000
,
1001
0000
0100
0000
,
1000
0000
0001
0000
,
1001
0000
0010
0000
,
0001
0000
0100
0000
,
1001
0000
1000
0000
,
0100
0000
0010
0000
,
0000
0100
0100
0000
,
1000
1000
0000
0001
,
0000
0010
0010
0000
,
0001
0000
0100
0000
,
0010
0010
0010
0000
,
1000
0000
0001
0000
,
1000
1000
1000
0000
,
0100
0000
0010
0000
,
0002
0000
0000
0000
,
0000
0000
0003
0000
,
2000
0000
0000
0000
,
0000
0000
3000
0000
,
0020
0000
0000
0000
,
0000
0000
0030
0000
,
0200
0000
0000
0000
,
0000
0000
0300
0000
,
0001
0000
1001
0000
,
1000
0000
0100
0000
,
0010
0010
0010
0000
,
0001
0000
0100
0000
,
1000
1000
1000
0000
,
0100
0000
0010
0000
,
0001
0001
0001
0000
,
0010
0000
0001
0000
,
0200
0000
0000
0000
,
0000
0000
0000
0300
,
0000
0000
0000
0001
,
0002
0000
0000
0003
,
0000
2000
0000
0000
,
0000
0000
0000
0000
,
3000
0000
0000
0000
,
0020
0000
0000
0000
,
0000
0000
0000
0000
,
0000
0000
0000
0030
;

//---------------dance-single - ----------------
#NOTES:
     dance-single:
     :
     Easy:
     6:
     :
0000
0000
0000
0000
,
0000
0000
0000
0000
,
0000
0000
0000
0000
,
0000
0000
0000
0000
,
1000
0001
0100
0010
,
1000
1000
1000
0000
,
0100
0010
0001
0100
,
0001
0000
0000
0000
,
0010
0001
1000
0001
,
0100
0100
0100
0000
,
0010
1000
0100
1000
,
0001
0000
0000
0000
,
1001
0001
0010
0001
,
0100
0010
1000
0100
,
0110
0010
0001
0100
,
1000
0010
1000
0000
,
1001
0001
0010
0001
,
0100
0010
1000
0100
,
0110
0010
0001
0100
,
0001
0000
0000
0000
,
0020
0001
0000
0001
,
0000
1000
0000
0031
,
0200
0010
0000
0010
,
0000
0301
1000
0001
,
0010
0001
1000
0100
,
0010
0010
0010
0000
,
0001
0100
0001
1000
,
0100
0000
0000
0000
,
1000
0010
1000
0100
,
0001
0001
0001
0000
,
0010
0001
0010
0100
,
1000
0000
0000
0000
,
1001
1000
0100
0010
,
0001
0100
0001
1000
,
0110
0010
0100
0001
,
0010
0100
1000
0000
,
1001
1000
0010
1000
,
0100
0010
0001
0100
,
0110
0100
0001
1000
,
0100
0010
0001
0000
,
2000
0001
0000
0001
,
0000
0100
0000
3010
,
0002
0010
0000
1000
,
0000
0100
0000
0013
,
0001
1001
0220
0300
,
1000
0100
1000
1030
,
0000
0002
2000
0003
,
0010
0100
0010
3010
,
0000
2000
0200
3000
,
1300
0010
1000
0001
,
1001
1000
0100
0001
,
0110
0010
0001
0100
,
1001
1000
0001
0010
,
0110
0001
0100
1000
,
0010
1000
0001
0010
,
0001
0100
1000
1000
,
0000
0002
0020
0003
,
0031
1001
0000
0110
,
0000
1000
0100
1000
,
0010
0010
0010
0100
,
0001
0001
1000
1000
,
0001
1000
0001
0000
,
0100
0100
0001
0010
,
0001
0100
1000
0010
,
2000
0100
0000
0001
,
0000
0010
0000
3100
,
0002
0010
0000
0100
,
0000
0010
0000
1003
,
0100
0100
0100
0000
,
1000
0010
1000
0001
,
0010
0010
0010
0000
,
0001
1000
0001
0100
,
0020
1000
0200
0330
,
1000
0001
0010
0001
,
0100
0100
0100
0001
,
0010
0100
1000
0001
,
2000
0001
0020
3000
,
0100
1000
0100
0130
,
0001
0001
1000
1000
,
0001
0100
1000
0010
,
0200
0000
0000
0000
,
0000
0000
0000
0000
,
0000
0000
0000
1000
,
0302
0000
0000
0000
,
0000
0203
0000
0000
,
0000
0000
0000
0000
,
0302
0000
2000
3003
,
0020
0000
0000
0000
,
0000
0000
0000
0000
,
0000
0000
0000
0030
;

//---------------dance-single - ----------------
#NOTES:
     dance-single:
     :
     Medium:
     10:
     :
0000
0000
0000
0000
,
0000
0000
0000
0000
,
0000
0000
0000
0000
,
0000
0000
0000
0000
,
1000
0000
0000
0010
0000
0000
0100
0000
0000
0001
0000
0020
,
0000
0000
0032
0000
0000
2003
0000
0000
3200
0000
0000
0000
,
1300
0000
0000
0010
0000
0000
0100
0000
0001
0000
0000
0012
,
0000
1000
0000
1003
,
0010
0000
0000
1000
0000
0000
0100
0000
0020
0000
0000
0032
,
0000
0000
2003
0000
0000
3002
0000
0000
0203
0000
0000
0000
,
0310
0000
0000
1000
0000
0000
0100
0000
0010
0000
0000
0002
,
0000
0000
2000
0000
0000
0000
0000
0000
0000
3003
0000
0000
,
1001
0000
0000
0010
0000
0100
0000
0000
0100
0000
0000
0001
,
0100
0000
0000
0010
0000
1000
0000
0000
0000
1100
0000
0000
,
0101
0000
0000
0010
0000
1000
0000
0000
1000
0000
0000
0010
,
0100
0000
0001
0000
0000
0001
0000
0000
1000
0100
0000
0000
,
2000
0000
0000
3002
0000
0000
0203
0000
0000
0310
0000
2000
,
0000
0000
3002
0000
0000
0023
0000
0000
0031
0100
0000
0000
,
0110
0000
0000
1010
0000
0000
1000
0000
0001
0000
0000
0001
,
0000
0000
0010
0000
0000
0001
0000
0000
0100
0000
0000
0000
,
0102
0000
0000
1000
0000
0000
0100
0000
0000
1003
0000
0200
,
0000
0000
0000
1300
0000
0010
0000
0000
0100
0001
0000
0000
,
2010
0000
0000
0100
0000
0000
0001
0000
0000
3100
0000
0020
,
0000
0000
0000
0031
0000
1000
0100
0000
0000
1000
0000
0001
,
0100
0000
0000
0010
0000
0000
1000
0000
0001
0000
0000
0011
,
0000
0000
1100
0000
0000
1001
0000
0000
0110
0000
0000
0000
,
0010
0000
0000
1000
0000
0000
0100
0000
0020
0000
0000
0032
,
0000
0100
0000
0013
,
1000
0000
0000
0100
0000
0000
1000
0000
0001
0000
0000
1001
,
0000
0000
0011
0000
0000
1010
0000
0000
0110
0000
0000
0000
,
0001
0000
0000
0100
0000
0001
0000
0000
1000
0100
0000
0000
,
0010
0000
0000
0001
0000
1000
0000
0000
1000
0001
0000
0000
,
0101
0000
0000
0010
0000
1000
0000
0000
0000
1100
0000
0000
,
1000
0000
0001
0000
0000
0100
0000
0000
0010
0000
0000
0100
,
0002
0000
0000
0023
0000
0000
0031
0000
2000
0000
0000
3200
,
0000
0000
2300
0000
0000
3020
0000
0000
0130
0001
0000
0000
,
2010
0000
0000
3200
0000
0000
2300
0000
0000
3001
0000
0020
,
0000
0000
0000
0031
0000
1000
0000
0000
0201
0000
0000
0000
,
0310
0000
0000
0200
0000
0000
0301
0000
1000
0000
0000
1100
,
0000
0000
0000
0001
0000
0100
0000
0000
0001
0000
0000
0000
,
0021
0000
0000
1000
0000
0000
0100
0000
0000
0031
0000
2000
,
0000
0000
0000
3010
0000
0100
0000
0000
0010
0100
0000
0000
,
0210
1000
0001
0310
,
1000
0000
0000
0001
0000
0020
0000
0000
0031
1000
0000
0001
,
0100
0000
0000
1001
0000
0000
1000
0000
0002
0000
0000
0023
,
0000
0000
0032
0000
0000
1003
0000
0000
1000
0100
0000
0000
,
0000
0000
0000
2000
0000
0000
0002
0000
0000
3003
0000
0100
,
0000
0000
0200
0000
0000
0320
0000
0000
1030
0010
0000
0000
,
0000
0000
0000
1000
0000
0000
0001
0000
0100
0000
0000
0210
,
0000
0000
0320
0000
0000
2030
0000
0000
3001
2000
0000
0000
,
3100
0000
0010
0000
0000
0012
0000
0000
0103
0000
0000
2010
,
0000
0000
3001
0000
0000
0102
0000
0000
1003
0000
0000
0000
,
0010
0000
1000
0000
0000
1000
0000
0000
0001
0100
0000
0000
,
0001
0000
0010
0000
0000
0001
0000
0000
1000
0100
0000
0000
,
1000
0000
0001
0000
0000
2100
0000
0000
3020
0000
0000
0230
,
0000
0000
0301
1000
0000
0000
1000
0000
0100
0010
0000
0000
,
0000
0000
0000
1001
0000
0000
1000
0000
0001
0000
0000
0200
,
0000
0000
0000
0310
0000
2000
0000
0000
0000
3001
0000
0020
,
0000
0000
0000
0031
0000
0000
0100
0000
0010
0000
0000
1010
,
0000
0000
1100
0000
0000
0110
0000
0000
0001
1000
0000
0001
,
1000
0000
0000
0011
0000
0000
0101
0000
0000
0010
0000
0100
,
0010
0000
0000
2000
0000
0200
0000
0000
0000
3300
0000
0000
,
1001
0000
0000
1000
0000
0000
0100
0000
1000
0001
0000
0000
,
0100
0000
0100
0010
0000
0000
1000
0000
1000
0001
0000
0000
,
0012
0000
0000
0100
0000
0000
1000
0000
1000
0000
0000
0203
,
0000
0000
0320
0000
0000
0230
0000
0000
0301
1000
0000
0000
,
2100
0000
0000
0010
0000
0000
0001
0000
0001
0000
0000
3200
,
0000
0000
0320
0000
0000
0032
0000
0000
0103
0001
0000
0000
,
1010
0000
0000
0101
0000
0000
1000
0000
0100
0010
0000
0001
,
0000
0000
0100
0000
0000
0100
0000
0000
0010
1000
0000
0000
,
1001
0000
0000
0110
0000
0000
0010
0000
0100
0001
0000
2000
,
0000
3002
2003
3200
,
0310
0000
0000
0010
0000
0000
0020
0000
0000
0000
0000
0032
,
0000
0000
0203
0000
0000
0302
0000
0000
1003
0100
0000
0000
,
1001
0000
0000
1010
0000
0000
1000
0000
0100
0000
0000
1100
,
0000
0000
0010
0000
0000
0010
0000
0000
0010
0001
0000
0000
,
1000
0000
0000
1000
0000
0000
2000
0000
0000
0000
0000
3020
,
0000
0000
0230
0000
0000
0320
0000
0000
0130
0001
0000
0000
,
0110
0000
0000
0011
0000
0000
1000
0000
0001
0000
0000
0101
,
0000
0000
1000
0000
0000
0010
0000
0000
0100
0001
0000
0000
,
0020
0200
0000
0000
0000
0000
0000
0000
,
0000
0000
0000
0330
,
0000
0000
0000
2000
,
0020
0000
0000
3000
,
0000
0200
0000
0000
,
0000
0000
0000
0330
,
0002
0203
2300
3200
,
0320
0000
0000
0000
,
0000
0000
0000
0000
,
0000
0000
0000
0030
;

//---------------dance-single - ----------------
#NOTES:
     dance-single:
     :
     Hard:
     12:
     :
0000
0000
0000
0000
,
0000
0000
0000
0000
,
0000
0000
0000
0000
,
0000
0000
0000
0000
,
1000
0000
1000
0001
0000
0001
0010
0000
0001
0100
0000
0010
,
0000
0000
1010
0000
0000
1100
0000
0000
0001
0100
0000
0000
,
0010
0000
1000
0010
0000
1000
0100
0000
0010
0000
0000
0011
,
0000
0000
0001
1000
0000
0010
0000
0000
1000
0100
0000
0000
,
0010
0000
0010
0001
0000
1000
0001
0000
0100
0000
0000
0110
,
0000
0000
1000
0001
0000
1000
0000
0000
0100
0010
0000
0000
,
0001
0000
0001
1000
0000
1000
0100
0000
1000
0000
0000
1001
,
0000
0000
0010
1000
0000
0001
0000
0000
1000
0100
0000
0010
,
0001
0000
1000
0001
0000
2000
0000
0000
3020
0000
0000
1030
,
0100
0000
1000
0001
0000
0200
0000
0000
0301
0010
0000
0000
,
0101
0000
0000
1000
0000
0020
0000
0000
2030
0000
0000
3001
,
0100
0000
0020
0000
0000
0230
0000
0000
0301
1000
0000
0100
,
2000
0000
0000
3002
0000
0000
0203
0000
0000
0301
0000
0010
,
0000
0000
0011
0000
0000
1100
0000
0000
0001
1000
0000
0000
,
1001
0000
0010
1000
0000
0000
0001
0000
0200
0000
0000
0302
,
0000
0000
0013
0001
0000
0100
0000
0000
0001
1000
0000
0010
,
1000
0000
0000
1010
0000
0000
0001
0000
1000
0001
0000
0100
,
0000
0000
0010
0100
0000
0010
0000
0000
1000
0001
0000
0100
,
0001
0000
0000
0101
0000
0000
0010
0000
0001
0010
0000
0100
,
0000
0000
1000
0010
0100
0010
0100
0000
0000
0001
1000
0001
,
1000
0000
0010
0100
0000
0010
0100
0000
0001
1000
0000
0100
,
0000
0000
0110
0000
0000
1001
0000
0000
0010
0100
0000
0000
,
0001
0000
0001
0010
0000
0010
0001
0000
1000
0000
0000
0100
,
1000
0000
0001
1000
0000
0100
0000
0000
0100
0010
0000
0000
,
0001
0000
0001
1000
0000
0100
1000
0000
0001
0000
0000
0011
,
0000
0000
1010
0000
0000
1100
0000
0000
0001
1000
0000
0000
,
0010
0000
1000
0010
0000
0100
0001
0000
0010
0001
0000
1000
,
0100
0000
0100
0010
0000
0100
0010
0000
0100
1000
0000
0000
,
0110
0000
0000
0001
0000
2000
0000
0000
3020
0000
0000
0230
,
0000
0000
0302
0000
0000
0023
0000
0000
0031
0100
0000
0010
,
1000
0000
0000
0101
0000
0000
0010
0000
0100
0001
0000
1000
,
0100
0000
1000
0001
0000
2000
0000
0000
3010
0000
0000
0100
,
0001
0000
0000
1100
0000
0000
0101
0000
0000
1000
0000
0200
,
0000
0000
0310
0001
0000
0200
0000
0000
0301
1000
0000
0010
,
1000
0000
0000
1001
0000
0000
0110
0000
0000
0001
0000
0010
,
0001
0000
0100
0010
0000
1000
0000
0000
0100
1000
0000
0001
,
0100
0000
0000
1010
0000
0000
1000
0000
0001
1000
0000
0100
,
0000
0000
0010
0001
0000
1000
0000
0000
1000
0010
0000
0100
,
0001
0000
0000
0011
0000
0000
0100
0000
0010
0100
0000
0001
,
1000
0000
1000
0100
0000
0010
0000
0000
0010
0001
0100
0001
,
0100
0000
0000
0110
0000
0010
1000
0000
0010
1000
0000
0002
,
0000
0000
0203
0000
0000
0302
0000
0000
1003
0100
0000
0000
,
0010
0000
0000
0011
0000
0000
0011
0000
0100
0010
0000
2000
,
0000
0000
3200
0000
0000
2300
0000
0000
3001
0010
0000
0000
,
0001
0000
0000
1010
0000
0010
1000
0000
0010
0000
0000
0100
,
0001
0000
2000
0000
0000
3002
0000
0000
0013
0100
0000
0000
,
1000
0000
0100
1000
0000
0001
0000
0000
0010
0000
0000
0001
,
0000
0000
0100
0010
0000
1000
0000
0010
0100
0000
0000
0000
,
0001
0000
0010
0001
0000
1000
0000
0000
1000
0100
0000
0000
,
1000
0000
0010
1000
0000
0001
0000
0000
0001
0100
0000
0000
,
0010
0000
0100
0010
0000
2000
0000
0000
3002
0000
0000
0023
,
0000
0000
0031
1000
0000
0000
1000
0000
0001
0100
0000
0000
,
0010
0000
0000
1001
0000
0000
1001
0000
1000
0000
0000
0200
,
0000
0000
1300
0001
0000
0020
0000
0000
0031
0100
0000
0020
,
0000
0000
1030
0010
0000
0000
0010
0000
0100
0000
0000
0101
,
0000
0000
1010
0000
0000
0101
0000
0000
0001
1000
0000
0001
,
0010
0000
0000
0001
0000
0001
0100
0000
0100
1000
0000
1000
,
0100
0000
0001
1000
0000
1100
0000
0000
0010
0100
0000
0000
,
0001
0100
0001
0100
0000
0000
0010
1000
0010
1000
0000
0000
,
0001
0000
1000
0000
0001
0000
0010
0000
0100
0000
1000
0000
,
2010
0000
0000
0001
0000
0000
3001
0000
1000
0001
0000
0100
,
0000
0000
0020
0000
0000
2030
0000
0000
3001
1000
0000
0000
,
0012
0000
0000
1000
0000
0000
1003
0000
0010
0100
0000
0001
,
0000
0000
0010
0001
0000
0010
0001
0000
0010
0001
0000
0000
,
0101
0000
0000
0011
0000
0000
1000
0000
0010
0100
0000
0001
,
0000
0000
0010
0100
0000
1000
0000
0000
0001
1000
0000
0001
,
0010
0000
0000
0110
0000
0000
0110
0000
0001
1000
0000
0100
,
0000
0000
1000
0001
0000
1000
0001
0000
1000
0001
0000
0000
,
1010
0000
0000
1010
0000
0000
2100
0000
0000
3001
0000
0020
,
0000
0000
0230
0000
0000
2300
0000
0000
3001
0100
0000
0000
,
1001
0000
0000
0010
0000
0000
1000
0000
0010
0000
0000
0101
,
0000
0000
1001
0000
0000
1010
0000
0000
0100
0010
0000
0000
,
0102
0000
0000
2003
0000
0000
3001
0000
0001
0000
0000
0200
,
0000
0000
0320
0000
0000
0230
0000
0000
0301
1000
0000
0000
,
1010
0000
0000
0011
0000
0000
0100
0000
0010
0000
0000
1000
,
0000
0000
0001
0000
0000
0010
0000
0000
0001
1000
0000
0000
,
0020
0200
0000
0000
0000
0000
0000
0000
,
0000
0000
0000
0330
,
0001
1000
0001
2000
0000
0000
3020
0000
,
2000
0000
0000
0000
,
0030
0000
0000
0000
3002
2000
0000
0000
0000
0000
0000
0000
0000
0000
0000
0000
,
0000
0000
0000
3003
,
0001
0010
0100
1000
1000
0100
0010
0002
,
0200
0000
0000
0000
,
0000
0000
0000
0000
,
0000
0000
0000
0303
;
