#TITLE:Tall Cool One;
#ARTIST:Robert Plant;
#BANNER:Tall Cool One-bn.png;
#BACKGROUND:Tall Cool One-bg.png;
#JACKET:Tall Cool One-jacket.png;
#MUSIC:Tall Cool One.ogg;
#SAMPLESTART:45.141;
#SAMPLELENGTH:20;
#DISPLAYBPM:160;
#BPMS:0=159.5;
#BGCHANGES:;

//---------------dance-single - ----------------
#NOTES:
     dance-single:
     :
     Beginner:
     4:
     :
0000
0000
0000
0000
,
0000
0000
0000
0000
,
0000
0000
0000
0000
,
0000
0000
0000
0000
,
1001
0000
0000
0000
,
0000
0000
0000
0000
,
0000
0010
0000
0010
,
0000
0010
0000
0100
,
0100
0000
0001
0000
,
1000
0000
0010
0000
,
1000
0000
0100
0000
,
1000
0000
0010
0000
,
0100
0000
0001
0000
,
0010
0000
0001
0000
,
1000
0000
0100
0000
,
1000
0000
0010
0000
,
0001
0001
0001
0000
,
1000
1000
1000
0000
,
0010
0000
0100
0000
,
0001
0000
1000
0000
,
0100
0100
0100
0000
,
0010
0010
0010
0000
,
0001
0000
1000
0000
,
0010
0000
0100
0000
,
0001
0001
0001
0000
,
0010
0010
0010
0000
,
0001
0000
1000
0000
,
0010
0000
0100
0000
,
0010
0000
0100
0000
,
0001
0000
1000
0000
,
0010
0010
0010
0000
,
1000
0000
0001
0000
,
0010
0010
0010
0000
,
0001
0000
0100
0000
,
0010
0010
0010
0000
,
1000
0000
0100
0000
,
1000
0000
0001
0000
,
0010
0010
0010
0000
,
0001
0000
0100
0000
,
1000
1000
1000
0000
,
0010
0000
0100
0000
,
0001
0001
0001
0000
,
1000
0000
1000
0000
,
0010
0000
0010
0000
,
0100
0000
0100
0000
,
0110
0000
0000
0000
,
0001
0000
0001
0000
,
0001
0000
0001
0000
,
1000
1000
1000
0000
,
0010
0000
0100
0000
,
0010
0000
0100
0000
,
0001
0000
0001
0000
,
1000
1000
1000
0000
,
0100
0000
1000
0000
,
0001
0001
0001
0000
,
1000
1000
1000
0000
,
0010
0010
0010
0000
,
0000
1001
0000
0000
,
0100
0100
0100
0000
,
0001
0001
0001
0000
,
0010
0010
0010
0000
,
0000
0110
0000
0000
,
0000
0000
0000
0000
,
0000
0000
0000
0000
,
0000
0001
0000
0001
,
0000
1000
0000
1000
,
0000
0010
0000
0010
,
0000
0100
0000
0100
,
0000
0001
0000
1000
,
0000
0100
0000
0000
,
0010
0010
0010
0000
,
0001
0000
0100
0000
,
0010
0010
0010
0000
,
1000
0000
0100
0000
,
0010
0010
0010
0000
,
0001
0000
1000
0000
,
0010
0010
0010
0000
,
0010
0000
0010
0000
,
0100
0000
0000
0000
;

//---------------dance-single - ----------------
#NOTES:
     dance-single:
     :
     Easy:
     7:
     :
0000
0000
0000
0000
,
0000
0000
0000
0000
,
0000
0000
0000
0000
,
0000
0000
0000
0000
,
1001
0010
1000
0100
,
1000
0001
0000
0100
,
0001
0010
0001
0100
,
0010
1000
0000
0110
,
0001
1000
0001
0100
,
0010
1000
0001
0000
,
1000
0100
1000
0010
,
0100
0001
1000
0000
,
0001
0010
0001
1000
,
0010
0100
0001
0000
,
0010
0100
0010
0001
,
0100
0010
1000
0001
,
0100
0100
0010
1000
,
0100
0010
0001
0000
,
1010
0100
0101
0000
,
0011
1000
1100
0010
,
1000
1000
0010
0100
,
0001
0010
1000
0000
,
1100
0001
0011
0000
,
0101
0010
1010
0000
,
0100
0100
0100
0010
,
1000
0100
1000
0001
,
0011
0100
1010
0000
,
1100
0001
0101
0010
,
1000
1000
0100
1000
,
0010
0100
0001
0000
,
2000
3010
0100
0100
,
0010
1000
0001
0000
,
0200
0310
1000
0001
,
0010
0001
0100
0000
,
0002
0013
1000
0100
,
1000
0001
0010
0000
,
0001
0100
1000
1000
,
0010
0100
0100
0000
,
0001
0010
0001
0100
,
1000
1000
1000
0000
,
0010
1000
0100
1000
,
0001
0001
0001
0000
,
0010
0001
0100
0100
,
0010
1000
0100
0100
,
1000
1000
0001
0001
,
0020
0000
0000
0130
,
0110
0000
1001
0000
,
0010
1000
0100
0001
,
0010
0010
0010
0010
,
0001
0100
1000
0010
,
0110
0000
1001
0000
,
1000
0100
0001
0010
,
0100
0100
0100
0100
,
1000
0001
0100
0010
,
0010
1000
0100
0000
,
0010
0001
0100
0000
,
0001
0010
0100
1000
,
0000
2020
0000
0030
,
0001
0100
3100
0000
,
1000
0100
0001
0000
,
0010
0001
0100
1000
,
0000
0202
0000
0300
,
0010
0100
0010
0100
,
1000
1003
0000
1100
,
0001
0010
0001
0100
,
0010
1000
0000
1001
,
0010
1000
0100
0010
,
0001
0100
0000
0110
,
0001
0010
1000
0100
,
1000
0001
0000
0011
,
0002
0013
1000
1000
,
0010
1000
0100
0000
,
2000
3010
1000
0100
,
0010
0001
0001
0000
,
0200
0310
0100
0001
,
0010
0001
1000
0000
,
0010
0010
1000
0100
,
1000
0001
0100
0010
,
0200
0000
0000
0000
,
0000
0000
0000
0000
,
0300
0000
0000
0000
;

//---------------dance-single - ----------------
#NOTES:
     dance-single:
     :
     Medium:
     10:
     :
0000
0000
0000
0000
,
0000
0000
0000
0000
,
0000
0000
0000
0000
,
1001
1001
1001
1001
,
0010
0000
0100
0000
0001
1000
0100
0000
,
1000
0001
0100
0010
0000
0000
0110
0000
,
0001
0000
1000
0000
0100
0010
0001
0000
,
1000
0001
1000
0100
0000
0010
0100
0010
,
0100
0000
1000
0000
0010
0100
0001
0000
,
1000
0001
1000
0010
0000
0000
0110
0000
,
0001
0000
0010
0000
0001
0100
0010
0000
,
1000
0100
1000
0001
0000
0000
0011
0000
,
0100
0000
0010
0000
0100
0001
1000
0000
,
0010
1000
0100
1000
0000
0000
1010
0000
,
0100
0000
0010
0000
0001
0100
0001
0000
,
1000
0010
1000
0001
0000
0000
0110
0000
,
0001
0000
1000
0000
0001
0100
0010
0000
,
1000
0100
1000
0001
0000
0100
0010
0000
,
0000
1010
0000
0000
0101
0000
0000
1000
,
0100
0010
0000
0100
0010
0000
0110
0000
,
0001
0100
0010
1000
0000
0100
1000
0001
,
0000
0010
0001
1000
0000
0000
1100
0000
,
0000
0101
0000
0000
1100
0000
0000
0001
,
0010
0100
0000
0010
0100
0000
0110
0000
,
2000
0000
3020
0000
1030
0100
0010
0000
,
0001
1000
0010
0200
0000
0302
0000
0000
,
0003
0011
0000
0000
1100
0000
0000
0010
,
1000
0001
0000
1000
0001
0000
0110
0000
,
1001
0000
0010
2000
0000
3002
0000
0203
,
0000
0310
1000
0001
0000
0000
0101
0000
,
0001
1000
0010
0000
0100
0000
0100
0000
,
0001
0000
1000
0100
0000
0000
1100
0000
,
1000
0100
0010
0000
0001
0000
0001
0000
,
0100
0000
0010
1000
0000
0000
0101
0000
,
0100
0001
0010
0000
1000
0000
1000
0000
,
0100
0000
1000
0001
0000
0000
0011
0000
,
0200
0000
0320
0000
1030
0100
1000
0001
,
0200
0320
2030
3000
,
0011
0000
1010
0000
0001
0100
0010
1000
,
0200
0320
0032
0003
,
0010
0000
1000
0001
1000
0000
0100
0010
,
0002
2003
3020
0030
,
1010
0000
0001
0100
1000
0000
0011
0000
,
1001
0000
0100
0010
1000
0000
0110
0000
,
0101
0000
1000
0001
0010
0000
1100
0000
,
0002
0203
0320
2030
,
3100
0000
0000
1000
0001
0000
0000
1000
,
0100
1000
0001
0100
0000
0010
1000
0010
,
1000
0000
1000
0000
1000
0000
1000
0100
,
0010
0000
0001
1000
0000
0010
0100
0010
,
0100
0000
0000
0001
1000
0000
0000
0001
,
0010
0100
0010
0001
0000
1000
0010
1000
,
0010
0000
0010
0000
0010
0000
0010
0100
,
0001
0000
1000
0001
0000
0100
0010
0100
,
0010
1000
0001
0100
0000
0000
0000
0000
,
0001
0010
0100
1000
0000
0000
0000
0000
,
0010
1000
0010
0100
0000
0001
1000
0000
,
0010
0100
2002
0000
0003
0000
3100
0000
,
1000
0001
0100
0010
0000
0000
0000
0000
,
0100
0001
0010
1000
0000
0000
0000
0000
,
0100
1000
0010
1000
0000
0001
0100
0000
,
0001
1000
0220
0000
0030
0000
0310
0000
,
1010
0000
0101
0000
0010
1000
0100
0000
,
0001
0010
0001
0010
0000
0000
0110
0000
,
0110
0000
1001
0000
0010
1000
0100
0000
,
1000
0001
1000
0001
0000
0000
0011
0000
,
1100
0000
0101
0000
0010
1000
0001
0000
,
0100
0010
0100
0010
0000
0000
0110
0000
,
1001
0000
0110
0000
0001
0010
1000
0000
,
0100
0010
0100
0010
0000
0000
0011
0000
,
0001
1000
0010
0000
0100
0000
0100
0000
,
0010
0000
1000
0001
0000
0000
0011
0000
,
1000
0100
0010
0000
0001
0000
0001
0000
,
0100
0000
0010
1000
0000
0000
1010
0000
,
0100
0001
0010
0000
1000
0000
1000
0000
,
0001
0000
0100
0010
0000
0000
0101
0000
,
0010
0100
0010
0000
1000
0000
0001
0000
,
0100
0000
0001
1000
0000
0010
0100
0000
,
1001
0000
0000
0000
;

//---------------dance-single - ----------------
#NOTES:
     dance-single:
     :
     Hard:
     12:
     :
0000
0000
0000
0000
,
0000
0000
0000
0000
,
0000
0000
0000
0000
,
1001
0000
1001
0000
1000
1000
0001
0001
,
0010
0001
0100
0010
1000
0001
1000
0000
,
0001
0100
1000
1000
0000
0010
0100
0010
,
1000
0000
1100
0000
0001
0100
0101
0000
,
0001
0010
1000
1000
0000
0100
0010
0100
,
1000
0000
0001
0100
2000
0010
3010
0100
,
0001
0001
1000
0100
0000
0010
0010
0000
,
0100
0000
0001
1000
0200
0010
0310
0001
,
0100
0100
0010
1000
0000
0001
0001
0000
,
0010
0000
0001
0100
0020
1000
1030
0001
,
1000
1000
0100
0001
0000
0010
0010
0000
,
0001
0000
1000
0100
0002
0010
0013
1000
,
0100
0100
1000
0010
0000
0001
0001
0000
,
0011
0000
1100
0000
0001
0100
0010
1000
,
0100
0001
0100
1000
0000
0010
0100
0000
,
0001
0011
0000
1000
1010
0000
0010
0100
,
0001
0100
1000
0100
0001
0010
0100
0000
,
1000
0001
1000
0010
0000
0100
0001
1000
,
0000
1000
0100
0001
0000
0010
0100
0000
,
1000
1100
0000
0001
0101
0000
0100
0010
,
0001
0010
1000
0100
1000
0001
0100
0000
,
0110
0000
0110
0001
1000
0100
1000
0001
,
0010
0100
0010
0001
0100
0010
1000
0000
,
1000
1100
0000
0001
0011
0000
0100
0010
,
1000
1010
0000
0001
0101
0000
0010
1000
,
0001
1000
0100
0010
1000
0010
0001
0100
,
0000
0010
1000
0001
0000
0100
0100
0000
,
0001
1000
0010
0000
0001
0100
0010
1000
,
0100
0010
0001
0001
0000
0000
1001
0000
,
1000
0100
0010
0000
1000
0001
0100
0010
,
0001
0010
1000
1000
0000
0000
1010
0000
,
0100
0001
0010
0000
0100
1000
0001
1000
,
0010
0100
0001
0001
0000
0000
1100
0000
,
1001
0100
0010
1000
0100
0010
0001
0000
,
1000
0100
0001
0100
1000
0010
0100
0000
,
0001
0010
0100
0010
0001
0100
1000
0000
,
1010
0001
0100
0000
0011
1000
0100
0000
,
0110
0000
0001
0100
1000
0100
0001
0010
,
1000
0010
0100
0010
0001
0100
1000
0000
,
0101
0000
0001
0010
0100
1000
0001
0000
,
1000
0010
0100
0010
1000
0010
0100
0000
,
0001
0010
0100
0010
0001
0010
0100
0000
,
2000
3020
0230
0302
,
0013
0000
0001
0100
1000
1000
0000
0010
,
1000
0100
0010
0001
0000
0100
0010
0100
,
0101
0000
1100
0000
0101
0000
1000
0100
,
1000
0010
0100
0100
0000
0001
1000
0000
,
0010
0000
1000
0100
0001
0001
0000
0010
,
0001
0100
0001
1000
0000
0010
0100
0010
,
1010
0000
0011
0000
1010
0000
0001
0100
,
0001
1000
0100
0100
0000
0010
0001
0010
,
0001
0100
1000
1000
0000
0010
0100
0000
,
0010
1000
0001
0001
0000
1000
0100
1000
,
0010
0001
0010
1000
0010
0100
0010
0001
,
0010
1000
2100
0000
0001
0000
0100
0000
,
3001
1000
0010
0100
0010
1000
0001
0000
,
0010
0001
0010
0100
1000
0001
1000
0000
,
0010
1000
0100
1000
0001
0100
0010
0000
,
1000
0001
0012
0000
1000
0000
0100
0000
,
1003
0001
0100
0001
0010
0100
1000
0000
,
0010
1000
0010
0100
0000
0000
1001
0000
,
0010
0000
1001
0000
1000
0100
0001
0000
,
1000
0010
1000
0001
0000
0100
0010
0000
,
1001
0000
0110
0000
1000
0100
0001
0000
,
0010
0001
0010
0100
0010
0001
1000
0000
,
1100
0000
1010
0000
0001
1000
0100
0000
,
0010
0001
0010
0100
1000
0001
0100
0000
,
0001
1000
0010
0000
1000
0100
0010
0001
,
0100
0010
1000
0001
0000
0100
0010
0000
,
1000
0100
0010
0000
0001
1000
0001
0100
,
0010
0001
0010
1000
0000
0001
0100
0000
,
0100
0001
0010
0000
0100
0001
1000
0001
,
0010
0100
1000
0001
0000
1000
0100
0000
,
0010
0010
0010
0000
0001
1000
0001
0100
,
1000
0100
0001
0010
0000
0001
1000
0001
,
0100
0000
0000
0000
;
