#TITLE:Talk Dirty to Me;
#ARTIST:Poison;
#BANNER:Talk Dirty to Me-bn.png;
#BACKGROUND:Talk Dirty to Me-bg.png;
#JACKET:Talk Dirty to Me-jacket.png;
#MUSIC:Talk Dirty To Me.ogg;
#SAMPLESTART:66.869;
#SAMPLELENGTH:20;
#DISPLAYBPM:155:162;
#BPMS:0=155,12=157,15=160,20=158.08,24=156.5,32=157.9,35=159,43=158,46=162,50=158.6,58=157.8,64=160.12,71=158,80=157.341,83=159.65,87=156.875,96=157.435,107=158.7,114=161,115=157.96,116=156.897,124=155.27,138=158.2,144=160.051,160=158.023,176=156.527,182=157.983,184=157.003,186=160.04,188=157.98,196=156.789,200=156.25,204=157.189,207=155.4,208=161.135,212=157.86,216=157.125,217=155.654,220=157.16,226=159.13,229=161.02,232=159.667,236=158.193,239=155.67,244=157.61,250=155.14,256=159.42,260=158.196,268=156.7;
#BGCHANGES:;

//---------------dance-single - ----------------
#NOTES:
     dance-single:
     :
     Beginner:
     3:
     :
0000
0000
0000
0000
,
0000
0000
0000
0000
,
1000
0000
0001
0000
,
0100
0000
0010
0000
,
1000
0000
1000
0000
,
0001
0000
0001
0000
,
0010
0000
0001
0000
,
0100
0000
1000
0000
,
1001
0000
0000
0000
,
0110
0000
0000
0000
,
1001
0000
0000
0000
,
0110
0000
0000
0001
,
0001
0000
0000
0000
,
1000
0000
0010
0000
,
0100
0000
0000
0000
,
0001
0000
0010
0000
,
1000
0000
0000
0000
,
0000
0000
0010
0000
,
0100
0000
0000
0000
,
0000
0000
0000
0001
,
0001
0000
0100
0000
,
1000
0000
0010
0000
,
0001
0000
0000
0000
,
1000
0000
0010
0010
,
0010
0000
0000
0000
,
0000
0000
1000
0000
,
0001
0000
0000
0100
,
0100
0000
0010
0000
,
1000
0000
0000
0000
,
0100
0000
0010
0000
,
0001
0000
0000
0000
,
1000
0000
0001
0000
,
0100
0000
0000
0000
,
0000
0000
0010
0000
,
1000
0000
1000
0000
,
0010
0000
0010
0000
,
1000
0000
0100
0000
,
0001
0000
0010
0000
,
1000
0000
0000
0000
,
0001
0000
1000
1000
,
1000
0000
0000
0010
,
0010
0000
0100
0000
,
0001
0001
0000
0000
,
0010
0010
0010
0000
,
0001
0000
0100
0100
,
0100
0000
0010
0000
,
1000
0000
1000
0000
,
1000
0000
1000
0000
,
0010
0000
0100
0100
,
0100
0000
0001
0000
,
0010
0000
0010
0000
,
0010
0000
0010
0000
,
0001
0000
0100
0000
,
0010
0000
1000
0000
,
0100
0000
1000
1000
,
1000
0000
0001
0000
,
0010
0000
0100
0000
,
1000
0000
0001
0000
,
0100
0000
0010
0000
,
0200
0000
0300
0000
,
0001
0000
0010
0000
,
0001
0000
1000
0000
,
1001
0000
0010
0000
,
0200
0000
0300
0000
,
0001
0001
0001
0001
,
0001
0000
0000
0000
,
1000
0000
0001
0000
,
0100
0000
0000
0000
,
0010
0000
1000
0000
,
0100
0000
0000
0110
,
0000
0000
0000
0000
,
0000
0000
0000
0000
,
0000
0000
0000
0000
,
0000
0000
0000
0000
,
0000
0000
0000
0000
,
0000
0000
0000
0000
,
0000
0000
0000
0010
;

//---------------dance-single - ----------------
#NOTES:
     dance-single:
     :
     Easy:
     7:
     :
0000
0000
0000
0000
,
0000
0000
0000
0000
,
1000
1000
0001
0001
,
1000
0010
0100
0001
,
0010
0001
0100
0010
,
1000
0100
1000
0001
,
0100
0100
0010
0010
,
1000
0100
0001
0010
,
2002
0000
0000
3003
,
0010
1000
0100
0001
,
0010
0001
0100
0010
,
2000
0000
0000
3001
,
1000
0100
0000
0000
,
0010
0001
0100
0010
,
1000
0001
0000
0000
,
0010
0001
0010
0100
,
1000
0001
0000
0001
,
0000
0100
0010
1000
,
0100
0010
0000
0001
,
0000
0100
0000
0001
,
2000
3000
0020
0030
,
0002
0003
0200
0300
,
1000
0010
0000
0100
,
0110
0001
0010
0100
,
1000
0010
0000
0100
,
0001
0010
0001
0100
,
1000
0010
0001
0100
,
0001
0010
0100
0000
,
1001
1000
0010
0100
,
0001
0010
0001
0100
,
0010
1000
0100
0010
,
0001
0001
1000
1000
,
0010
1000
0100
0010
,
0001
0100
0001
1000
,
0010
0100
0010
1000
,
0000
0110
0001
0100
,
0002
0003
0200
0300
,
2000
3000
0020
0030
,
0001
0100
0000
0000
,
0010
1000
0100
0010
,
0001
0100
0000
0010
,
0000
1000
0100
0010
,
0001
0100
0001
1000
,
0010
0010
1000
0001
,
1001
0000
0001
0001
,
0001
0010
0100
1000
,
0010
0010
1000
1000
,
0100
0100
0001
0001
,
0110
0000
1000
0001
,
0010
0100
1000
0001
,
0100
0100
1000
1000
,
0010
0010
0001
0001
,
0100
0000
0100
0100
,
1000
0010
1000
0000
,
0001
0000
1001
0110
,
1000
0001
0010
0100
,
1000
0010
1000
0001
,
0100
0010
0010
0010
,
1000
0100
1000
0001
,
0200
0000
0000
0310
,
1000
0001
0010
0001
,
0100
0010
0010
0010
,
2002
0003
0001
0001
,
0100
0020
3000
1030
,
0100
0001
0010
0100
,
0010
1000
0001
1000
,
0001
0001
1000
1000
,
0001
1000
0000
0110
,
0010
0010
0100
0100
,
0010
0100
0000
2002
,
0000
0000
0000
0000
,
0000
0000
0000
0000
,
0000
0000
0000
0000
,
0000
0000
0000
0000
,
0000
0000
0000
0000
,
0000
0000
0000
0000
,
0000
0000
3003
0220
,
0000
0000
0000
0330
;

//---------------dance-single - ----------------
#NOTES:
     dance-single:
     :
     Medium:
     10:
     :
0000
0000
0000
0000
,
0000
0000
0000
0000
,
1000
1000
0001
0001
,
1000
0100
0010
0001
0000
0001
0100
0000
,
0110
0000
0000
1000
0000
1000
0100
0010
,
0001
0000
0000
0100
0000
0100
0010
1000
,
0001
0010
0001
0000
1000
0010
1000
0000
,
0001
0100
0010
1000
0000
0010
0100
0000
,
1002
0100
0010
0103
,
0001
1000
0001
1000
0001
1000
0001
1000
,
0200
0010
0001
0010
,
1000
0000
0301
0000
0100
1000
0100
1000
,
0001
1000
0010
0000
0000
0000
0000
0010
,
0100
0001
0010
0001
0100
0010
0000
1000
,
0000
0100
1000
0000
0000
0000
0000
0001
,
1000
0010
1000
0100
0010
0001
0000
0100
,
0010
0000
1010
0000
0000
0001
0100
0000
,
0010
0000
0101
0000
1000
0002
0000
0023
,
0000
0130
1000
0000
0000
0001
0100
0000
,
0011
0000
1010
0000
0000
0100
1000
0000
,
0002
0103
0200
1300
,
2000
0000
3010
0000
0020
0000
0031
1000
,
0001
0000
0100
0000
0000
0010
1000
0001
,
1000
0000
0100
0020
0000
0032
0000
0103
,
0010
0000
1001
0000
0000
1000
0100
0000
,
0010
0000
0001
0100
0020
0000
1030
0001
,
0000
0110
0000
0000
0000
0000
0002
0000
,
1003
0010
0000
0100
0000
0001
1000
0100
,
1000
0001
0100
0000
0000
0000
0010
1000
,
0000
1000
0100
0010
0100
0010
0000
0001
,
0100
0010
1000
0000
0000
0000
0100
1000
,
0000
0001
1000
0001
0010
0100
0000
1000
,
0010
0000
0100
0000
0000
0001
1000
0010
,
0000
0000
1000
0100
1000
0000
0001
0100
,
0010
0000
0000
0101
0000
0000
1010
0000
,
0000
0000
1100
0000
0001
0100
0010
0000
,
2000
3100
0200
0301
,
0002
0000
0013
0000
0020
0000
1030
0001
,
0010
0000
0011
0000
0001
0100
1000
0000
,
0010
0000
0100
0002
0000
2003
0000
3100
,
0010
0000
0011
0000
0001
1000
0000
0010
,
0100
0000
0101
0000
1000
0010
1000
0001
,
0000
1100
0000
0010
0000
1000
0001
0100
,
0010
0000
0100
0001
0000
1010
0000
0001
,
0100
0000
0001
1000
0020
0000
0230
0000
,
0302
0000
1003
0200
0000
1300
0001
0000
,
1001
0000
0001
0100
0010
0000
0010
1000
,
0100
0000
0100
0010
0001
1000
0001
0000
,
0110
0000
0010
1000
0200
0000
0320
0000
,
0032
0000
1003
0020
0000
1030
0100
0000
,
1100
0000
0010
1000
0100
0000
0100
0000
,
0100
0010
0001
0100
0000
0001
1000
0000
,
0101
0000
0001
0200
0000
0310
1000
0000
,
0001
1000
0000
0110
0000
0010
1000
0001
,
0200
0000
0301
1000
0002
0000
0023
0000
,
0031
0100
0000
1001
0000
1000
0010
0000
,
1000
0001
0000
0010
0000
0001
1000
0000
,
0010
0000
1010
0000
0100
1000
0001
0100
,
0010
1000
0100
0020
0000
0032
0000
2003
,
0000
0000
3002
0000
0013
0100
1000
0000
,
0001
1000
0000
0100
0000
1000
0001
0000
,
0100
0000
0011
0000
0010
0001
0100
0010
,
2000
0000
0000
0000
0000
0000
0000
0000
0001
0000
0000
0001
0000
0000
3001
0000
,
1000
0100
0020
0000
0000
0000
0031
0000
,
0100
0010
1000
0001
0000
0010
0100
1000
,
0001
0000
0001
0000
0001
0100
0010
1000
,
0001
0001
1000
1000
,
0001
0010
0100
1000
0000
0000
0110
0000
,
1000
0100
1000
0000
0001
0100
0001
0000
,
1000
0100
0010
0001
0000
0000
2002
0000
,
0000
0000
0000
0000
,
0000
0000
0000
0000
,
0000
0000
0000
0000
,
0000
0000
0000
0000
,
0000
0000
0000
0000
,
0000
0000
0000
0000
,
0000
0000
0003
3020
,
2000
0000
0030
0000
0000
3001
0000
0000
;

//---------------dance-single - ----------------
#NOTES:
     dance-single:
     :
     Hard:
     13:
     :
0000
0000
0000
0000
,
0000
0000
0000
0000
,
1000
0100
1000
0100
0001
0100
0001
0100
,
1000
0010
0100
0001
0010
0100
1000
0000
,
0011
0000
0001
0100
0000
0010
1000
0001
,
1010
0000
1000
0100
0000
0010
0001
1000
,
0001
0100
0001
0100
1000
0100
1000
0100
,
0001
0010
0100
1000
0010
0100
0001
0000
,
1001
0000
0100
0000
0001
1000
1000
0000
,
1100
1000
0001
0010
0001
0100
1000
0000
,
0010
0000
1000
0000
0001
0100
0100
0000
,
0001
0000
0010
0000
0001
0100
0010
1000
,
0001
1000
0100
0000
0010
0000
0001
1000
,
0010
0001
0010
1000
0010
0001
0010
0100
,
1000
0100
0001
0000
0010
0001
0100
0010
,
0001
0010
0100
0010
1000
0100
0001
0100
,
1000
0010
0100
0000
0001
0010
1000
0000
,
0100
0010
0001
0000
1000
0010
0000
0101
,
0000
0110
0001
0000
0010
0100
1000
0000
,
0010
1000
0001
0000
1000
0100
0010
0000
,
0002
0103
0200
1300
,
2000
0000
3010
0000
0020
0000
0031
1000
,
0010
0000
0100
0000
0001
0010
0001
1000
,
0010
1000
0100
1100
0000
0110
0000
0011
,
0100
0000
0001
0000
0010
0001
1000
0000
,
0010
1000
0100
0010
0002
0000
1003
1010
,
0000
1001
0001
0100
2000
0000
3010
0000
,
1000
0001
0000
0101
0000
0100
0010
1000
,
0001
0010
0100
0000
1000
0000
0010
1000
,
0100
0001
0100
0010
1000
0010
0001
0100
,
0010
0000
1000
0000
0100
0010
0001
1000
,
0000
1000
0001
0010
1000
0010
0001
0100
,
0010
0000
1000
0000
0100
0010
0001
0000
,
1000
0001
0100
0000
0110
0000
1000
0010
,
1000
0000
0100
0011
0000
0100
1010
0000
,
0001
0100
0010
1000
0100
0010
0001
0000
,
2000
3100
0200
0301
,
0002
0000
0013
0000
0020
0000
1030
0001
,
0010
0000
0001
0000
0100
0010
1000
0000
,
0100
0000
1000
1001
0000
1100
0000
0101
,
1000
0001
0010
0000
0001
0100
0010
1000
,
0100
0000
0010
0001
2000
0000
3010
0100
,
0000
0001
0000
1000
0001
0010
0100
1000
,
0010
1000
0100
0020
0000
0031
1000
0001
,
0101
0000
1000
0001
0011
0000
0011
0000
,
0001
0100
1000
0010
1000
0100
0001
0000
,
1000
0010
1000
0010
0001
0010
0001
0010
,
1000
0100
0010
0001
0100
0010
1000
0000
,
1100
0000
0001
1000
1001
0000
1001
0000
,
0010
0001
0100
0010
1000
0100
0001
0000
,
1000
0100
1000
0100
0001
0100
0001
0100
,
1000
0010
0100
0001
0010
0100
1000
0000
,
0110
0000
0001
0100
1000
0000
1010
0000
,
0001
0000
1000
0000
0100
0000
0010
0000
0000
0000
0001
0000
1000
0000
0010
0100
,
0010
0000
1000
0001
0101
0000
0101
0000
,
1000
0001
0000
1010
0000
0100
0010
0000
,
0001
0100
0010
1000
0000
1000
0100
0010
,
0001
0000
1100
0000
1100
0001
0100
0010
,
1000
0100
0001
0011
0000
1100
0000
0101
,
0000
0001
1000
0010
1000
0100
0001
0000
,
0010
0001
0100
0010
0000
1000
0001
1000
,
0100
0000
0110
0000
0110
0001
0100
0010
,
2000
0000
0000
0000
3000
0000
0000
0000
1100
0000
0000
0101
0000
0000
1100
0000
,
0001
0000
1000
0100
2000
0000
0000
0000
3010
0000
0100
0000
0001
0000
0000
0000
,
0010
0000
0010
0000
0001
0000
1000
0000
0010
0000
0100
0001
0100
0000
0010
0000
,
1000
0000
0010
0000
0010
0100
0001
1000
,
0001
0010
0001
0010
1000
0010
1000
0010
,
0001
1000
0010
0100
0000
0000
0110
0000
,
0001
0100
0001
0100
1000
0100
1000
0100
,
0001
0010
0100
1000
0000
0000
2002
0000
,
0000
0000
0000
0000
,
0000
0000
0000
0000
,
0000
0000
0000
0000
,
0000
0000
0000
0000
,
0000
0000
0000
0000
,
0000
0000
0000
0000
,
0000
0000
3003
0022
,
0000
0000
0000
0033
;
