#TITLE:Taj He Spitz (Tommie Sunshine's Brooklyn Fire Re-Touch);
#ARTIST:DKC Crew;
#BANNER:Taj He Spitz (Tommie Sunshine's Brooklyn Fire Re-Touch)-bn.png;
#BACKGROUND:Taj He Spitz (Tommie Sunshine's Brooklyn Fire Re-Touch)-bg.png;
#JACKET:Taj He Spitz (Tommie Sunshine's Brooklyn Fire Re-Touch)-jacket.png;
#MUSIC:Taj He Spitz (Tommie Sunshine's Brooklyn Fire Re-Touch).ogg;
#SAMPLESTART:9.753;
#SAMPLELENGTH:20;
#DISPLAYBPM:120;
#BPMS:0=120;
#BGCHANGES:;

//---------------dance-single - ----------------
#NOTES:
     dance-single:
     :
     Beginner:
     3:
     :
0000
0000
0000
0000
,
0000
0000
0000
0000
,
0000
0000
0000
0000
,
1000
0000
1000
0000
,
0001
0000
0001
0000
,
0100
0000
0010
0000
,
0100
0000
0010
0000
,
1000
0000
0001
0000
,
1001
0000
0000
0000
,
0100
0000
0100
0000
,
0001
0000
0010
0000
,
0100
0000
0100
0000
,
1000
0000
0001
0000
,
0100
0000
0010
0000
,
1000
0000
0100
0000
,
0010
0000
0001
0000
,
1000
0000
0001
0000
,
1000
0000
0000
0000
,
0100
0000
0000
0000
,
0001
0000
0000
0000
,
0100
0000
1000
0000
,
0010
0000
1000
0000
,
0001
0000
0100
0000
,
0010
0000
1000
0000
,
0001
0000
1000
0000
,
0100
0000
0010
0000
,
0001
0000
1000
0000
,
0100
0000
0010
0000
,
0001
0000
1000
0000
,
1001
0000
0000
0000
,
0100
0000
0001
0000
,
0010
0000
0100
0000
,
1000
0000
0001
0000
,
0100
0000
1000
0000
,
0100
0000
0001
0000
,
0010
0000
1000
0000
,
0010
0000
0100
0000
,
0010
0000
0001
0000
,
1000
0000
0100
0000
,
0010
0000
0001
0000
,
1000
0000
0001
0000
,
0100
0000
0010
0000
,
1000
0000
0001
0000
,
0100
0000
0010
0000
,
1000
0000
0001
0000
,
0010
0000
0000
0100
,
0100
0000
0000
1000
,
1000
0000
0000
0001
,
0001
0000
1000
0000
,
1001
0000
0000
0000
,
0000
0000
0000
0000
;

//---------------dance-single - ----------------
#NOTES:
     dance-single:
     :
     Easy:
     5:
     :
0000
0000
0000
0000
,
0000
0000
0000
0000
,
0000
0000
0000
0000
,
1000
0001
1000
0001
,
0010
1000
0100
0001
,
2000
3000
0002
0003
,
1001
1001
1000
0100
,
0020
0030
0200
0300
,
0110
0000
1001
0000
,
0010
0100
0001
0001
,
0010
0100
1000
1000
,
0010
0001
0010
1000
,
0002
0003
2000
3000
,
0100
0001
0010
0010
,
0100
1000
0010
0010
,
0100
1000
0100
0001
,
0010
0010
0100
0100
,
2000
0000
3000
0010
,
0002
0000
0003
0100
,
0020
0000
0030
1000
,
1001
0000
0110
0000
,
1000
0100
1000
1000
,
0001
0100
0001
0001
,
0010
0100
1000
0010
,
0100
0110
0010
0110
,
0100
0001
1000
1000
,
0100
1000
0001
0001
,
0100
0010
1000
0100
,
0010
0110
0100
0110
,
0000
0001
0000
1000
,
0001
0001
1000
0010
,
0100
0001
1000
1000
,
0200
0300
0020
0030
,
0001
0100
0010
0001
,
0010
1000
0010
0100
,
0001
0010
0100
1000
,
0002
0003
2000
3000
,
1000
0100
0010
0010
,
0001
0100
0010
0010
,
1000
0001
0010
0100
,
1000
1001
0001
1001
,
0010
0001
0100
0100
,
0010
1000
0100
0100
,
0010
0001
1000
0100
,
0001
1001
1000
1001
,
0002
0003
0010
0100
,
2000
3000
0001
0100
,
0020
0030
1000
0100
,
0110
0000
1001
1001
,
0100
0000
0000
0000
,
0000
0000
0000
0000
;

//---------------dance-single - ----------------
#NOTES:
     dance-single:
     :
     Medium:
     8:
     :
0000
0000
0000
0000
,
0000
0000
0000
0000
,
0000
0000
0000
0000
,
0100
0010
0100
0000
1000
0000
0001
0000
,
0011
0000
1100
0000
1000
0001
1000
0001
,
0100
0110
0010
0110
,
1000
0010
0100
0000
0001
0010
0100
0000
,
1000
1100
0100
1100
,
2002
0000
3003
0110
,
0010
0000
0100
0000
0001
0000
0010
0001
,
0100
0000
0010
0000
1000
0000
0100
1000
,
0010
0000
0001
0000
0100
0000
1000
0100
,
0002
0013
0200
1300
,
0010
0000
0100
0000
0010
0100
0001
0000
,
0010
0000
0100
0000
0010
0100
1000
0000
,
0010
0000
0001
0000
0010
0000
1000
0100
,
0010
0000
0001
0100
0010
0000
1000
0001
,
1001
0000
1000
0000
0000
0100
1000
0000
,
0001
0000
0100
0000
0000
0001
0100
0000
,
0010
0000
1000
0000
0000
0010
1000
0000
,
0001
0000
0010
0000
0100
0000
1000
0001
,
1000
1100
0001
0101
,
1000
0100
1000
0000
0001
0100
0001
0010
,
0010
0011
1000
1010
,
0001
0010
1000
0000
1000
0010
0001
0000
,
0100
0000
0101
0000
0010
1000
0001
0000
,
0010
0000
0011
0000
0100
1000
0001
0000
,
0100
0000
0110
0000
0001
1000
0010
0000
,
0001
0100
1000
0010
,
0100
0010
0100
0000
0010
0000
0100
0000
,
0001
1000
0001
0000
1000
0000
0001
0000
,
0010
0100
0010
0000
0100
0000
0010
0000
,
0100
1000
0100
1000
0001
0100
0001
0100
,
0010
1000
0100
1001
,
0010
0001
0100
1001
,
1000
0010
0100
0000
0001
0010
0100
0000
,
2000
0000
3010
0000
0200
0001
0301
0000
,
1000
0101
1000
0101
,
0010
1000
0001
0000
0100
0001
0010
0001
,
0001
1010
0001
1010
,
0100
0001
1000
0000
0100
1000
0010
0000
,
0100
0000
0101
0000
0010
0001
0100
0000
,
0010
0000
1010
0000
0100
1000
0010
0000
,
0100
0000
1001
0000
0100
1000
0010
0000
,
0102
1003
2100
3001
,
1002
0100
0100
0103
,
2001
0100
0100
3100
,
0120
0001
0001
0031
,
1000
0001
1010
0101
,
1001
0000
0000
0000
,
0000
0000
0000
0000
;

//---------------dance-single - ----------------
#NOTES:
     dance-single:
     :
     Hard:
     12:
     :
0000
0000
0000
0000
,
0000
0000
0000
0000
,
0000
0000
0000
0000
,
0110
0000
0000
0110
0000
0000
1000
0000
0100
0000
0010
0000
0001
0000
0001
0000
,
1000
0100
0001
0100
1000
0010
0001
0010
,
1010
0000
1010
0000
0101
0000
0101
1000
,
0100
1000
0001
0100
0010
1000
0100
0000
,
0011
0000
0011
0000
1100
0000
1100
1000
,
0002
0000
0103
0001
2000
0000
3010
1000
,
1000
0010
1000
0001
1000
0010
0101
0000
,
1000
0000
0001
0000
0100
0000
0010
0000
1000
0000
0001
0100
0000
0100
0001
0000
,
1000
0100
1000
0001
1000
0100
0011
0000
,
1001
0000
0000
1001
0000
0000
0000
0000
0110
0000
0000
0110
0000
0000
0000
0000
,
0100
1000
0010
0100
0001
1000
0001
0000
,
0100
0010
1010
0000
0100
0010
0011
0000
,
0001
1000
0100
0001
0100
1000
0010
0100
,
1001
0000
0000
1001
0000
0000
0000
0000
0110
0000
0000
0010
0100
0010
0000
0010
,
2000
0000
0100
0000
0000
3010
0100
0001
,
0002
0000
0010
0000
0000
0103
0010
1000
,
2001
0000
0100
0000
0000
3001
0010
0100
,
1100
0000
0000
1001
0000
0000
0001
0000
0101
0000
0000
1001
0000
0000
1000
0000
,
0010
0000
0100
0000
0001
0000
1000
0010
0000
0010
0100
0000
0001
0000
0001
0000
,
1000
0010
0100
1000
0100
0001
0010
0010
,
0100
0000
1000
0000
0001
0000
0010
0100
0000
0100
1000
0000
0001
0000
0010
0000
,
0011
0000
0000
1001
0000
0000
0010
0000
1010
0000
0000
1001
0000
0000
0010
0000
,
0100
0000
0010
0000
0001
0000
1000
0100
0000
0100
0010
0000
0001
0000
0001
0000
,
1000
0100
0010
1000
0010
0001
1000
1000
,
0010
0000
1000
0000
0001
0000
0100
0010
0000
0010
1000
0000
0001
0000
0100
0000
,
0101
0000
0000
1001
0000
0000
0100
0000
1100
0000
0000
1001
0000
0000
0100
0000
,
0001
0000
0000
0001
0000
0000
1000
0000
0010
0000
0100
0000
0001
0000
0001
0000
,
1000
0000
0000
1000
0000
0000
0001
0000
0010
0000
0100
0000
1000
0000
1000
0000
,
0001
0000
0000
0001
0000
0000
0100
0000
0001
0000
0010
0000
0100
0000
0000
0000
,
0110
1000
0001
1000
0110
0001
1000
0001
,
0110
0000
1000
0000
0100
0010
0100
0000
,
1000
0000
0010
0000
0100
0000
0010
0000
1000
0001
0000
1000
0001
0000
0010
0000
,
0100
0010
0000
0100
0010
0000
0100
0000
1000
0000
0100
0000
0001
0000
0100
0000
,
0010
0000
0000
0010
0000
0000
0010
0000
0100
0000
0000
0100
0000
0000
0100
0000
,
1000
0000
0001
0000
0100
0000
0010
0000
1000
0010
0000
0010
0100
0000
0100
0000
,
0001
0000
0010
0000
0100
0000
1000
0000
0010
1000
0000
1000
0100
0000
0100
0000
,
0010
0000
0001
0000
1000
0000
0100
0000
0010
0001
0000
0001
1000
0000
1000
0000
,
1100
0000
0000
1100
0000
0000
0000
0000
0101
0000
0000
0101
0000
0000
0010
0000
,
1000
0000
0001
0000
0100
0000
0100
0000
0010
1000
0000
0001
0100
0000
0010
0000
,
0100
0000
0001
0000
0010
0000
0010
0000
0100
1000
0000
0001
0010
0000
0100
0000
,
0010
0000
0001
0000
0100
0000
0100
0000
0010
1000
0000
0100
0010
0000
0001
0000
,
0011
0000
0000
1100
0000
0000
0000
0000
1010
0000
0000
0101
0000
0000
0001
0000
,
1000
0100
1000
0000
0100
0000
0100
0000
1000
0000
1000
0000
0100
0000
0010
0000
,
0001
0100
0001
0000
0100
0000
0100
0000
0001
0000
0001
0000
0100
0000
0010
0000
,
1000
0001
1000
0000
0001
0000
0001
0000
1000
0000
1000
0000
0001
0000
1000
0000
,
1001
0100
0010
0100
1001
0100
1001
0100
,
0010
0000
0000
0000
,
0000
0000
0000
0000
;

//---------------dance-single - ----------------
#NOTES:
     dance-single:
     :
     Challenge:
     14:
     :
0000
0000
0000
0000
,
0000
0000
0000
0000
,
0000
0000
0000
0000
,
1100
0000
0000
1100
0000
0000
0001
0100
1000
0100
0001
0000
0010
0000
0100
0000
,
2000
0000
3020
0000
0230
0000
0301
1000
0000
0001
0000
1000
0100
0000
0010
0000
,
0011
0000
0000
0100
0010
0000
1000
0000
1100
0000
0000
0010
0100
0000
0110
0000
,
0000
0000
1001
0000
0000
0000
0001
0100
0002
0000
2003
0000
3010
1000
0010
0100
,
0001
0000
0000
0010
0100
0000
1000
0000
0010
0000
0100
0000
0010
1000
0001
0000
,
0101
0100
0010
1000
1010
0001
1000
0200
,
0310
0000
0000
0110
0000
1001
0000
0000
1000
0100
0000
0010
0000
0000
0001
1000
,
0001
0000
0000
0100
0010
1000
0020
0000
0230
0000
0301
1000
0000
1000
0010
0100
,
0001
0000
0000
0011
0000
1010
0000
0001
0100
0000
0010
1000
0000
0100
0010
0000
,
0110
0000
0000
0001
0100
0000
0110
0000
1001
0000
0000
0010
1000
0000
0001
0100
,
0001
0000
0101
0000
1000
0000
0100
0000
1000
0010
0001
0010
1000
0000
0100
0000
,
0010
0001
0100
0000
1010
0000
0000
0000
0100
1000
0010
0000
0101
0000
0000
0000
,
0001
0100
0010
0100
0001
0000
1000
0000
0010
0000
1000
0000
1100
0000
0101
0000
,
0010
1000
0000
1000
0100
0000
0010
0000
0001
0100
0000
0001
0100
0001
0000
0100
,
0001
0000
1001
0000
1100
0000
0010
1000
0200
0000
0320
0000
0032
0000
1003
0000
,
0011
0000
0001
0100
0000
0010
2000
0000
3100
0000
0000
0000
2000
0001
0000
3002
,
0000
0000
0103
0010
0001
0010
1000
0000
0100
1000
0001
0000
0010
0001
0000
0100
,
0020
0000
0000
1000
0000
0000
0130
0000
0110
0000
0000
1001
0000
0000
0001
0100
,
0010
0000
2000
0000
3200
0000
1300
0001
0010
1000
0010
0001
0100
0000
0110
0000
,
0010
0000
1000
0100
2000
0000
3002
0000
0013
1000
0010
0001
0200
0000
0320
0000
,
1030
0000
0200
0000
2300
0000
3001
0010
1000
0010
0100
0010
0002
0000
1003
0000
,
0010
0000
1000
0100
1000
0000
0001
0100
0001
0000
1000
0010
0100
0000
0001
0000
,
0010
0000
0002
0000
2003
0000
3010
0100
1000
0100
0010
0100
0002
0000
2003
0000
,
3100
0000
0010
0100
2000
0000
3002
0000
0103
1000
0100
0001
2000
0000
3020
0000
,
0130
0000
0002
0000
2003
0000
3100
1000
0001
0010
1000
0010
0002
0000
0203
0000
,
0310
0000
1000
0100
1000
0000
0001
0100
0001
0000
1000
0010
0100
0000
0001
0000
,
0011
0000
0000
0011
0000
0000
1000
0100
0001
0100
1000
0000
0010
0000
0100
0000
,
0101
0000
0000
0101
0000
0000
1000
0100
0001
0100
1000
0000
0010
0000
0100
0000
,
1010
0000
0000
1010
0000
0000
0100
0001
0100
1000
0100
0000
0010
0000
0001
0000
,
0200
0000
0320
0000
2030
0000
3001
0100
0000
0010
0000
0100
0001
0000
1000
0000
,
0010
1000
0010
0100
0010
1000
0010
0100
0001
1000
0000
0001
1000
0000
0100
0000
,
1000
0001
0010
0001
1000
0001
0010
0001
0100
0010
0000
0100
0001
0000
1000
0100
,
1000
0001
0000
1000
0001
0000
0100
0010
1000
0000
0001
1000
0010
0000
0100
0010
,
0100
0001
0010
0001
0000
1000
0000
0001
0200
0000
0000
0010
0000
0000
1300
0000
,
0100
0000
0002
0000
0023
0000
0130
1000
0010
0100
0010
1000
0002
0000
0023
0000
,
1030
0000
0010
0100
0020
0000
0032
0000
1003
0100
1000
0001
0200
0000
0320
0000
,
1030
0000
0002
0000
2003
0000
3100
0010
0100
1000
0001
0010
0002
0000
0203
0000
,
0310
0000
0100
0001
1000
0000
0100
1000
0001
0000
0100
0001
1000
0000
0010
0000
,
1000
0100
2000
0000
3020
0000
0031
0010
0100
0010
0001
0010
2000
0000
3002
0000
,
0013
0001
0010
0100
2000
0000
3002
0000
0103
1000
0100
0001
2000
0000
3020
0000
,
1030
0001
0200
0000
0302
0000
0013
0100
1000
0001
1000
0100
2000
0000
3020
0000
,
1030
0000
0100
0010
0001
0000
0100
0010
1000
0000
0001
1000
0010
0000
0100
0000
,
0001
0100
1000
0000
1100
0000
1100
0000
1010
0000
1010
0000
1001
0000
1001
0000
,
0010
1000
0001
0000
0011
0000
0011
0000
0101
0000
0101
0000
1001
0000
1001
0000
,
1000
0010
0001
0000
0011
0000
0011
0000
0110
0000
0110
0000
1100
0000
1100
0000
,
1000
0010
0001
0010
1000
0000
0100
0000
0100
0001
0100
1000
0100
0000
0110
0000
,
1001
0000
0000
0000
;

//---------------dance-double - ----------------
#NOTES:
     dance-double:
     :
     Easy:
     6:
     :
00000000
00000000
00000000
00000000
,
00000000
00000000
00000000
00000000
,
00000000
00000000
00000000
00000000
,
00001000
00000001
00001000
00000001
,
00000100
00001000
00010000
00100000
,
10000000
10000000
00010000
00010000
,
01000000
00001000
00010000
00000100
,
00001000
00001000
00000001
00000001
,
00000200
00000300
00002000
00003000
,
00010000
00001000
00010000
00001000
,
00100000
00010000
10000000
00010000
,
01000000
00100000
01000000
00100000
,
00020000
00030000
00002000
00003000
,
00000100
00000001
00000100
00000001
,
00000010
00001000
00000010
00001000
,
00010000
00100000
00010000
00100000
,
10000000
01000000
10000000
01000000
,
00100000
00000000
00001000
00000000
,
00010000
00000000
00000010
00000000
,
00000100
00000000
00000001
00000000
,
00000020
00000030
00002000
00003000
,
00010000
00001000
00000100
00000100
,
00001000
00010000
01000000
01000000
,
00010000
00001000
00000010
00000010
,
00000002
00000003
00000200
00000300
,
00001000
00010000
00000100
00000100
,
00010000
00001000
01000000
01000000
,
00001000
00010000
00000010
00000010
,
00002000
00003000
00000002
00000003
,
00001001
00000000
00000100
00000010
,
00001000
00001000
00000100
00010000
,
00001000
00001000
00100000
00010000
,
02000000
03000000
00200000
00300000
,
10000000
01000000
00010000
00000000
,
00001000
00010000
00001000
00000000
,
00001000
00000100
00000001
00000000
,
00000020
00000030
00000200
00000300
,
00010000
00001000
00100000
00010000
,
10000000
00010000
01000000
00001000
,
00010000
00000010
00001000
00000001
,
00000200
00000300
00002000
00003000
,
00010000
00100000
10000000
10000000
,
01000000
00010000
00001000
00001000
,
00000100
00000001
00000010
00000010
,
00002000
00003000
00020000
00030000
,
00011000
00000000
00010000
01000000
,
10000000
00000000
00100000
00010000
,
00001000
00000000
00000100
00000001
,
00000020
00000030
00002000
00003000
,
00010000
00000000
00000000
00000000
,
00000000
00000000
00000000
00000000
;

//---------------dance-double - ----------------
#NOTES:
     dance-double:
     :
     Medium:
     7:
     :
00000000
00000000
00000000
00000000
,
00000000
00000000
00000000
00000000
,
00000000
00000000
00000000
00000000
,
00010000
00001000
00010000
00000000
00001000
00000000
00000100
00000000
,
00000110
00001001
00001100
00000101
,
00000010
00000001
00000010
00000001
,
00000100
00001000
00010000
00000000
00001000
00010000
01000000
00000000
,
10000000
00100000
10000000
00100000
,
01100000
00000000
00010000
00001000
,
00011000
00000000
00011000
00000000
00000010
00001000
00000100
00000000
,
00001000
00000000
00001000
00000000
00000001
00000100
00001000
00000000
,
00010000
00000000
00010000
00000000
00001000
00010000
01000000
00000000
,
20000000
00100000
31000000
10010000
,
10000000
00000000
01000000
00000000
00100000
00000000
01000000
00010000
,
00001000
00000000
00010000
00000000
00001000
00000000
00000100
00000010
,
00001000
00000000
00000001
00000000
00000010
00000000
00000100
00010000
,
00001000
00000000
00100000
00001000
00010000
00000000
00001000
01000000
,
00020000
10030000
20000000
31000000
,
02000000
03010000
00020000
00031000
,
00002000
00003100
00000200
00000301
,
00001001
00000000
00000110
00001001
,
00000100
00000000
00000001
00000000
00000010
00000000
00001000
00010000
,
00100000
00000000
00010000
00000000
00001000
00000000
00000100
00001000
,
00010000
00000000
01000000
00000000
10000000
00000000
00100000
01000000
,
00020000
00130000
20000000
31000000
,
00100000
00000000
00001000
00000000
00010000
00000000
00000010
00001000
,
00000100
00000000
00010000
00000000
00001000
00000000
01000000
00010000
,
00100000
00000000
00001000
00000000
00010000
00000000
00000100
00001000
,
00000002
00000013
00002000
00003100
,
00010000
00010000
00010000
00000000
00001000
00000000
00011000
00000000
,
00100000
00100000
00100000
00000000
00010000
00000000
10010000
00000000
,
01000000
01000000
01000000
00000000
00010000
00000000
00110000
00000000
,
00001000
00010000
00001000
00010000
00000100
00001000
00000100
00001000
,
00000001
00000000
00000100
00000000
00001000
00000000
00001100
00001000
,
00000100
00000000
00001000
00000000
00010000
00000000
00011000
00010000
,
00001000
00000000
00010000
00000000
01000000
00000000
01010000
00010000
,
02000000
13000000
00020000
01030000
,
00100000
00000000
10000000
00000000
01000000
00000000
00010000
00001000
,
00000100
00000000
00001000
00000000
00010000
00000000
01000000
00010000
,
00001000
00000000
00000100
00000000
00000001
00000000
00000010
00000100
,
00002000
00003010
00000200
00000301
,
00000100
00000000
00001000
00000000
00010000
00000000
00001000
00100000
,
00010000
00000000
01000000
00000000
00001000
00000000
00010000
00000010
,
00001000
00000000
00000100
00000000
00010000
00000000
00001000
01000000
,
00020000
00130000
02000000
13000000
,
10010000
00010000
00010000
00010000
,
00011000
00001000
00001000
00001000
,
00001001
00000001
00000001
00000001
,
00000100
00000010
00001010
00001100
,
00001001
00000000
00000000
00000000
,
00000000
00000000
00000000
00000000
;

//---------------dance-double - ----------------
#NOTES:
     dance-double:
     :
     Hard:
     12:
     :
00000000
00000000
00000000
00000000
,
00000000
00000000
00000000
00000000
,
00000000
00000000
00000000
00000000
,
00000110
00000000
00000000
00000110
00000000
00000000
00000001
00000000
00000100
00000000
00001000
00000000
00010000
00000000
00100000
00000000
,
01000000
00001000
00010000
01000000
10000000
00100000
01000000
00010000
,
10010000
11000000
01010000
11000000
,
00100000
01000000
10000000
00100000
00010000
00010000
00001000
00001000
,
00011000
00000000
00001100
00000000
00010100
00000000
00001100
00000100
,
00001002
00000103
00002010
00003001
,
00001000
00000010
00000100
00000010
00010000
00001000
00000100
00000000
,
00001000
00100000
01000000
00100000
00001000
00010000
01000000
00000000
,
10000000
00100000
00010000
00000000
00001000
00000010
00000001
00001000
,
00001001
00000000
00000000
00001001
00000000
00000000
00000100
00000000
00000110
00000000
00000000
00000110
00000000
00000000
00000010
00000000
,
00001000
00000100
00010000
00000010
00000100
00001000
00010000
00000000
,
00000010
00010000
00101000
00000000
01000000
00001000
00010100
00000000
,
00001000
00100000
00010000
01000000
00100000
00000000
10100000
00010000
,
01000000
00000000
00000000
01001000
00000000
00000000
00000000
00000000
00010000
00000000
00000000
00010100
00000000
00000000
00001000
00000100
,
00000010
00000000
00000002
00000000
00000000
00000010
00000013
00000100
,
00001000
00000000
00000020
00000000
00000000
00000100
00000130
00000001
,
00000010
00000000
00002000
00000000
00000000
00010000
00013000
00001000
,
00110000
00000000
00000000
10010000
00000000
00000000
00010000
00000000
11000000
00000000
00000000
10010000
00000000
00000000
00100000
00000000
,
01000000
00000000
10000000
00000000
00010000
00000000
00100000
00010000
00000000
10000000
00000000
00100000
10000000
00000000
00010000
00000000
,
01000000
00100000
00010000
00001000
00000100
00000010
00010000
00010000
,
00000010
00000000
00000100
00000000
00000001
00000000
00000010
00000001
00000000
00001000
00000000
00000010
00001000
00000000
00000100
00000000
,
00010100
00000000
00000000
00011000
00000000
00000000
00001000
00000000
00101000
00000000
00000000
00110000
00000000
00000000
01000000
00000000
,
00100000
00000000
10000000
00000000
00010000
00000000
01000000
00010000
00000000
10000000
00000000
01000000
10000000
00000000
00010000
00000000
,
00100000
01000000
00010000
00001000
00000010
00000100
00010000
00010000
,
00000100
00000000
00000010
00000000
00000001
00000000
00000100
00000001
00000000
00001000
00000000
00000100
00001000
00000000
00000010
00000000
,
00010010
00000000
00000000
00011000
00000000
00000000
00001000
00000000
00101000
00000000
00000000
00011000
00000000
00000000
00011000
00000000
,
00011000
00000000
00010000
00000000
00001000
00010000
00001000
00010000
,
01000000
00100000
10000000
00100000
01000000
00010000
00001000
00000100
,
00000010
00000001
00000010
00000100
00001000
00010000
00100000
01000000
,
00010000
00100000
00001000
00010000
00000010
00001000
00000100
00010000
,
00011000
00000000
00000000
00000000
00011000
00000000
00000000
00000000
00100000
00010000
00000000
01000000
00010000
00000000
00000000
00000000
,
10000000
00000000
00100000
00000000
10000000
00000000
01000000
00000000
00100000
00001000
00000000
00010000
00000100
00000000
00001000
00000000
,
00000010
00010000
00000000
00001000
01000000
00000000
00100000
00000000
10000000
00000000
01000000
00000000
00100000
00000000
00001000
00000000
,
00010100
00000000
00000000
00010100
00000000
00000000
00010000
00000000
00101000
00000000
00000000
00101000
00000000
00000000
00010000
00000000
,
01000000
00000000
10000000
00000000
00010000
00000000
00100000
01000000
00000000
10000000
00000000
00100000
01000000
00000000
00001000
00000000
,
01000000
00100000
00010000
00001000
00000100
00000010
00010000
00010000
,
00000010
00000000
00000100
00000000
00000001
00000000
00000010
00000100
00000000
00001000
00000000
00000001
00000010
00000000
00000100
00000000
,
00010100
00000000
00000000
00011000
00000000
00000000
00001000
00000000
00101000
00000000
00000000
00110000
00000000
00000000
01000000
00000000
,
00100000
00000000
10000000
00000000
00010000
00000000
01000000
00100000
00000000
10000000
00000000
01000000
00100000
00000000
00001000
00000000
,
00100000
01000000
00010000
00001000
00000010
00000100
00010000
00010000
,
00000100
00000000
00000010
00000000
00000001
00000000
00000100
00000010
00000000
00001000
00000000
00000001
00000100
00000000
00000010
00000000
,
00010010
00000000
00000000
00011000
00000000
00000000
00001000
00000000
00101000
00000000
00000000
00011000
00000000
00000000
00011000
00000000
,
00001000
00010000
01000000
00100000
00001000
00100000
01000000
00010000
,
00010000
00001000
00000100
00000010
00010000
00000010
00000100
00001000
,
00001000
00100000
00010000
01000000
00001000
00010000
00000010
00001000
,
00000100
00000010
00001000
00010000
01000000
10000000
00100000
01000000
,
00010000
00000000
00000000
00000000
,
00000000
00000000
00000000
00000000
;
