#VERSION:0.83;
#TITLE:TWISTED;
#SUBTITLE:;
#ARTIST:POPSTARBILLS;
#TITLETRANSLIT:;
#SUBTITLETRANSLIT:;
#ARTISTTRANSLIT:;
#GENRE:;
#ORIGIN:;
#TAGS:;
#CREDIT:;
#BANNER:TWISTED-bn.png;
#BACKGROUND:TWISTED-bg.png;
#PREVIEWVID:;
#JACKET:TWISTED-jacket.png;
#CDIMAGE:;
#DISCIMAGE:;
#LYRICSPATH:;
#CDTITLE:;
#MUSIC:TWISTED.ogg;
#OFFSET:0.000000;
#SAMPLESTART:11.656000;
#SAMPLELENGTH:20.000000;
#SELECTABLE:YES;
#DISPLAYBPM:157.000000;
#BPMS:0.000000=157.000000;
#STOPS:;
#DELAYS:;
#WARPS:;
#TIMESIGNATURES:0.000000=4=4;
#TICKCOUNTS:0.000000=4;
#COMBOS:0.000000=1;
#SPEEDS:0.000000=1.000000=0.000000=0;
#SCROLLS:0.000000=1.000000;
#FAKES:;
#LABELS:0.000000=Song Start;
#BGCHANGES:;
#KEYSOUNDS:;
#ATTACKS:
;

//---------------dance-single - ----------------
#NOTEDATA:;
#CHARTNAME:;
#CHARTHASH:3319630150:
#STEPSTYPE:dance-single;
#BANNER:;
#DESCRIPTION:;
#CHARTSTYLE:;
#DIFFICULTY:Hard;
#METER:16;
#METERF:0.000000;
#RADARVALUES:0.793579,0.809923,0.289986,0.235614,1.046670,613.000000,581.000000,32.000000,26.000000,0.000000,0.000000,0.000000,0.000000,0.000000,0.793579,0.809923,0.289986,0.235614,1.046670,613.000000,581.000000,32.000000,26.000000,0.000000,0.000000,0.000000,0.000000,0.000000;
#CREDIT:;
#DISPLAYBPM:157.000000;
#NOTES:
0000
0000
0000
0000
,
0000
0000
0000
0000
,
0000
0000
0000
0000
,
0000
0000
0000
0000
,
0001
0000
0001
0000
0001
0100
1000
0100
,
0001
0000
1010
0000
1000
0100
0001
0100
,
1000
0000
1000
0000
1000
0010
0001
0010
,
1000
0000
0101
0000
0001
0010
0010
0010
,
1002
0000
0000
0000
0000
0000
0100
0000
0000
0103
0000
0000
0000
0000
0010
0000
1000
0000
0001
0000
1000
0000
0010
0000
,
0200
0000
0000
0301
1000
0001
0000
0010
0100
1000
0010
0100
,
0002
0000
0000
1003
0100
1000
0000
0010
0100
0010
1000
0001
,
0200
0000
0000
0000
0000
0000
0000
0000
0000
0000
0000
0000
0301
0000
0000
0000
0010
0000
0000
0000
0001
0000
0000
0000
1000
0000
0000
0000
0000
0000
0100
0000
0000
1000
0000
0000
0001
0000
0000
1000
0000
0000
0100
0000
0000
0000
0000
0000
,
0120
0000
0000
0031
0010
0100
1000
0000
1000
0001
0100
0010
,
2000
0000
3001
1000
0010
0100
0001
0000
0010
0001
0100
1000
,
0010
0000
0000
0000
0000
0000
0000
0000
0010
0000
0000
0000
1000
0000
0000
0100
0000
0000
1000
0000
0000
0000
0000
0000
0001
0000
0000
0100
0000
0000
0001
0000
0000
0000
0000
0000
0010
0000
0000
0000
0100
0000
0000
0000
1000
0000
0000
0000
,
0001
0000
0001
1000
0100
1000
0100
0010
0100
0010
0001
1000
,
0002
0000
0000
2003
0000
0000
3010
0000
0000
1100
0000
0000
0000
0000
1000
0000
0100
0000
0010
0000
0001
0000
0100
0000
,
0010
0000
0000
0000
1000
0000
0000
0000
0010
0000
0000
0000
0200
0000
0000
0000
0000
0000
0000
0000
0000
0000
0000
0000
0301
0000
0000
0010
0000
0000
0001
0000
0000
0000
0000
0000
1000
0000
0000
0100
0000
0000
1000
0000
0000
0000
0000
0000
,
0001
0010
0100
0000
1100
0000
0001
0000
1000
0010
0100
0000
0001
1000
0001
0000
,
0100
0010
1000
0000
1001
0000
0001
0100
1000
0100
0001
0000
0010
0001
0010
0000
,
0100
1000
0001
0000
0100
0010
0100
0000
0001
0010
0001
0000
1000
0010
1000
0000
,
0100
0010
0001
0000
1000
0100
1000
0000
0010
1000
0001
0000
0010
0001
0100
0000
,
0010
1000
0001
1000
0010
0000
0100
0000
0001
0010
0001
0000
0100
1000
0100
0000
,
1000
0010
0100
0000
0001
1000
0001
0000
0010
0100
1000
0000
0001
0100
0010
0000
,
0100
0000
0000
0001
0000
0000
1000
0000
0000
0000
0000
0000
1001
0000
0000
0000
0000
0000
0110
0000
0000
0000
0000
0000
0000
0000
0000
0000
1000
0000
0000
0000
0001
0000
0000
0000
0010
0000
0000
0000
0100
0000
0000
0000
1000
0000
0000
0000
,
0020
0000
0000
0130
0001
1000
0000
0001
1000
0010
0100
0010
,
2000
0000
0000
3100
0010
0001
0000
0100
0001
0010
0100
1000
,
0020
0000
0000
0000
0000
0000
0000
0000
0000
0000
0000
0000
0130
0000
0000
0000
0001
0000
0000
0000
1000
0000
0000
0000
0001
0000
0000
0000
0000
0000
0100
0000
0000
0010
0000
0000
1000
0000
0000
0001
0000
0000
0100
0000
0000
0000
0000
0000
,
2010
0000
0000
3001
1000
0100
0010
0000
0010
0001
1000
0001
,
0200
0000
0310
1000
0001
1000
0010
0000
0100
0001
1000
0100
,
1000
0000
0000
0000
0000
0000
0000
0000
1000
0000
0000
0000
0001
0000
0000
0010
0000
0000
0001
0000
0000
0000
0000
0000
0100
0000
0000
0010
0000
0000
0100
0000
0000
0000
0000
0000
0010
0000
0000
1000
0000
0000
0001
0000
0000
0000
0000
0000
,
0100
0000
0100
0010
1000
0001
1000
0001
0010
0100
1000
0001
,
0100
0000
0000
0000
0000
0000
0000
0000
0100
0000
0000
0000
0010
0000
0000
0000
0000
0000
1000
0000
0000
0001
0000
0000
0010
0000
0000
0000
0000
0000
0010
0000
0000
0000
0000
0000
0001
0000
0000
0000
0000
0000
1000
0000
0000
0000
0000
0000
,
0100
0010
0001
0100
1000
1000
1000
0001
,
0100
0000
0100
0000
0100
0010
1000
0001
,
0010
0100
1000
0010
1000
0001
0100
0010
,
1000
0100
0100
0100
1000
1000
0001
0100
,
0010
0010
0010
1000
0001
0001
0100
0010
,
1000
0001
0001
0001
0010
1000
0100
0010
,
0100
0100
0100
1000
0001
0001
0100
0010
,
1000
0001
0010
0001
0100
0010
1000
0100
1000
0010
0100
0001
,
0010
0000
0000
0010
0001
1000
0001
0100
0010
1000
0100
1000
,
0001
0000
0000
0000
0000
0000
0011
0000
0000
0100
0000
0000
1000
0000
0001
0000
0010
0000
0001
0000
1000
0000
0100
0000
,
0010
0000
0010
0001
0100
0001
1000
0100
0010
0100
1000
0001
,
0100
0000
0010
1000
0001
0010
0100
0000
1100
0000
1000
0001
0100
0010
0100
0000
,
0110
0000
0000
0001
1000
0001
0010
0100
1000
0001
0100
0010
,
0100
0000
0000
0000
0000
0000
0011
0000
0000
1000
0000
0000
0001
0000
0100
0000
0010
0000
1000
0000
0100
0000
0010
0000
,
0001
0000
1000
0010
0100
0010
1000
0100
0010
0001
1000
0001
,
2000
0000
0000
0000
0000
0000
3001
0000
0000
1010
0000
0000
0000
0000
0010
0000
0100
0000
0001
0000
1000
0000
0100
0000
,
0020
0000
0000
0031
1000
0001
0000
1000
0100
1000
0100
0010
,
0002
0000
0000
0103
0010
0100
0000
0001
1000
0010
1000
0100
,
0020
0000
0000
0000
0000
0000
0000
0000
0000
0000
0000
0000
0031
0000
0000
0000
0100
0000
0000
0000
0010
0000
0000
0000
1000
0000
0000
0000
0000
0000
0001
0000
0000
0010
0000
0000
0100
0000
0000
1000
0000
0000
0001
0000
0000
0000
0000
0000
,
0201
0000
0000
0310
0100
0010
1000
0000
1000
0001
0010
0001
,
0200
0000
0301
1000
0100
1000
0010
0000
0010
1000
0001
0010
,
0100
0000
0000
0000
0000
0000
0000
0000
0100
0000
0000
0000
1000
0000
0000
0001
0000
0000
1000
0000
0000
0000
0000
0000
0001
0000
0000
0010
0000
0000
0001
0000
0000
0000
0000
0000
0100
0000
0000
0010
0000
0000
1000
0000
0000
0000
0000
0000
,
0001
0000
0001
1000
0100
0010
1000
0010
0001
0100
0010
1000
,
0002
0000
2003
0000
3010
0000
0000
0000
0010
0000
0000
0100
0000
0000
0001
0000
,
1000
0000
0000
0000
1100
0000
0000
0000
0101
0000
0100
0010
0000
0100
0010
0000
,
1000
0000
0000
0000
1010
0000
0000
0000
0011
0000
0001
0100
0000
0001
0100
0000
,
0010
0000
0000
0000
1001
0000
0000
0000
0110
0000
1000
0001
0000
1000
0001
0000
,
0100
0000
0000
0000
1010
0000
0000
0000
0101
0000
0001
0010
0000
0100
1000
0000
,
0010
0000
0000
0000
1001
0000
0000
0000
0110
0000
1000
0001
0000
0010
0100
0000
,
1000
0000
0000
0000
0011
0000
0000
0000
1100
0000
0010
0100
0000
0001
1000
0000
,
0100
0000
0000
0000
0110
0000
0000
0000
1001
0000
0010
1000
0000
0100
0001
0000
,
2100
0000
0010
0000
3020
0000
0000
0000
1030
0000
0001
0100
0000
0001
1000
0000
,
0010
0000
0000
0000
1001
0000
0000
0000
0100
0000
0010
1000
0000
0001
1000
0000
,
0100
0000
0000
0000
0100
0000
0000
0000
1000
0000
0001
1000
0000
0001
0010
0000
,
0100
0000
0000
0000
0100
0000
1000
0001
1000
0000
0010
0100
0000
0001
0020
0000
,
0200
0000
0000
0330
;

//---------------dance-single - ----------------
#NOTEDATA:;
#CHARTNAME:;
#CHARTHASH:0:
#STEPSTYPE:dance-single;
#BANNER:;
#DESCRIPTION:;
#CHARTSTYLE:;
#DIFFICULTY:Medium;
#METER:12;
#METERF:0.000000;
#RADARVALUES:0.570911,0.560716,0.235614,0.163117,0.131400,441.000000,415.000000,26.000000,18.000000,0.000000,0.000000,0.000000,0.000000,0.000000,0.570911,0.560716,0.235614,0.163117,0.131400,441.000000,415.000000,26.000000,18.000000,0.000000,0.000000,0.000000,0.000000,0.000000;
#CREDIT:;
#DISPLAYBPM:157.000000;
#NOTES:
0000
0000
0000
0000
,
0000
0000
0000
0000
,
0000
0000
0000
0000
,
0000
0000
0000
0000
,
0001
0000
0001
0000
0001
0100
1000
0100
,
0001
0000
1010
0000
1000
0100
0001
0100
,
1000
0000
1000
0000
1000
0010
0001
0010
,
1000
0000
0101
0000
0001
0010
0100
1000
,
2001
0000
3010
0100
0000
0001
1000
0100
,
0120
0000
0031
1000
0000
0010
0100
0001
,
0012
0000
1003
0010
0000
1000
0001
0100
,
0201
0000
0310
1000
0001
0010
0100
1000
,
1020
0000
0130
0001
2000
0000
3100
0010
,
0001
0000
0000
0000
0001
0000
1000
0000
0000
0010
0000
0000
0100
0000
0000
0001
0000
0000
0010
0000
0000
0100
0000
0000
,
1100
0000
0000
0000
1000
0000
0010
0000
0000
0100
0000
0000
0010
0000
0000
0100
0000
0000
0010
0000
0000
1000
0000
0000
,
0001
0000
0000
0000
0001
0000
1000
0000
0000
0010
0000
0000
1000
0000
0000
0100
0000
0000
0010
0000
0000
0001
0000
0000
,
0100
0010
1000
1000
0000
0001
0010
0100
,
1000
1000
0110
0000
0001
1000
0010
0100
,
0001
0001
0010
0001
0100
0010
1000
0100
,
1000
1000
0010
0100
0001
0100
0001
0010
,
0100
0100
1000
0010
1000
0001
0010
0100
,
1000
1000
0100
0001
0100
0010
0001
1000
,
0010
0010
0000
1000
0001
0010
0100
1000
,
0001
0001
0100
0010
1000
0001
1000
0100
,
0010
0010
0001
1000
0000
0010
0100
0001
,
0021
0000
0130
1000
0000
0001
1000
0010
,
0210
0000
0301
0010
0000
0001
1000
0100
,
2100
0000
3010
0100
0001
1000
0001
0010
,
1002
0000
0103
0010
1000
0001
1000
0100
,
0010
0000
0000
0000
0010
0000
0001
0000
0000
1000
0000
0000
0001
0000
0000
0100
0000
0000
0010
0000
0000
1000
0000
0000
,
1010
0000
0000
0000
1000
0000
0010
0000
0000
0100
0000
0000
0010
0000
0000
0100
0000
0000
0010
0000
0000
1000
0000
0000
,
0001
0000
0000
0000
0001
0000
1000
0000
0000
0100
0000
0000
1000
0000
0000
0010
0000
0000
0100
0000
0000
0001
0000
0000
,
0010
0000
0001
0000
0100
0000
0000
0000
0100
0000
0000
0010
0000
0000
1000
0000
,
0001
0000
0000
0000
1000
0000
0000
0000
0010
0000
0000
0100
0000
0000
0001
0000
,
0010
0000
0000
0000
0100
0000
0000
0000
0010
0000
0000
0001
0000
0000
1000
0000
,
0010
0000
0000
0000
1000
0000
0000
0000
0100
0000
0000
1000
0000
0000
0001
0000
,
0010
0000
0000
0000
0001
0000
0000
0000
0001
0000
0000
1000
0000
0000
0100
0000
,
1000
0000
0000
0000
0010
0000
0000
0000
0100
0000
0000
0001
0000
0000
0100
0000
,
0010
0000
0000
0000
1000
0000
0000
0000
0001
0000
0000
1000
0000
0000
0100
0000
,
1000
0000
0000
0000
0001
0000
0000
0000
0010
0000
0000
0100
0000
0000
1000
0000
,
0100
0010
0001
0010
0100
1000
0001
1000
,
0010
0000
0101
0001
1000
0100
1000
0010
,
1100
0000
0001
1000
0010
0100
0001
0010
,
0011
0000
1000
0001
0100
0010
1000
0001
,
0010
0001
0100
0001
1000
0100
0010
0001
,
1001
0000
1000
0010
1000
0100
0010
0001
,
0110
0000
0010
1000
0010
0100
1000
0001
,
1010
0000
0001
1000
0001
0010
0100
1000
,
0020
0000
0130
0001
0000
1000
0001
1000
,
0200
0000
0310
0001
0000
0100
0010
1000
,
0002
0000
1003
0010
0000
0100
0010
1000
,
0002
0000
1003
0100
1000
0010
0100
0001
,
0010
0000
0001
0100
0001
1000
0100
0010
,
0001
0000
0000
0000
0001
0000
1000
0000
0000
0010
0000
0000
0100
0000
0000
1000
0000
0000
0100
0000
0000
0001
0000
0000
,
1000
0000
0000
0000
1000
0000
0010
0000
0000
0100
0000
0000
0010
0000
0000
0100
0000
0000
0010
0000
0000
1000
0000
0000
,
0001
0000
0000
0000
0001
0000
1000
0000
0000
0010
0000
0000
0100
0000
0000
1000
0000
0000
0100
0000
0000
0010
0000
0000
,
1000
0000
0001
0000
0100
0000
0000
0000
0010
0000
0000
1000
0000
0000
0010
0000
,
1000
0000
0000
0000
1000
0000
0000
0000
0001
0000
0000
0010
0000
0000
0100
0000
,
0010
0000
0000
0000
0010
0000
0000
0000
0001
0000
0000
0100
0000
0000
1000
0000
,
0001
0000
0000
0000
0001
0000
0000
0000
1000
0000
0000
0010
0000
0000
0100
0000
,
0010
0000
0000
0000
1010
0000
0000
0000
0001
0000
0000
1000
0000
0000
0100
0000
,
1000
0000
0000
0000
0011
0000
0000
0000
0100
0000
0000
0001
0000
0000
0010
0000
,
0100
0000
0000
0000
1100
0000
0000
0000
0010
0000
0000
1000
0000
0000
0001
0000
,
0100
0000
0000
0000
0101
0000
0000
0000
0001
0000
0000
0010
0000
0000
1000
0000
,
2001
0000
0000
0000
3020
0000
0000
0000
0130
0000
0000
0001
0000
0000
1000
0000
,
0010
0000
0000
0000
0110
0000
0000
0000
0100
0000
0000
0001
0000
0000
1000
0000
,
0100
0000
0000
0000
0100
0000
0000
0000
0100
0000
0000
0010
0000
0000
0001
0000
,
1000
0000
0000
0000
1000
0000
0010
0000
0100
0000
0000
0001
0000
0000
2000
0000
,
0200
0000
0000
3300
;

//---------------dance-single - ----------------
#NOTEDATA:;
#CHARTNAME:;
#CHARTHASH:0:
#STEPSTYPE:dance-single;
#BANNER:;
#DESCRIPTION:;
#CHARTSTYLE:;
#DIFFICULTY:Easy;
#METER:7;
#METERF:0.000000;
#RADARVALUES:0.372840,0.404961,0.380607,0.163117,0.000000,288.000000,246.000000,42.000000,18.000000,0.000000,0.000000,0.000000,0.000000,0.000000,0.372840,0.404961,0.380607,0.163117,0.000000,288.000000,246.000000,42.000000,18.000000,0.000000,0.000000,0.000000,0.000000,0.000000;
#CREDIT:;
#DISPLAYBPM:157.000000;
#NOTES:
0000
0000
0000
0000
,
0000
0000
0000
0000
,
0000
0000
0000
0000
,
0000
0000
0000
0000
,
0001
0001
0001
0001
,
1000
1000
1000
1000
,
0010
0010
0010
0010
,
0100
0100
0100
0100
,
1002
0103
0000
1000
,
2001
3010
0000
0100
,
0210
0301
0000
0100
,
0120
1030
0001
0100
,
1001
0010
1000
0001
,
1100
0010
0100
0001
,
0011
1000
1000
1000
,
0110
0010
0100
0001
,
1002
0013
0000
0100
,
1000
1100
0001
1000
,
0210
0301
1000
1000
,
1010
0010
0100
0001
,
0011
1000
0010
0100
,
0010
0010
1000
0001
,
0220
0300
1000
1030
,
0001
0001
1000
0001
,
2001
3100
0000
0010
,
0012
1003
0000
0100
,
0210
0301
0000
0100
,
2100
3010
1000
0001
,
1001
0100
0001
1000
,
1100
0010
0100
0001
,
0011
1000
1000
1000
,
0110
0010
0100
0001
,
1001
1000
1000
1000
,
0010
0010
0100
0100
,
0001
0001
0001
0001
,
0010
0010
0100
0100
,
1001
1000
0010
0100
,
0001
0010
0001
0100
,
1000
0010
1000
0001
,
0100
0010
0100
0001
,
0100
0100
0100
0100
,
0110
0001
0010
1000
,
1010
0101
1000
0010
,
0110
0001
1000
0001
,
0011
0100
1000
0010
,
1100
0001
0001
1000
,
0110
0010
0010
0100
,
0101
1000
0001
1000
,
1002
0013
0000
0100
,
0201
1300
0000
0001
,
1020
0130
0000
0010
,
2100
3001
1000
0100
,
1001
0010
1000
0100
,
1100
0001
0100
1000
,
0011
1000
1000
1000
,
0110
0010
1000
0001
,
1001
0100
0010
0010
,
0010
1000
0001
0010
,
0001
0100
1000
1000
,
1000
0010
1000
0001
,
0010
0010
0010
0010
,
0001
0100
0100
1000
,
0010
1000
1000
0001
,
0001
0001
0001
0010
,
2100
0001
0100
3100
,
0010
1000
0100
0010
,
0001
0001
1000
0010
,
1000
0100
0010
0001
,
0200
0000
0000
0300
;

//---------------dance-single - ----------------
#NOTEDATA:;
#CHARTNAME:;
#CHARTHASH:0:
#STEPSTYPE:dance-single;
#BANNER:;
#DESCRIPTION:;
#CHARTSTYLE:;
#DIFFICULTY:Beginner;
#METER:4;
#METERF:0.000000;
#RADARVALUES:0.201955,0.246488,0.181242,0.000000,0.000000,156.000000,136.000000,20.000000,0.000000,0.000000,0.000000,0.000000,0.000000,0.000000,0.201955,0.246488,0.181242,0.000000,0.000000,156.000000,136.000000,20.000000,0.000000,0.000000,0.000000,0.000000,0.000000,0.000000;
#CREDIT:;
#DISPLAYBPM:157.000000;
#NOTES:
// measure 0
0000
0000
0000
0000
,  // measure 1
0000
0000
0000
0000
,  // measure 2
0000
0000
0000
0000
,  // measure 3
0000
0000
0000
0000
,  // measure 4
0001
0000
0001
0000
,  // measure 5
0001
0000
0001
0000
,  // measure 6
1000
0000
1000
0000
,  // measure 7
1000
0000
1000
0000
,  // measure 8
0010
0010
0000
0000
,  // measure 9
0100
0100
0000
0000
,  // measure 10
0010
0010
0000
0000
,  // measure 11
0100
0100
0100
0000
,  // measure 12
1001
0000
0001
0000
,  // measure 13
1001
0000
1000
0000
,  // measure 14
1001
0000
0010
0000
,  // measure 15
1001
0000
0100
0000
,  // measure 16
0001
0001
0000
0000
,  // measure 17
1000
0000
1000
0000
,  // measure 18
0010
0000
0010
0000
,  // measure 19
0100
0000
0001
0000
,  // measure 20
1000
0000
0001
0000
,  // measure 21
0010
0010
0010
0000
,  // measure 22
0001
0000
0100
0000
,  // measure 23
0100
0100
0100
0000
,  // measure 24
1000
1000
0000
0000
,  // measure 25
0010
0010
0000
0000
,  // measure 26
0100
0100
0000
0000
,  // measure 27
0001
0001
0001
0000
,  // measure 28
1001
0000
0001
0000
,  // measure 29
1001
0000
1000
0000
,  // measure 30
1001
0000
0010
0000
,  // measure 31
1001
0000
0100
0000
,  // measure 32
0010
0000
0010
0000
,  // measure 33
1000
0000
0001
0000
,  // measure 34
0000
0000
0010
0000
,  // measure 35
0100
0000
1000
0000
,  // measure 36
0001
0000
0001
0000
,  // measure 37
1000
0000
0010
0000
,  // measure 38
0000
0000
0100
0000
,  // measure 39
0010
0000
0100
0000
,  // measure 40
0001
0001
0001
0000
,  // measure 41
0110
0000
0100
0000
,  // measure 42
0110
0000
0010
0000
,  // measure 43
0110
0000
0001
0000
,  // measure 44
1000
1000
1000
0000
,  // measure 45
0110
0000
0100
0000
,  // measure 46
0110
0000
0010
0000
,  // measure 47
0110
0000
1000
0000
,  // measure 48
0001
0001
0000
0000
,  // measure 49
0010
0010
0000
0000
,  // measure 50
0100
0100
0000
0000
,  // measure 51
1000
1000
1000
0000
,  // measure 52
1001
0000
0001
0000
,  // measure 53
1001
0000
1000
0000
,  // measure 54
1001
0000
0010
0000
,  // measure 55
1001
0000
0100
0000
,  // measure 56
0001
0000
0001
0000
,  // measure 57
1000
0000
1000
0000
,  // measure 58
0010
0000
0010
0000
,  // measure 59
0100
0000
0100
0000
,  // measure 60
0001
0000
0001
0000
,  // measure 61
1000
0000
1000
0000
,  // measure 62
0010
0000
0010
0000
,  // measure 63
0100
0000
0100
0000
,  // measure 64
0110
0000
0001
0001
,  // measure 65
0001
0000
1000
0000
,  // measure 66
1001
0000
0010
0010
,  // measure 67
0010
0000
1000
0000
,  // measure 68
0100
0000
0000
0000
;
