#TITLE:TRIP MACHINE (xac nanoglide mix);
#ARTIST:DE-SIRE;
#BANNER:TRIP MACHINE (xac nanoglide mix).png;
#BACKGROUND:TRIP MACHINE (xac nanoglide mix)-bg.png;
#JACKET:TRIP MACHINE (xac nanoglide mix)-jacket.png;
#MUSIC:TRIP MACHINE (xac nanoglide mix).ogg;
#SAMPLESTART:12.71;
#SAMPLELENGTH:20;
#DISPLAYBPM:170;
#BPMS:0=170;
#BGCHANGES:;

//---------------dance-single - ----------------
#NOTES:
     dance-single:
     :
     Beginner:
     4:
     :
0000
0000
0000
0000
,
0000
0000
0000
0000
,
0000
0000
0000
0000
,
0000
0000
0000
0000
,
0000
0000
0000
0000
,
0000
0000
0000
0000
,
0000
0000
0000
0000
,
0000
0000
0000
0000
,
0000
0000
0000
0000
,
1000
0000
1000
0000
,
1000
0100
1000
0000
,
0001
0000
0001
0000
,
0001
0100
0001
0000
,
0100
0000
0100
0000
,
0100
0001
0100
0000
,
0010
0000
0010
0000
,
0010
1000
0010
0000
,
1000
0000
0001
0000
,
1000
0001
1000
0000
,
0010
0000
0100
0000
,
0010
0100
0010
0000
,
1000
0000
0100
0000
,
0001
0100
0001
0000
,
0001
0000
0100
0000
,
0010
0000
0000
0000
,
0100
0000
0100
0000
,
0100
0000
0000
0000
,
0001
0000
0001
0000
,
0001
0001
0001
0000
,
0100
0000
0100
0000
,
0100
0000
0000
0000
,
1000
0000
1000
0000
,
1000
1000
1000
0000
,
0010
0010
0000
0000
,
1000
0000
0001
0001
,
0100
0100
0000
0000
,
0010
0000
0000
0000
,
0100
0100
0000
0000
,
0001
0000
1000
0000
,
0010
0010
0000
0000
,
0100
0000
0100
0000
,
0010
0000
0000
0000
,
1000
0000
0000
0000
,
0100
0000
0000
0000
,
0001
0000
0000
0000
,
0010
0000
0000
0000
,
0001
0000
0000
0000
,
0100
0000
0000
0000
,
1000
0000
0000
0000
,
0010
0000
0100
0000
,
0001
0000
0000
0000
,
0010
0000
0100
0000
,
1000
0000
0000
0000
,
0010
0010
0010
0000
,
0100
0000
0000
0000
,
0001
0000
1000
0000
,
0001
1000
0001
1000
,
0001
0000
0000
0000
,
0100
0000
0000
0000
,
1000
0000
1000
0000
,
0001
0001
0100
0000
,
0001
0000
0001
0000
,
1000
1000
0100
0000
,
1000
0000
0010
0000
,
0001
0000
0000
0000
,
0010
0000
1000
0000
,
0010
0000
0000
0000
,
0010
0000
0001
0000
,
1000
1000
0100
0000
,
0010
0000
1000
0000
,
0001
0001
0100
0000
,
0010
0000
0100
0000
,
1000
0000
0001
0000
,
0010
0010
0010
0000
,
1000
0001
1000
0000
,
1001
0000
0000
0000
,
0000
0000
0000
0000
;

//---------------dance-single - ----------------
#NOTES:
     dance-single:
     :
     Easy:
     8:
     :
0000
0000
0000
0000
,
0000
0000
0000
0000
,
0000
0000
0000
0000
,
0000
0000
0000
0000
,
0000
0000
0000
0000
,
0000
0000
0000
0000
,
0000
0000
0000
0000
,
0200
0000
0000
0300
,
0010
0000
0000
0110
,
0001
0101
0000
0010
,
0000
0001
0000
0001
0000
0001
0000
0000
,
0100
1100
0000
0010
,
0000
1000
0000
1000
0000
1000
0000
0000
,
0010
1010
0000
0100
,
0000
0010
0000
0010
0000
0010
0000
0000
,
0100
0101
0000
1000
,
0000
0010
0000
0010
0000
0010
0000
0000
,
1000
0200
0000
0310
,
0000
0001
0000
0010
0000
0001
0000
0000
,
1000
0020
0000
0130
,
0000
0001
0000
1000
0000
0001
0000
0000
,
0100
0020
0000
1030
,
0000
0100
0000
0010
0000
0100
0000
0000
,
0010
0002
0000
1003
,
0001
0000
0000
0010
0000
0000
0100
0000
,
0110
0001
0010
1000
,
0100
0001
0010
1000
,
0001
0100
0000
0100
,
0010
0100
0000
0100
,
1010
0001
0100
1000
,
0010
0001
0100
1000
,
0001
0100
0000
0100
,
0100
0000
0000
0010
0000
0000
0110
0000
,
1000
0000
0020
0000
0000
0130
0001
0000
,
0101
0000
1000
0001
,
0010
0000
0200
0000
0000
1300
0001
0000
,
0100
0000
0000
0010
0000
0100
0000
0010
,
1000
1001
0100
0010
,
2000
0000
3100
0010
,
0001
0010
1000
0001
,
0011
1001
1100
0000
,
0200
0300
0020
0030
,
0200
0300
0020
0030
,
2000
3000
0200
0300
,
0020
0030
0002
0003
,
0100
0001
0010
1000
,
0100
1000
0010
0001
,
0100
0001
0010
1000
,
0100
0010
0000
0010
,
1001
0000
0100
0000
0000
1000
0100
0000
,
0010
0000
0100
0000
0000
0001
0100
0000
,
0010
0000
0100
0000
0000
1000
0100
0000
,
0010
0001
0100
1000
,
0020
0001
1030
0000
,
1001
0000
0010
0000
,
0200
1000
0010
0001
,
0310
1001
0110
1001
,
0100
1001
0000
0000
,
1001
0000
0100
0010
,
1001
0010
0000
0020
,
0000
0000
0000
1000
0000
1030
0001
0000
,
1010
1000
0000
0010
,
0101
1000
0001
1000
,
0001
0100
0000
0100
,
0002
0000
0000
1000
0000
1003
0100
0000
,
0000
1000
0000
0001
0000
1000
0000
0001
,
0100
0000
0001
1000
,
0100
1001
0000
1000
,
0002
0000
0000
0100
0000
0103
0010
0000
,
0100
0010
0000
0100
,
1001
0100
0100
0100
,
0010
1000
1000
0010
,
0002
0000
0000
1000
0000
1003
0010
0000
,
0100
0010
1000
0100
,
0010
0001
0100
0000
,
0110
0000
1000
0000
,
0010
0000
0001
0200
,
0000
0000
0000
0000
,
0300
0000
0000
0000
,
0000
0000
0000
0000
;

//---------------dance-single - ----------------
#NOTES:
     dance-single:
     :
     Medium:
     12:
     :
0000
0000
0000
0000
,
0000
0000
0000
0000
,
0000
0000
0000
0000
,
0000
0000
0000
0000
,
0000
0000
0000
0000
,
0000
0000
0000
0000
,
0000
0000
0000
0000
,
2002
0000
0000
3003
,
0100
0000
0000
0000
0000
0100
0010
0000
,
1000
0100
0010
0000
0000
0010
0100
0001
,
0100
0010
0001
0100
0001
1000
0100
0000
,
1000
0000
0100
0000
0010
0000
0000
0000
0000
0000
1000
0001
0000
0000
0010
0000
,
0100
1000
0010
0100
1000
0100
0010
0000
,
0010
0000
1000
0000
0001
0000
0000
0000
0000
0000
0010
1000
0000
0000
0001
0000
,
0010
0001
0100
0010
0001
0010
1000
0000
,
0010
0000
1000
0000
0001
0000
0000
0000
0000
0000
0001
0100
0000
0000
1000
0000
,
0001
0010
0001
1000
0100
0010
0001
0000
,
0010
0000
0000
0000
1200
0000
0000
0000
0000
0000
0310
0001
0000
0000
0100
0000
,
0001
1000
0000
0001
1000
0100
0010
0000
,
0001
0000
1000
0000
0020
0000
0000
0000
0000
0000
0130
0001
0000
0000
1000
0000
,
0100
0010
0000
0101
0000
0010
1000
0001
,
1000
0000
0000
0000
0012
0000
0000
0000
0000
0000
1003
0100
0000
0000
0010
0000
,
0001
0100
0000
0010
1000
0100
0010
0000
,
0001
0000
0100
0000
0020
0000
0000
0000
0000
0000
0130
0001
0000
0000
1000
0000
,
1001
0000
0000
0100
0000
0000
0010
0000
0000
1000
0000
0000
0001
0000
0000
0000
,
0110
0000
1000
0100
0001
0010
0001
0100
,
0010
1000
0001
0010
1000
0010
0001
2000
,
0000
3100
0010
0001
0000
0010
0100
0010
,
0000
1100
0000
0001
0100
0010
1000
0001
,
0100
0000
1000
0010
1000
0100
0001
0100
,
0010
0001
1000
0010
0100
0001
0010
0002
,
0000
0103
0010
0100
0000
0001
0010
0100
,
0010
0000
0000
0010
0000
0000
0010
0000
0001
0000
0100
0000
0010
0000
1000
0000
,
0100
0010
0200
0000
0000
1300
0010
1000
,
1100
0000
0000
0001
1000
0100
0010
0000
,
0001
0010
1000
0010
0100
1000
0000
1001
,
0100
0010
0100
0010
0100
0010
0100
0010
,
1000
0100
0010
0000
0001
0010
1000
0010
,
0002
0000
0000
0103
0010
0001
0010
0100
,
1000
0001
0100
0001
0010
1000
0010
0100
,
1000
0000
0000
0001
0000
0000
1000
0000
0010
0000
0100
0000
0010
0000
0000
0000
,
0120
0000
2030
0000
,
3200
0000
0302
0000
,
0203
0000
0320
0000
,
0032
0000
0000
0000
0000
0000
0000
0000
0000
0000
0000
0000
0000
0000
0000
0000
0000
0000
0000
0000
0000
0000
0000
0000
0000
0000
0000
0000
0000
0000
0000
0000
0000
0000
0000
0000
0000
0000
0000
0000
0000
0000
0000
0000
0000
0000
0000
0000
0000
0000
0000
0000
0000
0000
0000
0000
0000
0000
0000
0000
0000
0000
0000
0000
0000
0000
0000
0000
0000
0000
0000
0000
0000
0000
0000
0000
0000
0000
0000
0000
0000
0000
0000
0000
0000
0000
0000
0000
0000
0000
0000
0000
0000
0000
0000
0000
0203
0000
0000
0000
0000
0000
0000
0000
0000
0000
0000
0000
0000
0000
0000
0000
0000
0000
0000
0000
0000
0000
0000
0000
0000
0000
0000
0000
0000
0000
0000
0000
0000
0000
0000
0000
0000
0000
0000
0000
0000
0000
0000
0000
0000
0000
0000
0000
0000
0000
0000
0000
0000
0000
0000
0000
0000
0000
0000
0000
0000
0000
0000
0000
0000
0000
0000
0000
0000
0000
0000
0000
0000
0000
0000
0000
0000
0000
0000
0000
0000
0000
0000
0000
0000
0000
0000
0000
0000
0000
0000
0000
0000
0000
0000
0300
,
0020
1000
0230
1000
,
0302
0010
2003
0100
,
3020
1000
0230
0001
,
0320
0000
0100
0000
0130
0001
1000
0001
,
1000
0000
1001
0100
0000
0010
0001
0000
,
0100
0000
1010
0100
0000
1000
0100
0000
,
1000
0000
0011
0100
0000
1000
0010
0000
,
0001
0000
0011
0100
0000
0010
0001
0000
,
1200
0010
0001
0310
,
1100
0000
0001
0100
0000
0010
1000
0000
,
0120
0001
0100
1000
,
0130
0001
1000
0010
0100
0001
0010
0100
,
0110
0000
1001
0000
0000
0000
0000
0001
,
0101
0000
0000
1000
0001
0010
0100
0010
,
1001
0000
0001
0010
0000
0100
2000
0000
,
0000
0100
0000
3010
0100
0010
1000
0001
,
0100
0000
0001
0010
0000
1000
0100
0000
,
0010
0001
0010
0100
0010
1000
0010
0100
,
0010
0000
0110
0000
0000
0010
0001
0000
,
0010
0100
0010
0001
1000
0100
0010
0001
,
0100
0001
0100
1000
0100
0010
0100
0010
,
1000
0000
0000
1000
0100
0001
0100
0010
,
0100
0000
1010
0000
0000
0011
0000
2000
,
0000
0010
0000
3100
0010
0001
1000
0010
,
1000
0000
0001
0101
0000
1010
0000
0000
,
1001
0100
0010
0100
0010
0100
0010
0100
,
1000
0000
0001
0010
0100
0010
0000
0001
,
0100
1010
0000
1000
0001
0010
0010
0100
,
1000
0010
0001
0010
1000
0100
0001
0100
,
1000
0000
0000
0010
0000
0000
0100
0000
0110
0000
0000
0001
0000
0000
0010
0000
,
0100
0000
1000
0100
0001
0100
1000
0001
,
0100
1000
0100
0001
1000
0010
0100
0020
,
0000
0000
0000
0000
,
0030
0000
0000
0000
,
0000
0000
0000
0000
;

//---------------dance-single - ----------------
#NOTES:
     dance-single:
     :
     Hard:
     16:
     :
0000
0000
0000
0000
,
0000
0000
0000
0000
,
0000
0000
0000
0000
,
0000
0000
0000
0000
,
0000
0000
0000
0000
,
0000
0000
0000
0000
,
0000
0000
0000
0000
,
2002
0000
0000
3003
,
0100
0000
0001
1000
0000
0100
0010
0000
,
1000
0000
0001
0200
0010
0000
0000
0302
1000
0000
0013
0000
0000
0000
1000
0200
,
0000
0000
0310
0001
0000
0000
0010
2000
0001
0000
3100
0010
0001
0000
0000
0000
,
0100
0000
0010
0200
0001
0000
0000
0320
1000
0000
0130
0000
0001
0000
0010
0000
,
0001
0000
1000
0010
0000
0000
1000
0100
0000
0000
0001
0100
0010
0001
0100
0000
,
0010
0000
1000
0020
0100
0000
0000
2030
0100
0000
3001
0000
0000
0000
1000
0020
,
0000
0000
0130
0001
0000
0000
0100
0002
1000
0000
0013
0100
1000
0000
0001
0000
,
1000
0000
0100
0020
0001
0000
0000
0230
1000
0000
0310
0000
0100
0000
0010
0000
,
0000
0000
0100
2000
0010
0000
3001
0000
0010
0000
1000
0010
0100
1000
0010
0000
,
0110
0000
0000
1000
0020
0000
0000
0000
2030
0000
0100
0000
3020
0000
0100
0000
,
1030
0000
0001
0020
0000
0000
0130
0001
0000
0000
1000
0010
0100
1000
0010
0000
,
0100
0000
0001
1000
0200
0000
0000
0310
0002
0000
0010
0000
0103
0000
0010
0000
,
1000
0000
0001
0020
0000
0000
0130
0001
0000
0000
0001
0100
0010
0001
0100
0000
,
0010
0000
0000
1000
0020
0000
0000
0130
0002
0000
0100
0000
0023
0000
0100
0000
,
0031
0000
1000
0100
0000
0000
0001
0010
1000
0000
0001
0100
0010
0001
0100
0000
,
0010
0000
1000
0001
0200
0000
0000
0310
2000
0000
0010
0000
3100
0000
0010
0000
,
1001
0000
0000
0101
0000
0000
1010
0000
0000
0110
0000
0000
1100
0000
0101
0000
,
1000
0000
0000
0000
0010
0100
0000
0100
1000
0000
0010
0100
0001
0000
0001
0010
,
1000
0000
0010
0001
0100
0000
0100
0010
1000
0000
1000
0100
0001
0000
0001
0100
,
1000
0001
0010
0001
0100
1000
0010
0100
,
0000
0000
0000
0011
0000
0000
0000
0000
0000
1000
0000
0000
0010
0000
0100
0000
1000
0000
0010
0000
0100
0000
0001
0000
,
0100
0000
0000
0000
0010
1000
0000
0010
0001
0000
0010
0100
1000
0000
1000
0100
,
0001
0000
0100
0010
1000
0000
0001
0100
0010
0000
0010
1000
0100
0000
0001
0100
,
1000
0010
0001
1000
0010
0001
0100
0010
,
1100
0000
0000
0110
0000
0000
0011
0000
0100
0000
0010
1000
0001
0010
0001
0010
,
0100
0000
1000
0000
0020
0000
0100
0000
1030
0000
0010
0000
0100
0000
1000
0100
,
0010
0000
0000
0110
0001
0010
0200
0001
,
0310
0000
0100
0010
1000
0000
0100
0010
0001
0000
0010
0000
0000
0000
0001
0000
,
0110
1000
1000
1000
1000
1000
0010
0100
,
0001
0000
1000
0010
0000
0100
1000
0000
0010
0000
0100
0001
1000
0000
0010
0100
,
0001
0000
0100
0000
0000
0000
0110
0000
1000
0000
0001
0000
1000
0100
0010
0001
,
0200
0000
1000
0000
0310
0000
1000
0000
0100
0000
0010
0000
0001
0100
0010
1000
,
0100
0000
0001
0100
0000
1000
0100
0010
0100
0000
0010
0000
0010
0000
0001
0000
,
0200
0010
0302
0010
,
2003
0010
3200
0010
,
2300
0100
3020
0100
,
0032
0000
0000
0000
0000
0000
0000
0000
0000
0000
0000
0000
0000
0000
0000
0000
0000
0000
0000
0000
0000
0000
0000
0000
0000
0000
0000
0000
0000
0000
0000
0000
0000
0000
0000
0000
0000
0000
0000
0000
0000
0000
0000
0000
0000
0000
0000
0000
0100
0000
0000
0000
0000
0000
0000
0000
0000
0000
0000
0000
0000
0000
0000
0000
0000
0000
0000
0000
0000
0000
0000
0000
0000
0000
0000
0000
0000
0000
0000
0000
0000
0000
0000
0000
0000
0000
0000
0000
0000
0000
0000
0000
0000
0000
0000
0000
0023
0000
0000
0000
0000
0000
0000
0000
0000
0000
0000
0000
0000
0000
0000
0000
0000
0000
0000
0000
0000
0000
0000
0000
0000
0000
0000
0000
0000
0000
0000
0000
0000
0000
0000
0000
0000
0000
0000
0000
0000
0000
0000
0000
0000
0000
0000
0000
0100
0000
0000
0000
0000
0000
0000
0000
0000
0000
0000
0000
0000
0000
0000
0000
0000
0000
0000
0000
0000
0000
0000
0000
0000
0000
0000
0000
0000
0000
0000
0000
0000
0000
0000
0000
0000
0000
0000
0000
0000
0000
0000
0000
0000
0000
0000
0030
,
0200
0001
0310
2000
0100
3001
0020
0001
,
0130
2000
0001
3010
0200
0001
0310
1000
,
0002
0100
1003
0200
0010
1300
0002
0010
,
0103
0020
1000
0130
0002
0100
1003
0000
,
1001
0000
0010
1000
0010
0100
0010
0000
,
1100
0000
0001
0100
0010
0100
1000
0100
,
0011
0000
1000
0100
0010
0100
0001
0000
,
1010
0000
0100
1000
0100
0010
0100
0000
,
1100
0000
0000
0000
0101
0000
0010
0000
1001
0000
0000
0000
0000
0000
0001
0100
,
0010
0000
0000
0000
1001
0000
0010
0000
0000
0000
0100
1000
0001
0000
0000
0000
,
0200
0000
0000
0000
0010
0000
0300
0010
0200
0000
0010
0000
0000
0000
0310
0000
,
1000
0000
0010
0100
0001
0000
0100
0010
1000
0100
0010
0001
0100
0000
0000
0000
,
0110
0000
1000
0000
0010
0000
0100
0010
1000
0000
0100
0000
0010
0000
1000
0010
,
0001
0000
0000
0001
0010
0010
0001
1000
,
1001
0000
0000
0100
0010
0000
1100
0000
0000
0100
0010
0000
0102
0000
1003
0000
,
0100
0000
0010
0001
0010
0000
0100
0000
0010
0100
1000
0000
1000
0100
0010
0000
,
0011
0000
0000
0001
1000
0000
1100
0000
0000
0010
0001
0000
0010
0100
1000
0010
,
0200
0000
0001
0000
0310
0000
2000
0000
0010
0000
3100
0000
0010
0001
1000
0000
,
1001
0000
0000
1000
0010
0000
0101
0000
0000
0001
0010
0000
1100
0000
0001
0000
,
0100
0010
0010
1000
0001
0010
0100
1000
,
0120
0000
1030
0001
0020
0000
0031
1000
0020
0000
0130
0001
0020
0000
0130
1000
,
0001
0010
0100
0001
0010
1000
0001
0010
,
1001
0000
0000
0010
0100
0000
0011
0000
0000
0010
0100
0000
2010
0000
3001
0010
,
0100
0000
0000
0000
0010
0000
0001
0100
0010
0000
0100
0000
0001
0010
0100
0000
,
1100
0000
0000
1000
0001
0000
0011
0000
0000
0100
1000
0000
0100
0010
0001
0100
,
0020
0000
1000
0000
0130
0000
0002
0000
0100
0000
0013
0000
0100
1000
0001
0000
,
1001
0000
0000
0001
0100
0000
1010
0000
0000
1000
0100
0000
0011
0000
1000
0000
,
0010
0000
1100
0000
0000
0000
0011
0000
1000
0000
0100
0010
0100
1000
0010
0001
,
0200
0000
0301
1000
0200
0000
1300
0001
0200
0000
0310
1000
0200
0000
0310
0001
,
1000
0000
0100
0010
0000
0001
1000
0000
0110
0000
0001
1000
0010
0100
0001
0010
,
0100
0000
0000
0000
0010
0001
0000
0100
1000
0000
0010
1000
0001
0000
0001
0010
,
1000
0000
0010
0001
1000
0000
1000
0010
0001
0000
1000
0100
0001
0000
0020
0000
,
0000
0000
0000
0000
,
0030
0000
0000
0000
,
0000
0000
0000
0000
;

//---------------dance-single - ----------------
#NOTES:
     dance-single:
     :
     Challenge:
     18:
     :
0000
0000
0000
0000
,
0000
0000
0000
0000
,
0000
0000
0000
0000
,
0000
0000
0000
0000
,
0000
0000
0000
0000
,
0000
0000
0000
0000
,
0000
0000
0000
0000
,
0100
1000
0001
0100
0000
0110
0000
0010
,
1000
0000
0100
0000
0010
0000
0001
0000
0100
0001
0010
0000
1100
0000
0000
0000
,
1002
0000
0000
0000
0013
0001
0010
0100
1000
0000
0020
0000
2030
0000
3002
0000
,
0103
0000
0010
1000
0100
0000
1000
0001
0010
0001
0100
0010
1000
0000
0001
0000
,
0010
0000
0101
0000
1010
0000
1000
0100
0010
0000
0001
1000
0020
0000
0230
0000
,
0301
0000
0010
0100
1000
0000
0010
1000
0100
0010
1000
0010
0001
1000
0010
0100
,
0001
0000
0010
0100
2000
0000
3010
1000
0001
0100
0010
1000
0200
0000
0320
0000
,
0031
0000
1000
0010
0100
0000
0001
0010
0001
0100
0010
1000
0100
0010
0001
0100
,
1000
0000
0001
0100
2000
0000
3010
1000
0100
0010
0002
0000
0103
0001
2000
0000
,
3010
1000
0100
0001
0100
0010
0001
0100
1000
0100
0010
0001
0010
1000
0100
0010
,
0002
0000
1003
0010
0200
0000
0310
1000
0100
0010
0001
0100
0010
1000
0002
0000
,
0013
0001
0200
0000
0310
1000
0002
0000
0013
0001
0100
1000
0010
1000
0001
0100
,
0010
0000
1000
0100
0002
0000
0013
0100
1000
0010
1000
0001
0010
0100
1000
0000
,
0100
1000
0001
0000
0010
0001
1000
0000
0010
1000
0100
0010
0001
1000
0001
0100
,
0002
0000
0013
0001
2000
0000
3100
0010
0001
0100
0002
0000
1003
0100
0020
0000
,
0031
0100
0010
0100
0001
0010
0100
0000
1000
0001
0010
0001
0100
0010
1000
0100
,
0001
0000
0010
0001
0100
0000
0010
1000
0100
0000
1000
0001
0010
0100
1000
0000
,
0010
1000
0000
0100
0001
0000
0010
1000
0000
0100
0001
0000
0010
1000
0100
0001
,
0010
0000
1001
0000
0110
0000
0010
1000
0100
1000
0001
0010
0001
0000
0100
0000
,
1020
0000
0032
0000
0013
1000
0100
1000
0000
0001
0010
0001
0100
0010
1000
0000
,
0100
0000
1100
0000
0011
0000
0100
0001
0000
0010
0001
1000
0010
0000
0100
0000
,
0012
0000
2003
0000
3100
0000
1000
0010
0001
0010
0100
0010
0001
0010
1000
0001
,
0200
0000
0310
0000
1000
0001
0010
0100
0000
0010
0001
0000
1000
0001
0100
0000
,
0201
0000
2300
0000
3100
0001
0010
0100
0000
1000
0001
1000
0100
0010
0001
0100
,
0002
0000
0023
0000
0130
1000
0010
1000
0000
1000
0001
0000
0010
0001
0100
0000
,
0001
0010
1000
0100
0001
0000
1000
0010
0001
0100
1000
0000
0010
0100
0001
1000
,
0200
0000
0310
0001
2000
0000
3020
0000
0130
0001
0010
0001
0100
1000
0100
0010
,
2000
0000
3200
0000
0310
0001
0100
0000
0001
0010
1000
0010
0001
0100
0001
0010
,
1000
0000
0100
0010
0001
0100
0020
0000
1030
0001
0020
0000
0031
0100
0010
1000
,
0001
0000
0011
0000
0110
0000
1100
0000
1010
0000
1001
0000
0101
0000
0010
1000
,
0100
0000
1000
0001
0020
0000
0230
0000
1300
0010
1000
0001
0010
0000
0100
1000
,
0002
0000
0023
0000
0130
1000
0001
0000
0010
0001
0100
0010
1000
0100
1000
0001
,
0010
0000
0001
0100
1000
0000
0010
1000
0100
0010
0001
0000
0100
0010
1000
0001
,
0010
0000
0001
0100
0000
0100
1000
0000
1000
0010
0000
0010
0001
0100
0010
1000
,
0002
0000
0013
0100
1020
0000
0031
1000
,
0201
0000
0310
1000
0012
0000
0103
0001
,
2001
0000
3100
1000
1200
0000
0301
0010
,
0120
0000
1030
0001
0201
0000
0310
0100
,
0001
0010
0100
0010
0010
1000
1000
0100
,
1000
0100
0100
0001
1000
0001
0010
0001
,
0100
1000
0100
0001
0010
0010
0001
1000
,
0011
0000
0001
0000
0100
0000
0010
1000
0100
0001
0100
1000
0010
0000
0100
0000
,
0001
0010
1000
0010
0001
0000
0001
0100
1000
0100
0001
0000
0001
0010
1000
0100
,
0001
0000
0001
0100
1000
0010
0001
0000
0001
1000
0010
0100
0001
0000
1000
0000
,
1000
0100
0001
0100
1000
0000
1000
0010
0001
0010
1000
0000
1000
0100
0001
0010
,
1000
0000
1000
0010
0001
0100
1000
0000
1000
0001
0100
0010
1000
0000
0001
0000
,
0010
0001
0100
0001
0010
0000
0010
1000
0100
1000
0010
0000
0010
0001
0100
1000
,
0010
0000
0010
1000
0100
0001
0010
0000
0010
0100
0001
1000
0010
0000
0100
0000
,
0100
0001
0010
0001
0010
0001
0010
0100
1000
0010
1000
0100
1000
0001
1000
0100
,
0010
0100
1000
0001
1000
0100
1000
0100
0001
0010
0001
0010
0001
1000
0010
0100
,
0001
0010
1000
0010
0001
0100
0010
0000
1000
0000
1100
0000
0101
0000
0000
0000
,
0010
0000
1000
0000
0100
0000
0010
0000
0001
0100
0001
0010
0001
1000
0100
0010
,
0100
0000
1000
0000
0010
0100
0001
0000
0010
0000
0001
0100
1000
0000
0010
0000
,
1000
0000
0001
0000
0010
0000
0100
0000
1000
0010
1000
0100
0001
0010
0001
0100
,
1000
0000
0010
0000
1000
0100
0010
0001
0100
0000
0001
0010
1000
0000
0100
0000
,
0010
0001
0010
0001
1000
0010
1000
0100
1000
0100
1000
0100
0010
0001
0100
0001
,
2000
0000
3020
0000
0130
0001
0010
0001
0100
0000
0010
1000
0100
0010
0001
0000
,
1000
0100
0010
0001
0100
0010
1000
0001
0010
0001
0100
0010
1000
0001
1000
0100
,
0010
0000
0001
0000
0100
0010
1000
0001
0010
0100
1000
0000
0010
0100
0010
0001
,
0010
0000
1000
0000
0100
0010
0001
0000
1000
0001
0010
0001
0100
0010
1000
0100
,
0001
0000
0010
0001
0100
0010
1000
0001
0010
0000
0100
1000
0001
0000
0100
0010
,
1000
0000
0100
1000
0001
0000
0010
0000
0100
0001
0100
1000
0010
0001
1000
0000
,
0100
0010
0001
0100
0010
0000
1000
0001
0010
0001
0100
0000
0010
1000
0100
0010
,
0001
0000
0100
0010
1000
0100
1000
0001
0010
0001
0100
0010
1000
0100
1000
0001
,
0010
0000
0001
0100
1000
0010
1000
0001
0100
0010
1000
0100
0010
0001
1000
0000
,
0010
1000
0100
0010
0001
0100
0001
0000
0010
0100
0010
0100
1000
0001
1000
0001
,
0010
0001
1000
0001
0010
1000
0001
1000
0100
0001
0100
0010
1000
0100
0001
0010
,
0001
0100
0001
1000
0100
0001
0100
0010
1000
0100
0010
1000
0010
1000
0100
0010
,
2000
0002
0000
0000
,
0000
0000
0000
0000
,
0000
0000
0000
0000
,
0000
0000
0000
0000
,
3003
0000
0000
0000
;

//---------------dance-double - ----------------
#NOTES:
     dance-double:
     :
     Easy:
     8:
     :
00000000
00000000
00000000
00000000
,
00000000
00000000
00000000
00000000
,
00000000
00000000
00000000
00000000
,
00000000
00000000
00000000
00000000
,
00000000
00000000
00000000
00000000
,
00000000
00000000
00000000
00000000
,
00000000
00000000
00000000
00000000
,
00022000
00000000
00000000
00000000
,
00033000
00000000
00000000
00000000
,
00000100
00001000
00000100
00000010
,
00000000
00000001
00000000
00000001
00000000
00000001
00000000
00000000
,
00000010
00000001
00000100
00001000
,
00000000
00010000
00000000
00010000
00000000
00010000
00000000
00000000
,
00001000
00010000
01000000
00100000
,
00000000
01000000
00000000
01000000
00000000
01000000
00000000
00000000
,
10000000
00010000
00100000
01000000
,
00000000
00010000
00000000
00010000
00000000
00010000
00000000
00000000
,
00001000
00010000
01000000
00010000
,
00000000
00001000
00000000
00010000
00000000
00001000
00000000
00000000
,
00000100
00000010
00001000
00000100
,
00000000
00000001
00000000
00000100
00000000
00000001
00000000
00000000
,
00000100
00000020
00000000
00000031
,
00000000
00001000
00000000
00000010
00000000
00001000
00000000
00000000
,
00000001
00000020
00000000
00000130
,
00001000
00000000
00000000
00010000
00000000
00000000
00001000
00000000
,
00011000
00010000
00000100
00010000
,
00001000
00100000
00001000
00010000
,
00100000
01000000
00000000
00100000
,
10000000
00010000
00000000
00010000
,
10000000
01000000
00100000
01000000
,
00010000
00001000
00010000
00000010
,
00000100
00000010
00000000
00000010
,
00001001
00000010
00000100
00000100
,
00000002
00000000
00001000
00000000
00000000
00000013
00000000
00000000
,
00001001
00000000
00000100
00001000
,
00020000
00000000
00001000
00000000
00000000
00030100
00000000
00000000
,
00010000
00001000
00010000
01000000
,
00100000
00010000
01000000
10000000
,
02000000
00000000
03100000
10000000
,
01000000
00100000
01000000
00010000
,
00001000
00010000
00011000
00000000
,
00002000
00003000
00000200
00000300
,
00000002
00000003
00000020
00000030
,
00000002
00000003
00000200
00000300
,
00002000
00003000
00020000
00030000
,
00100000
01000000
00100000
10000000
,
01000000
00100000
01000000
00010000
,
00001000
00010000
00001000
00000100
,
00000001
00001000
00000001
00000010
,
00001001
00000000
00000010
00000000
00000000
00000001
00001000
00000000
,
00000100
00000000
00000010
00000000
00000000
00000100
00001000
00000000
,
00000010
00000000
00000100
00000000
00000000
00001000
00010000
00000000
,
00001000
00100000
10000000
00100000
,
00020000
00100000
00031000
00000000
,
00011000
00000000
01000000
00000000
,
10000000
00000000
00010000
00000000
,
00001000
00000100
00000001
00000010
,
00000100
00001001
00000000
00000000
,
00011000
00000000
00000010
00000100
,
00001000
00011000
00000000
00001000
,
01000000
00000000
00000000
00100000
00000000
00100000
01000000
00000000
,
00100000
00000000
11000000
00000000
00000000
00100000
00000000
00000000
,
10010000
01000000
00100000
00001000
,
00010000
00011000
00000000
00010000
,
00000100
00000000
00000000
00000010
00000000
00000010
00000100
00000000
,
00000001
00000010
00000000
00000100
00000000
00000010
00000000
00000100
,
00001000
00000100
00010000
00001000
,
00010000
00011000
00000000
00100000
,
00020000
00000000
00000000
00100000
00000000
00130000
01000000
00000000
,
00100000
00000000
01100000
00000000
00000000
10000000
00000000
00000000
,
11000000
00010000
01000000
00100000
,
00010000
00110000
00100000
00001000
,
00020000
00000000
00000000
00000100
00000000
00030100
00001000
00000000
,
00000010
00000100
00000001
00000010
,
00001000
00010000
01000000
00000000
,
10020000
00000000
01000000
00000000
,
10000000
00000000
00130000
00002000
,
00000000
00000000
00000000
00000000
,
00003000
00000000
00000000
00000000
,
00000000
00000000
00000000
00000000
;

//---------------dance-double - ----------------
#NOTES:
     dance-double:
     :
     Medium:
     12:
     :
00000000
00000000
00000000
00000000
,
00000000
00000000
00000000
00000000
,
00000000
00000000
00000000
00000000
,
00000000
00000000
00000000
00000000
,
00000000
00000000
00000000
00000000
,
00000000
00000000
00000000
00000000
,
00000000
00000000
00000000
00000000
,
00002020
00000000
00000000
00003030
,
00000100
00000000
00000000
00000000
00000000
00000100
00000010
00000000
,
00001000
00000001
00000100
00000000
00000000
00000010
00000100
00001000
,
00000000
00010000
00001000
00010000
00000000
01000000
10000000
00000000
,
00010000
10000000
00100000
00000000
00000000
00010000
00100000
10000000
,
00000000
00100000
10000000
00100000
00000000
00010000
00001000
00000000
,
00000100
00001000
00010000
00000000
00000000
00010000
00001000
00000100
,
00000000
00000100
00000001
00000010
00000000
00000010
00001000
00000000
,
00000010
00000001
00001000
00000000
00000000
00000010
00001000
00000001
,
00000000
00000100
00000010
00001000
00000100
00010000
00001000
00000000
,
00100000
00000000
00000000
00000000
02010000
00000000
00000000
00000000
00000000
00000000
03100000
10000000
00000000
00000000
01000000
00000000
,
00100000
00010000
00000000
10000000
00100000
00010000
00001000
00000000
,
00010000
00000000
00000100
00000000
00000020
00000000
00000000
00000000
00000000
00000000
00000130
00001000
00000000
00000000
00000001
00000000
,
00000100
00001000
00000000
00000100
00000000
00000001
00000100
00000010
,
00001000
00000000
00000000
00000000
00002001
00000000
00000000
00000000
00000000
00000000
00003010
00000100
00000000
00000000
00001000
00000000
,
00010000
00001000
00000000
00100000
10000000
00010000
01000000
00000000
,
00100000
00000000
00010000
00000000
02000000
00000000
00000000
00000000
00000000
00000000
03100000
00010000
00000000
00000000
00100000
00000000
,
10000000
00000000
00000000
01000000
00000000
00000000
00100000
00000000
00000000
00010000
00000000
00000000
00001000
00000000
00000000
00000000
,
00011000
00000000
00001000
00010000
00000100
00000010
00001000
00010000
,
00000010
00000100
00001000
00010000
00000100
00000010
00000001
00000200
,
00000000
00000301
00000010
00001000
00000000
00000010
00000100
00001000
,
00000000
00010100
00000000
00001000
00010000
00100000
01000000
00000000
,
00010000
00000000
00010000
00001000
01000000
00100000
00010000
00001000
,
00100000
01000000
00010000
00001000
01000000
00100000
10000000
02000000
,
00000000
13000000
00100000
00010000
00000000
00010000
00001000
00010000
,
00000100
00000000
00000000
00000010
00000000
00000000
00000001
00000000
00001000
00000000
00000100
00000000
00000010
00000000
00000000
00000000
,
00000100
00000010
00000200
00000000
00000000
00001300
00000001
00000000
,
00001001
00000000
00000000
00001000
00000001
00000100
00000010
00000000
,
00001000
00000010
00000100
00000010
00000000
00000100
00001000
00000000
,
00001000
00010000
00001000
00010000
00001000
00010000
00001000
00000000
,
01000000
00001000
00020000
00000000
00000000
00031000
00100000
00000000
,
00110000
00000000
00000000
00001000
00010000
00100000
10000000
00000000
,
01000000
00010000
01000000
10000000
00000000
00100000
01000000
00000000
,
00100000
00000000
00000000
00010000
00000000
00000000
00001000
00000000
00000100
00000000
00000010
00000000
00000100
00000000
00000000
00000000
,
00000200
00000000
00000302
00000000
,
00000203
00000000
00002300
00000000
,
00023000
00000000
00230000
00000000
,
20300000
00000000
30200000
00000000
,
02300000
00100000
03020000
00100000
,
10030000
00100000
00010000
00001000
,
00000200
00000010
00000302
00000010
,
00001003
00000000
00000010
00000100
00000010
00000100
00000001
00000000
,
00000100
00000000
00000001
00001000
00000000
00000010
00000001
00000000
,
00000100
00000000
00000010
00001000
00000000
00100000
00001000
00000000
,
00010000
00000000
00001000
01000000
00000000
10000000
00010000
00000000
,
00100000
00000000
00001000
01000000
00000000
00100000
00010000
00000000
,
00021000
00100000
10030000
01000000
,
10100000
00000000
01000000
00010000
00000000
10000000
00100000
00000000
,
01002000
00010000
00100000
00013000
,
01000000
00010000
00100000
00001000
00010000
00000100
00000010
00000000
,
00000110
00000000
00001001
00000000
00000000
00000100
00000010
00000000
,
00000101
00000000
00000000
00000001
00000010
00000100
00000010
00000001
,
00000100
00000010
00000100
00000010
00000000
00000100
00002000
00000000
,
00000000
00010000
00000000
00103000
00010000
00100000
01000000
00100000
,
00010000
00000000
10000000
01000000
00000000
00010000
00001000
00000000
,
01000000
00010000
01000000
00100000
01000000
10000000
01000000
00010000
,
01000000
00000000
01100000
00000000
00000000
10000000
00100000
00000000
,
01000000
00000000
00000000
01000000
00100000
10000000
01000000
00010000
,
00001000
00010000
00001000
00010000
00001000
00010000
00001000
00010000
,
00001000
00000000
00000000
00000100
00000001
00001000
00000100
00000010
,
00000100
00000000
00000011
00000000
00000000
00000110
00000000
00000000
,
00001020
00000000
00000000
00000130
00000001
00000100
00001000
00010000
,
00001000
00000000
00010000
00010000
00000000
00001000
00001000
00000000
,
00010000
01000000
00100000
01000000
00100000
01000000
00100000
01000000
,
10000000
00000000
00100000
01000000
00000000
00100000
00000000
00000000
,
10010000
00000000
00000000
10000000
00100000
00010000
00001000
00010000
,
00000100
00000001
00000100
00001000
00000100
00000010
00000100
00000010
,
00000001
00000000
00000000
00000100
00000000
00000000
00001000
00000000
00010000
00000000
00000000
00000000
00101000
00000000
00000000
00000000
,
01000000
00000000
00100000
00010000
10000000
01000000
00100000
00010000
,
01000000
00001000
00010000
00001000
00000100
00000010
00000001
00000020
,
00000000
00000000
00000000
00000000
,
00000030
00000000
00000000
00000000
,
00000000
00000000
00000000
00000000
;

//---------------dance-double - ----------------
#NOTES:
     dance-double:
     :
     Hard:
     16:
     :
00000000
00000000
00000000
00000000
,
00000000
00000000
00000000
00000000
,
00000000
00000000
00000000
00000000
,
00000000
00000000
00000000
00000000
,
00000000
00000000
00000000
00000000
,
00000000
00000000
00000000
00000000
,
00000000
00000000
00000000
00000000
,
22000000
00000000
00000000
33000000
,
00010000
00000000
00001000
00010000
00000000
00000100
00000010
00000000
,
00000001
00000000
00000100
00000020
00000100
00000000
00000000
00002030
00000100
00000000
00003010
00000000
00000000
00000000
00000001
00000200
,
00000000
00000000
00000310
00001000
00000000
00000000
00000100
00010000
00001000
00000000
00010000
00001000
00100000
00000000
00000000
00000000
,
00010000
00000000
00100000
02000000
00010000
00000000
00000000
03200000
00010000
00000000
01300000
00000000
10000000
00000000
00100000
00000000
,
00010000
00000000
00001000
00100000
00010000
00000000
00010000
01000000
00100000
00000000
00100000
10000000
01000000
00010000
01000000
00000000
,
00100000
00000000
00010000
00200000
01000000
00000000
00000000
00302000
00010000
00000000
00103000
00000000
00000000
00000000
00010000
00000200
,
00000000
00000000
00001300
00000010
00000000
00000000
00000100
00000002
00001000
00000000
00000013
00000100
00001000
00000000
00000001
00000000
,
00000100
00000000
00000010
00000200
00001000
00000000
00000000
00000302
00001000
00000000
00000013
00000000
00001000
00000000
00010000
00000000
,
00000000
00000000
00001000
00200000
00001000
00000000
00310000
00000000
01000000
00000000
00010000
01000000
00100000
10000000
00100000
00000000
,
01000000
00000000
00000000
10000000
00020000
00000000
00000000
01030000
00200000
00000000
10000000
00000000
01300000
00000000
10000000
01000000
,
00000000
00000000
01000000
00200000
00010000
00000000
00301000
00010000
00000100
00000000
00000010
00000001
00000100
00000010
00000100
00000000
,
00000001
00000000
00000010
00000100
00000020
00000000
00000000
00000031
00002000
00000000
00000100
00000000
00003010
00000000
00000100
00000000
,
00001000
00000000
00010000
00002000
00000000
00000000
00013000
00100000
00000000
00000000
10000000
01000000
00100000
00010000
01000000
00000000
,
00100000
00000000
00000000
10000000
00200000
00000000
00000000
00310000
00002000
00000000
00010000
00000000
00203000
00000000
00010000
00000000
,
01300000
00000000
10000000
00010000
00000000
00000000
00010000
00100000
00001000
00000000
00001000
00010000
00000100
00001000
00000010
00000000
,
00000100
00000000
00000001
00000100
00000020
00000000
00000000
00001030
00000200
00000000
00010000
00000000
00001300
00000000
00000010
00000000
,
00000101
00000000
00000000
00001100
00000000
00000000
00011000
00000000
00000000
01010000
00000000
00000000
11000000
00000000
00000000
00000000
,
01100000
00000000
00000000
00000000
01000000
10000000
00000000
10000000
00100000
00000000
01000000
00100000
00010000
00000000
00010000
00001000
,
00010000
00000000
00001000
00000100
00000010
00000000
00000010
00000100
00000001
00000000
00001000
00000100
00000010
00000000
00000001
00000000
,
00000100
00000000
00000001
00001000
00000010
00001000
00010000
00100000
,
00000000
00000000
00000000
10100000
00000000
00000000
00000000
00000000
00000000
10000000
00000000
00000000
01000000
00000000
00100000
00000000
00001000
00000000
00010000
00000000
00001000
00000000
00000100
00000000
,
00000010
00000000
00000000
00000000
00000100
00000001
00000000
00000001
00000010
00000000
00000100
00000010
00001000
00000000
00001000
00010000
,
00001000
00000000
00010000
01000000
00100000
00000000
00100000
01000000
10000000
00000000
00010000
01000000
00100000
00000000
10000000
00000000
,
00010000
00000000
00100000
00000000
00001000
00000000
00100000
00010000
00100000
00000000
00010000
00000000
01000000
00000000
00100000
00000000
,
11000000
00000000
00000000
01100000
00000000
00000000
00110000
00000000
00001000
00000000
00010000
00001000
00010000
00000100
00001000
00000100
,
00010000
00000000
00001000
00000000
00000020
00000000
00000100
00000000
00001030
00000000
00000001
00000000
00001000
00000000
00000100
00000010
,
00000001
00000000
00001001
00000100
00000010
00000100
00002000
00010000
,
00103000
00000000
00010000
01000000
00100000
00000000
10000000
01000000
00100000
00000000
02000000
00000000
00000000
00000000
13000000
00000000
,
01100000
00010000
10000000
00010000
00001000
00010000
00100000
01000000
,
10000000
00000000
00010000
01000000
00000000
01000000
00100000
00000000
00100000
00000000
01000000
00001000
00010000
00000000
00001000
00010000
,
00000010
00000000
00000100
00000000
00000000
00000000
00000101
00000000
00000010
00000000
00001000
00000000
00000001
00000100
00000010
00001000
,
00000200
00000000
00000010
00000000
00001300
00000000
00000010
00000000
00010000
00000000
00001000
00000000
00010000
00000000
00100000
01000000
,
00100000
00000000
10000000
01000000
00000000
00100000
01000000
00100000
01000000
00000000
00100000
00000000
00010000
00000000
10000000
00000000
,
02000000
00010000
23000000
00010000
,
30200000
00010000
02300000
00010000
,
03002000
00010000
00003200
00010000
,
00000320
00010000
00002030
00000001
,
00003020
00000001
00000130
00000002
00000100
00001003
00000200
00001000
,
00010300
00002000
00010000
00103000
00020000
00100000
10030000
01000000
,
20000000
01000000
30100000
02000000
00100000
03010000
00200000
00010000
,
00301000
00020000
00001000
00030100
00002000
00000100
00003001
00000100
,
00001001
00000000
00000000
00000000
00000001
00000000
00000100
00000000
00000010
00001000
00000100
00000000
00001000
00000000
00000000
00000000
,
00000110
00000000
00000000
00000000
00001000
00000000
00010000
00000000
00001000
00100000
00010000
00000000
00100000
00000000
00000000
00000000
,
00110000
00000000
00000000
00000000
00010000
00000000
00100000
00000000
00010000
10000000
00100000
00000000
00010000
00000000
00000000
00000000
,
01100000
00000000
00000000
00000000
10000000
00000000
01000000
00000000
00010000
00100000
01000000
00000000
10000000
00000000
00000000
00000000
,
11000000
00000000
00100000
00010000
00001000
00010000
00000000
00000000
,
00011000
00000000
00000100
00000010
00000000
00000001
00000100
00000000
,
00002010
00000000
00000000
00000000
00000100
00000000
00003000
00002000
00000001
00000000
00000001
00000000
00000000
00000000
00003010
00000000
,
00000100
00000000
00001000
00010000
00001000
00000000
00100000
00010000
01000000
00000000
00100000
10000000
01000000
00000000
00000000
00000000
,
01100000
00000000
10000000
00000000
00100000
00000000
01000000
00001000
00010000
00000000
00001000
00000000
00000100
00000000
00000010
00000000
,
00000001
00000000
00000000
00000100
00001000
00010000
00100000
00100000
,
10010000
00000000
00000000
10000000
00100000
00000000
01000000
00000000
00000000
00010000
00100000
00000000
00200000
00000000
00001000
00000000
,
00310000
00000000
01000000
00000000
00000000
00000000
01000000
00000000
00010000
00000000
00100000
00001000
00010000
00001000
00010000
00000000
,
00011000
00000000
00000000
00001000
00000100
00000000
00000010
00000000
00000000
00000100
00000001
00000000
00000002
00000000
00000100
00000000
,
00001003
00000000
00000010
00000000
00000001
00000000
00000010
00000000
00002000
00000000
00000100
00000000
00003010
00000100
00000010
00000000
,
00000100
00000000
00000000
00001000
00010000
00000000
00001000
00000000
00000000
00010000
00100000
00000000
01000000
00000000
00010000
00000000
,
01000000
00200000
10000000
01300000
00010000
10000000
00010000
00100000
,
00002000
00000000
00013000
00000010
00020000
00000000
00031000
00100000
00002000
00000000
00013000
00000100
00020000
00000000
00030100
00001000
,
00000100
00000001
00001000
00000010
00000001
00000100
00001000
00000100
,
00000110
00000000
00000000
00001000
00010000
00000000
01000000
00000000
00000000
00010000
00001000
00000000
00100000
00000000
00020000
00000000
,
00000000
00000000
01000000
00000000
00000000
00000000
10030000
00000000
00100000
00000000
01000000
00000000
10000000
01000000
00100000
00000000
,
00001000
00000000
00000000
00010000
00100000
00000000
00010000
00000000
00000000
00001000
00000100
00000000
00000001
00000100
00000010
00000100
,
00000002
00000000
00001000
00000000
00000103
00000000
00000020
00000000
00000100
00000000
00001030
00000000
00000100
00000010
00000100
00000000
,
00001000
00000000
00000000
00000001
00001000
00000000
00000100
00000000
00000000
00010000
00001000
00000000
00100000
00000000
00010000
00000000
,
01000000
00000000
01100000
00000000
00000000
00000000
01000000
00000000
10000000
00000000
01000000
00100000
00010000
00100000
00001000
00000000
,
00020000
00000000
00031000
00100000
00002000
00000000
00013000
00000010
00020000
00000000
00031000
01000000
00002000
00000000
00013000
00000100
,
00001000
00000000
00000010
00000100
00000000
00000001
00001000
00000000
00000101
00000000
00000010
00001000
00000100
00001000
00000010
00000100
,
00001000
00000000
00000000
00000000
00010000
00001000
00000000
00010000
01000000
00000000
01000000
10000000
00100000
00000000
00100000
01000000
,
00010000
00000000
00100000
00001000
00010000
00000000
00010000
00001000
00000100
00000000
00000100
00000010
00000100
00000000
00000002
00000000
,
00000000
00000000
00000000
00000000
,
00000003
00000000
00000000
00000000
,
00000000
00000000
00000000
00000000
;
