#TITLE:TOXIC VIBRATION;
#ARTIST:SOUND HOLIC Vs. T.Kakuta feat. YURiCa;
#BANNER:TOXIC VIBRATION-bn.png;
#BACKGROUND:TOXIC VIBRATION-bg.png;
#JACKET:TOXIC VIBRATION-jacket.png;
#MUSIC:TOXIC VIBRATION.ogg;
#OFFSET:0.3;
#SAMPLESTART:59.25;
#SAMPLELENGTH:20;
#DISPLAYBPM:197;
#BPMS:0=197;
#BGCHANGES:;

//---------------dance-single - ----------------
#NOTES:
     dance-single:
     :
     Beginner:
     5:
     :
0000
0000
0000
0000
,
0000
0000
0000
0000
,
0000
0000
0000
0000
,
0000
0000
0000
0000
,
0000
0000
0000
0000
,
0001
0000
0010
0000
,
0100
0000
1000
0000
,
0010
0000
0100
0000
,
0001
0000
1000
0000
,
0010
0000
0010
0000
,
0100
0000
0100
0000
,
0001
0000
0001
0000
,
1000
0000
1000
0000
,
0001
0000
1000
0000
,
0010
0000
0100
0000
,
0001
0000
0100
0000
,
0010
0000
1000
0000
,
1001
0000
0000
0000
,
0001
0001
0001
0000
,
1000
0000
0001
0000
,
0200
0000
0300
0000
,
0110
0000
0000
0010
,
0010
0000
1000
0000
,
0001
0000
0020
0000
,
0000
0000
0030
0000
,
0001
0000
0100
0000
,
0010
0000
1000
0000
,
0100
0000
0010
0000
,
0001
0000
0100
0000
,
0001
0000
0010
0000
,
0001
0000
1000
0000
,
0010
0000
0100
0000
,
0001
0000
1000
0000
,
1001
0000
0000
0000
,
0100
0000
0010
0000
,
1000
1000
2000
0000
,
0000
0000
3000
0000
,
0110
0000
0000
0001
,
0001
0000
0010
0000
,
0001
0000
1000
0000
,
0010
0010
0010
0000
,
0200
0000
0300
0000
,
0001
0001
0001
0000
,
1000
1000
2000
0000
,
0000
3000
0000
0010
,
0020
0000
0000
0000
,
0030
0000
0100
0000
,
0002
0000
0003
0000
,
2000
0000
3000
0000
,
0010
0000
1000
0000
,
0001
0000
0100
0000
,
0010
0010
0010
0000
,
1000
0000
1001
0000
,
0001
0000
0100
0000
,
1000
0000
0010
0000
,
1000
0000
0001
0000
,
0100
0000
0010
0000
,
1000
0000
0100
0000
,
1000
0000
0001
0000
,
0010
0010
0010
0000
,
0001
0000
0110
0000
,
1000
0000
0010
0000
,
1000
0000
0001
0000
,
0100
0000
0010
0000
,
1000
0000
0001
0000
,
1001
0000
0000
0000
,
0110
0000
0000
0000
,
0001
0000
0001
0000
,
1000
0000
1000
0000
,
0100
0000
0100
0000
,
1000
0000
0001
0000
,
0100
0100
0100
0000
,
0010
0010
0010
0000
,
1001
0000
0000
0000
,
0001
0000
1000
0000
,
0001
0001
0002
0000
,
0003
0000
0100
0000
,
0110
0000
0000
0000
,
1000
0000
0001
0000
,
0200
0000
0000
0000
,
0300
0000
0010
0010
,
0020
0000
0000
0000
,
0000
0000
0030
0000
,
1000
0001
1000
0000
,
0100
0010
0001
0000
,
0100
0010
0100
0000
,
0001
0000
1001
0000
,
0010
1000
0001
0000
,
0010
0100
1000
0000
,
0001
0100
0001
0001
,
1000
0000
0010
0000
,
0110
0000
0000
0000
,
0001
0000
1000
0000
,
0100
0000
0000
0010
,
0010
0000
0001
0000
,
1000
0000
0100
0000
,
0010
0000
0001
0000
,
0100
0010
0100
0001
,
0010
0100
1000
0000
,
0001
0001
0001
0001
,
1000
1000
1000
1000
,
0002
0000
0000
0000
,
0003
0000
0000
0000
;

//---------------dance-single - ----------------
#NOTES:
     dance-single:
     :
     Easy:
     10:
     :
0000
0000
0000
0000
,
0000
0000
0000
0000
,
0000
0000
0000
0000
,
0000
0000
0000
0000
,
0000
0000
0000
0000
,
0001
0001
1000
1000
,
0010
0010
0100
0100
,
0001
0010
1000
0100
,
1000
0001
0200
0300
,
0010
1000
0100
0010
,
0001
0100
1000
0010
,
1000
0001
0010
0100
,
1000
0001
0010
0100
,
1000
0010
1000
0010
,
0100
0001
0100
0001
,
0010
0100
1000
0001
,
0100
0010
1000
0001
,
2002
0000
0000
0003
,
3001
0100
0001
1000
,
0200
0000
0000
0320
0000
0000
0032
0000
,
0000
1000
0000
1003
,
0010
1000
0100
0010
,
0001
0100
0001
1000
,
0020
0000
0030
1000
0002
0000
0000
0000
,
0100
0010
0100
0103
,
0000
0001
0000
0010
0000
0100
0000
1000
,
0000
0001
0000
1000
0000
0010
0000
0100
,
0000
0001
0000
0010
0000
1000
0000
0100
,
0000
1000
0000
0001
0000
0100
0000
0010
,
0000
0100
0000
0001
0000
0010
0000
1000
,
0000
0001
0000
0100
0000
0010
0000
1000
,
0000
0100
0000
1000
0000
0001
0010
0000
,
0001
0000
0110
0000
1000
0010
0100
0000
,
0002
0000
0000
0003
,
0001
0100
0010
1000
,
0100
1000
0002
0000
,
0023
0000
0230
0000
,
1300
0010
1000
0001
,
0010
0100
1000
0010
,
1001
0000
0100
0010
0000
0100
0010
0000
,
1000
0001
1000
0002
0000
0000
0103
0000
,
0210
0001
0001
0301
,
1000
0100
0010
0100
,
1000
0010
1000
0020
0000
0000
0000
0000
,
0000
0100
0000
0130
0000
0001
1000
0002
,
0000
0010
0000
0100
0000
0010
0000
0103
,
0000
0001
0010
0001
0010
0000
0011
0000
,
2100
0000
0001
0000
0001
0000
3001
0100
,
0020
0000
0130
0000
,
0110
0010
1000
0001
,
0010
0100
1000
0010
,
0100
1001
1001
0010
,
1000
0001
0020
0030
,
0001
0100
1000
0010
,
1000
0001
0010
0100
,
1000
0010
1000
0001
,
0010
0100
2000
3000
,
0110
0001
0100
0010
,
1000
0001
1000
0100
,
0010
1001
1001
0100
,
0010
1000
0002
0003
,
0010
0001
0100
1000
,
0010
1000
0100
0010
,
0001
0100
0001
1000
,
0020
0000
0030
1000
0002
0000
0003
0010
,
0200
0000
1000
0000
,
0001
0000
1300
0000
,
0001
0100
1000
0010
,
1000
0100
0001
0010
,
0001
0100
0001
0000
1000
0000
0010
0000
,
1000
0000
0001
0000
0010
0100
0010
0100
,
1000
0010
0001
0000
0100
0010
1000
0000
,
0001
0100
0010
0000
1000
0001
0100
0000
,
2020
0000
0030
0010
0000
0001
0000
3100
,
0000
1000
0000
0001
0000
0010
0001
1000
,
0001
0100
0010
2000
0000
0000
0000
0000
,
0001
3100
2000
3001
,
0102
0010
0010
0013
,
0001
0000
0100
0010
2000
0000
3200
0000
,
2300
0000
0000
0010
0000
0000
0001
0000
,
0001
0000
0000
3200
0000
0000
0320
0000
,
0032
0100
1000
0100
,
1003
0001
1000
0001
0200
0000
0300
0000
,
0110
0001
0010
0100
,
1000
0010
1000
0001
,
0010
1001
1001
0100
,
0001
0010
2000
3000
,
0100
1000
0010
0001
,
0010
0100
1000
0010
,
0100
0001
0010
0100
,
2000
0000
3000
0001
0200
0000
0300
0001
,
0020
0001
0001
0001
,
1000
1000
0001
0031
,
0202
0000
0300
2003
,
3002
0000
0100
0000
0010
0000
0103
0010
,
1000
0100
1000
0000
0001
0100
0001
0000
,
1000
0010
1000
0000
0001
0010
0001
0000
,
0100
0010
0100
0001
,
0200
0310
2000
3000
,
0001
0010
0000
0010
0100
0000
0100
1000
,
0000
1000
0001
0000
1000
0010
0100
0001
,
2000
0002
0000
0000
0000
0000
0003
0000
,
3001
0000
0000
0000
;

//---------------dance-single - ----------------
#NOTES:
     dance-single:
     :
     Medium:
     14:
     :
0000
0000
0000
0000
,
0000
0000
0000
0000
,
0000
0000
0000
0000
,
0000
0000
0000
0000
,
0000
0000
0000
0000
,
0001
0100
1000
0000
0010
1000
0100
0000
,
0010
0001
1000
0000
0100
0010
0001
0000
,
1000
0100
0010
0001
1000
0010
0100
0001
,
1000
0001
0100
0010
2000
0000
3000
0000
,
0001
0000
0000
0010
0000
0000
0001
0000
1000
0000
0000
0010
0000
0000
1000
0000
,
0001
0000
0000
0100
0000
0000
0001
0000
1000
0000
0000
0100
0000
0000
1000
0000
,
0010
0000
0000
1000
0000
0000
0001
0000
0010
0000
0000
0001
0000
0000
0100
0000
,
0010
0000
0000
1000
0000
0000
0100
0000
0020
0000
0000
0000
0030
0000
0000
0000
,
0001
1000
0100
0000
0010
0001
0100
0000
,
0001
0100
1000
0000
0010
1000
0100
0000
,
1000
0100
0010
0001
1000
0010
0100
0001
,
1000
0000
0001
0000
0100
0000
0010
0000
1000
0000
0000
0001
0000
0000
0010
0000
,
0200
0000
0000
2300
0000
0000
3001
0100
,
0010
1000
0001
0010
0000
0001
0100
0010
,
2000
0000
0000
3002
0000
0000
0203
0000
,
0010
0000
0301
0000
1000
0010
1000
0000
,
0002
0000
0000
0023
0000
0031
1000
0100
,
0010
0001
0100
0010
0000
1000
0001
1000
,
0200
0000
0310
0001
2000
0000
0001
0000
,
3010
0000
0001
0000
0100
0000
0000
0010
1000
0000
0000
1000
0001
0000
0000
0000
,
0010
0001
0100
0001
0010
0001
0100
0001
,
1000
0001
0010
0001
1000
0001
0100
0001
,
0010
0001
0100
0010
1000
0100
1000
0000
,
0001
0010
0100
1000
0010
0100
0001
0000
,
1000
0010
1000
0001
1000
0100
1000
0010
,
1000
0001
1000
0010
1000
0001
1000
0100
,
1000
0010
0100
0010
1000
0001
0010
0100
,
1000
0001
0000
0100
0010
1000
0010
0100
,
0002
0100
1000
0103
,
0010
0000
1000
0001
0000
0100
0001
0010
,
0001
0100
1000
0020
0200
0000
0300
0000
,
0002
0003
2000
3030
,
0010
1000
0100
0010
0001
0100
1000
0000
,
0010
0000
1000
0001
0000
0010
0001
0100
,
0001
0000
1000
1000
0000
0001
0001
0100
,
0010
1000
0100
0010
0001
0100
1000
0000
,
2010
3002
0023
0032
,
0103
0010
1000
0001
0000
0001
0010
0100
,
1000
0010
1000
0002
0000
0100
0000
0100
,
0000
0010
0000
0013
0000
1000
0001
1000
,
0010
0100
0000
0001
0000
1000
0001
0100
,
0000
0000
0010
0000
1000
0000
0001
0000
1000
0000
0000
0100
0000
0000
0010
0000
,
0001
0000
0000
0000
1000
0000
0000
0000
0001
0000
0000
0000
0010
0000
0001
1000
,
0002
0003
0011
0000
,
1000
0100
0010
0001
0100
1000
0000
0010
,
0000
1000
0001
1000
0000
0100
0010
0001
,
0000
0000
1001
0000
1001
0100
0010
0100
,
0001
0010
0001
2000
0000
0000
3010
0100
,
0001
0010
0100
0000
1000
0010
1000
0002
,
0000
0013
0100
0010
0100
0000
1000
0001
,
0100
0000
0000
0000
0100
0000
0000
0000
0001
0000
0000
1000
0000
0000
0001
0000
,
0020
0000
0000
0000
0030
0000
0001
1000
0002
0000
0000
0000
0003
0000
0000
0000
,
0100
0001
0010
0001
0100
1000
0000
0001
,
0000
1000
0100
0010
0000
0001
0100
0001
,
0000
0000
1001
0000
1001
0100
0010
0100
,
1000
0010
1000
0002
0000
0000
0103
0010
,
1000
0100
1000
0010
0100
0001
1000
0002
,
0000
0013
0001
1000
0100
0000
1000
0001
,
0011
0000
0000
0000
0110
0000
0000
0000
1000
0000
0000
0010
0000
0000
0001
0000
,
0200
0000
0000
0000
0300
0000
0001
1000
0002
0000
0000
0000
0003
0000
0100
0000
,
0020
1030
0002
1003
,
2000
3001
0200
0310
,
1000
0000
1000
0100
0000
0100
0010
0000
0010
0001
0000
0001
,
0100
0000
0100
0010
0000
0010
1000
0000
1000
0001
0000
0001
,
0010
0001
0001
0100
0010
1000
0010
0100
,
0010
1000
0001
0010
0001
1000
0010
0000
,
0100
0000
0000
0001
0000
0000
0010
0000
0001
0000
0000
1000
0000
0000
0100
0000
,
1000
0000
0000
0001
0000
0000
0010
0000
1000
0000
0000
0100
0000
0000
0010
0000
,
0200
0000
0000
0300
,
1000
0010
1000
0001
0000
0001
0010
0100
,
1000
0001
1000
0020
0000
0000
0000
0000
,
0000
0000
0000
1000
1030
0100
0002
0000
,
0023
0001
0000
1000
0000
0001
0031
0000
,
0000
0000
0010
0000
0010
0000
0001
0000
1000
0000
0000
0001
0000
0000
0100
0000
,
0020
1000
0100
1000
,
0130
0000
0000
0101
0000
0000
1100
0000
,
0001
0010
0100
1000
0001
0100
0010
1000
,
0001
1000
0010
0100
0002
0000
0003
0000
,
0010
0001
1000
0010
1000
0001
0000
0100
,
0000
0001
0010
0100
0000
0010
1000
0001
,
0000
0000
1001
0000
1001
0010
0100
0010
,
1000
0100
1000
0002
0000
0000
0013
0100
,
1000
0001
1000
0001
0010
0100
1000
0010
,
0000
0010
1000
0100
0001
0000
0010
0001
,
1000
0000
0000
0000
1000
0000
0000
0000
1000
0000
0000
0010
0000
0000
0100
0000
,
0002
0000
0000
0000
0003
0000
0100
0010
0200
0000
0000
0000
0300
0000
0001
0000
,
2000
0000
0000
0000
0000
0000
0000
0000
0000
0000
0000
0000
3010
0100
0010
0100
,
0010
0000
0000
1000
0000
0000
0001
0000
0000
0010
0000
0000
0001
0000
0000
0000
0000
0000
1000
0000
0001
0000
1000
0000
,
0002
0100
0010
1000
,
0013
0000
1001
0000
0110
0000
1000
0100
,
0010
0001
0010
0001
1000
0001
1000
0001
,
1000
0100
1000
0100
0010
0100
0010
0100
,
1000
0100
0010
0001
1000
0010
0100
0001
,
1000
0000
0000
0001
0000
0000
0200
0000
0020
0000
0000
0000
0330
0000
0000
0000
,
1000
0001
0010
0100
0100
0010
0001
1000
,
0001
1000
0010
0100
0010
0001
1000
0100
,
0010
0020
0000
0000
0000
0000
0030
1000
,
0001
0000
0000
0000
;

//---------------dance-single - ----------------
#NOTES:
     dance-single:
     :
     Hard:
     18:
     :
0000
0000
0000
0000
,
0000
0000
0000
0000
,
0000
0000
0000
0000
,
0000
0000
0000
0000
,
0000
0000
0000
0000
,
0001
0010
0100
0010
0001
1000
0100
0010
,
0100
0001
0100
1000
0010
1000
0001
0100
,
1000
0100
0010
1000
0100
0001
0100
1000
,
0001
0010
0001
0010
0100
1000
0100
1000
0002
0000
0000
0000
0003
0000
0000
0000
,
0010
0000
0001
0100
0000
0001
0100
0000
0010
0000
1000
0001
0000
1000
0001
0000
,
0100
0000
0010
1000
0000
0010
1000
0000
0001
0000
0100
0010
0000
0100
0010
0000
,
1000
0000
0001
0010
0000
0001
0010
0000
0100
0000
1000
0001
0000
1000
0001
0000
,
0010
0000
0100
1000
0000
0100
1000
0000
0002
0000
0000
0000
0003
0000
0000
0000
,
0010
0001
0100
0010
0001
0010
1000
0001
,
0010
1000
0010
0100
0010
0001
0100
0010
,
1000
0100
1000
0100
1000
0001
1000
0001
0010
0001
0010
0001
0010
0100
0010
0100
,
1000
0010
0100
0001
1000
0100
0010
0001
0100
0000
0000
0010
0000
0000
1000
0000
,
0002
0000
0013
0001
1000
0010
0100
0001
,
0010
0100
1000
0010
1000
0001
0100
0010
,
2000
0000
3100
0010
0001
0100
0020
0000
,
1030
0001
0010
1000
0010
0001
0100
0000
,
0110
0010
1000
0001
0010
0001
0100
1000
,
0010
0100
0010
1000
0100
0001
0100
0010
,
0002
0100
0103
0010
1010
1000
0001
0000
,
0010
0001
1000
0001
1000
0100
0010
0001
,
1000
0000
0001
0010
0100
0000
1000
0000
0010
0000
1000
0001
1000
0000
0100
0000
,
0010
0000
0001
0100
0010
0000
1000
0000
0100
0000
0010
0001
0010
0000
0100
0000
,
1000
0000
0001
0010
0100
0000
1000
0000
0001
0000
0100
0010
0100
0000
0001
0000
,
1000
0000
0010
0100
0000
0100
0001
0000
0010
0000
0001
1000
0000
1000
0100
0000
,
0010
0000
0001
1000
0100
0000
0010
0000
0001
0000
1000
0010
1000
0000
0100
0000
,
0001
0000
0010
0001
1000
0000
0100
0000
0010
0000
0001
0100
0001
0000
1000
0000
,
0010
0000
1000
0001
0010
0000
0001
0000
1000
0000
0010
1000
0001
0000
0100
0000
,
0000
0100
0010
0100
0001
0010
1000
0000
,
1001
0100
0001
0010
1000
0001
0100
0000
,
0010
1000
0001
0010
0001
0100
1000
0000
,
0001
1000
0100
0010
1000
0001
0100
0000
,
0010
0100
0010
1000
0100
0001
1000
0000
,
0010
0100
0010
1000
0001
0010
0100
0000
,
1000
0001
0010
0001
0100
0010
1000
0000
,
1100
0000
0101
0101
0000
0010
1000
0001
,
0010
0000
0100
0000
1000
0000
0010
0000
0100
0001
0100
0001
1000
0100
1000
0001
,
0100
0000
0010
1000
0000
1000
0001
0000
0100
0000
0001
0010
0000
0010
0100
0000
,
1000
0010
1000
0001
0010
0100
1000
0000
,
1000
0000
0010
0000
0100
0000
0002
0000
0000
0000
0013
0001
0100
0000
0010
1000
,
0100
0000
1000
0001
0000
0010
0001
0000
0100
0000
0010
1000
0000
1000
0001
0000
,
0010
0000
0001
1000
0000
0010
1000
0000
0100
0000
0010
0001
0000
0001
0100
0000
,
0001
0010
0001
0100
1000
0010
1000
0001
,
0100
0000
0010
0000
1000
0000
0100
0000
1000
0000
0010
0000
0100
0000
0001
1000
,
0200
0000
0310
0000
,
0001
0100
0001
0010
1000
0001
1000
0100
,
0010
0001
0100
0010
0100
0001
0010
0100
,
1000
0010
1000
0100
1000
0001
0010
0100
,
1000
0010
0001
1000
0100
0010
0001
0100
,
1000
0100
0010
1000
0001
0010
1000
0010
,
0100
0001
0100
0010
0001
0100
1000
0010
,
0100
0000
0001
0000
1000
0000
0100
0000
0010
0000
0000
0001
0000
0000
1000
0000
,
0020
0000
0000
0000
0030
0000
1000
0001
2000
0000
0000
0000
3000
0000
0100
0000
,
1000
0010
0001
0100
0001
0010
0100
1000
,
0010
1000
0010
0001
0010
1000
0100
0010
,
0001
0100
0001
0010
1000
0001
1000
0100
,
0010
0100
1000
0010
1000
0001
0100
0010
,
1000
0100
0001
1000
0001
0010
0100
0001
,
1000
0010
0100
0001
0010
0100
1000
0001
,
0011
0000
0000
0000
1100
0000
0000
0000
0001
0000
0000
1000
0000
0000
0001
0000
,
0200
0000
0000
0000
0300
0000
0001
1000
0002
0000
0000
0000
0003
0000
0010
0000
,
0002
0203
0320
2030
,
3100
1000
0001
1000
0100
0010
0001
0100
,
0001
0010
0001
1000
0010
1000
0001
0100
0001
1000
0100
1000
,
0001
0010
0100
1000
0001
0100
0010
1000
0100
1000
0001
0010
,
0100
1000
0100
1000
0100
1000
0100
1000
0100
0000
0010
0001
0010
0000
0001
1000
,
0001
0000
0100
0010
0100
0000
0001
0010
0001
0100
0010
1000
0001
0010
0100
1000
,
0010
0001
0010
0100
0010
1000
0010
0000
0100
0001
0100
0010
0100
1000
0100
0000
,
1000
0001
0100
0010
1000
0001
0100
0010
1000
0001
0100
0010
1000
0001
0100
0010
,
2000
0001
0000
0010
0000
0001
0000
3010
,
0100
0001
0010
0100
1000
0010
1000
0001
,
0100
0010
0100
0002
0000
1000
0000
0010
,
0000
0103
0001
0010
0001
1000
0100
0000
,
1000
0010
1000
0001
0010
0100
1000
0000
,
0010
0000
0100
0000
0010
0000
1000
0000
0001
0000
0000
0100
0000
0000
0010
0000
,
2000
0001
0100
0001
,
0010
0000
3100
0020
0000
0031
0200
0000
,
0301
0010
0001
1000
0100
0010
0100
1000
,
0001
0100
0010
1000
0001
0010
0100
1000
0002
0000
0000
0000
0003
0000
0000
0000
,
0010
0001
1000
0001
0100
1000
0100
0001
,
0010
0100
0001
0100
0010
1000
0010
0001
,
0100
1000
0010
1000
0100
0010
0001
0100
,
0001
0010
1000
0100
0010
0001
0100
0010
,
1000
0100
1000
0001
0010
1000
0100
0001
,
0010
0001
0100
0001
0010
0100
1000
0010
,
0100
0000
0001
0000
1000
0000
0001
0000
0010
0000
0100
1000
0000
0100
1000
0000
,
0001
0000
0100
0000
0010
0000
1000
0001
1000
0000
0000
0010
0000
0000
0100
0000
,
0001
0000
0010
0000
0001
0000
0100
0000
0010
0000
1000
0000
0001
1000
0100
1000
,
0001
0100
0001
1000
0100
1000
0001
0010
0001
1000
0010
1000
,
0200
0010
0310
0011
,
1100
0002
2003
3002
,
0103
0001
0010
0001
0010
0100
1000
0010
,
1000
0001
1000
0100
0010
0001
1000
0010
,
0100
0010
1000
0100
1000
0010
0001
0100
,
0001
0000
0000
0010
0000
0000
0002
0000
2000
0000
0000
0000
3003
0000
0000
0000
,
0001
0100
0010
0100
1000
0010
1000
0100
0001
0010
0001
1000
0100
0010
1000
0001
,
0100
0010
0001
1000
0100
0001
1000
0010
0001
0100
1000
0010
0100
0010
1000
0001
,
0200
0000
0020
0000
0000
0000
0000
0000
0000
0000
0000
0000
0000
0330
1000
0100
,
0001
0000
0000
0000
;
