#TITLE:TOKIMEKI STREAM;
#ARTIST:Qrispy Joybox;
#BANNER:TOKIMEKI STREAM-bn.png;
#BACKGROUND:TOKIMEKI STREAM-bg.png;
#JACKET:TOKIMEKI STREAM-jacket.png;
#MUSIC:TOKIMEKI STREAM.ogg;
#SAMPLESTART:11.7;
#SAMPLELENGTH:20;
#DISPLAYBPM:164;
#BPMS:0=164;
#BGCHANGES:;

//---------------dance-single - ----------------
#NOTES:
     dance-single:
     :
     Beginner:
     3:
     :
0000
0000
0000
0000
,
0000
0000
0000
0000
,
0000
0000
0000
0000
,
0000
0000
0000
0000
,
0010
0000
1000
0000
,
0010
0000
0100
0000
,
0010
0000
0001
0000
,
0110
0000
1001
0000
,
2000
0000
0000
3000
0000
0000
0001
0000
,
0002
0000
0000
0003
0000
0000
0000
0000
,
0020
0000
0000
0030
0000
0000
0100
0000
,
0100
0000
0010
0000
,
0002
0000
0000
0003
0000
0000
0000
0000
,
2000
0000
0000
3000
0000
0000
0010
0000
,
0020
0000
0000
0030
0000
0000
0000
0000
,
0100
0100
0100
0000
,
0001
0000
0001
0000
,
0001
0000
0001
0000
,
1000
0000
1000
0000
,
1000
0000
1000
0000
,
0010
0000
0010
0000
,
0100
0000
0100
0000
,
0010
0000
0100
0000
,
0110
0000
1001
0000
,
2000
0000
0000
3000
0000
0000
0000
0000
,
0200
0000
0000
0300
0000
0000
0000
0000
,
0020
0000
0000
0030
0000
0000
0000
0000
,
0002
0000
0000
0003
0000
0000
0000
0000
,
2000
0000
0000
3000
0000
0000
0000
0000
,
0002
0000
0000
0003
0000
0000
0000
0000
,
0100
0000
0010
0000
,
1000
1000
1000
0000
,
1001
0000
0000
0000
,
0010
0000
0000
0000
,
0110
0000
0000
0000
,
0001
0000
0000
0000
,
1001
0000
0000
0000
,
1000
0000
0000
0000
,
0110
0000
0100
0000
,
0001
0000
1000
0000
,
0020
0000
0000
0030
0000
0000
1000
0000
,
2000
0000
0000
3000
0000
0000
0000
0000
,
0200
0000
0000
0300
0000
0000
0010
0000
,
0010
0000
0001
0000
,
0200
0000
0000
0300
0000
0000
0000
0000
,
0002
0000
0000
0003
0000
0000
1000
0000
,
2000
0000
0000
3000
0000
0000
0000
0000
,
0010
0000
0100
0000
,
0002
0000
0000
0003
0000
0000
1000
0000
,
2000
0000
0000
3000
0000
0000
0010
0000
,
0020
0000
0000
0030
0000
0000
0100
0000
,
0100
0000
0010
0000
,
2000
0000
0000
3000
0000
0000
0100
0000
,
0200
0000
0000
0300
0000
0000
1000
0000
,
2000
0000
0000
3000
0000
0000
0000
0000
,
0001
0000
1000
0000
,
1001
0000
0000
0000
,
0000
0000
0000
0000
,
0110
0000
0000
0000
,
0001
0001
0001
0000
,
0010
0000
0001
0000
,
0010
0000
0100
0000
,
0010
0000
1000
0000
,
0010
0000
0110
0000
,
1001
0000
0000
0000
;

//---------------dance-single - ----------------
#NOTES:
     dance-single:
     :
     Easy:
     8:
     :
0000
0000
0000
0000
,
0000
0000
0000
0000
,
0000
0000
0000
0000
,
0000
0000
0000
0000
,
0010
0001
1000
0010
,
1000
0100
0010
0001
,
0100
0010
1000
0001
,
0011
1100
0011
1100
,
2000
0000
0000
3010
0000
0000
0100
0001
,
0200
0000
0000
0310
0000
0000
0000
0000
,
2000
0000
0000
3001
0000
0000
0010
0100
,
0010
0000
0010
0000
0001
1000
0001
0000
,
2000
0000
0000
3100
0000
0000
0000
0000
,
0020
0000
0000
0031
0000
0000
0100
0001
,
0200
0000
0000
0310
0000
0000
0000
0000
,
1000
0001
1000
0100
,
0010
0010
0001
0001
,
1000
0000
1000
0000
1000
0001
0000
0001
,
1000
1000
0010
0010
,
0100
0000
0001
0000
1000
0100
0000
0000
,
0010
0010
0100
0100
,
1000
0000
1000
0000
1000
0001
0000
0001
,
1000
0010
0100
0001
,
0101
1010
0101
1010
,
1000
1100
0001
0101
,
1000
0100
0010
0001
0000
0100
0000
0100
,
0010
1010
0100
0101
,
0001
0010
0100
1000
0000
1001
0000
0000
,
0001
0011
1000
1010
,
0100
1000
0001
0100
0000
0010
0000
0010
,
1000
0110
0001
0110
,
1000
0001
0100
0110
,
1001
0000
0000
1001
0000
0000
0000
0000
,
2000
0000
0000
0002
0000
0000
3003
0000
,
0101
0000
0000
0101
0000
0000
0000
0000
,
0200
0000
0000
0302
0000
0013
0000
0000
,
1100
0000
0000
1100
0000
0000
0000
0000
,
2000
0000
0000
0020
0000
0000
3030
0000
,
0101
0000
1100
0000
,
2000
3002
2003
3002
,
0023
0000
0000
0130
0000
0000
1000
0010
,
2000
0000
0000
3001
0000
0000
0000
0000
,
0020
0000
0000
0031
0000
0000
1000
0100
,
1000
0000
0001
0000
0100
0010
0100
0000
,
0002
0000
0000
0013
0000
0000
0000
0000
,
0200
0000
0000
1300
0000
0000
0001
1000
,
0002
0000
0000
0013
0000
0000
0000
0000
,
0001
1000
0100
0010
,
0012
0000
0000
0103
0000
0000
1000
0010
,
0200
0000
0000
0301
0000
0000
1000
0000
,
2100
0000
0000
3010
0000
0000
0100
0001
,
1000
0000
0100
0000
1000
0001
0100
0000
,
1020
0000
0000
0130
0000
0000
0000
0000
,
2001
0000
0000
3001
0000
0000
1000
0100
,
0020
0000
0000
0031
0000
0000
0000
0000
,
0100
0001
1000
0010
,
2002
0000
0000
0000
,
0003
0000
0000
0000
0000
3001
0000
1000
,
0001
0000
0000
0000
,
1100
0101
1100
0101
,
0010
0001
0100
1000
,
0010
1000
0100
0001
,
0010
0100
1000
0001
,
0010
0001
1000
0100
,
2002
0000
0000
0000
,
0000
0000
0000
0000
,
0003
3000
0000
0000
;

//---------------dance-single - ----------------
#NOTES:
     dance-single:
     :
     Medium:
     12:
     :
0000
0000
0000
0000
,
0000
0000
0000
0000
,
0000
0000
0000
0000
,
0000
0000
0000
0000
,
0010
0000
0000
1000
0000
0000
0001
0000
0000
0000
1000
0000
0100
0000
0010
0000
,
0001
0000
0000
0100
0000
0000
0010
0000
0000
0000
1000
0000
0000
0000
0000
0000
,
0100
0000
0000
1000
0000
0000
0001
0000
0000
0000
0100
0000
0001
0000
0010
0000
,
0011
1100
0011
1100
,
1001
0000
0000
0000
0100
0000
0110
0000
0000
0000
0000
0000
1000
0001
1000
0001
,
1000
0000
0010
0101
0000
0000
0001
1000
,
1100
0000
0000
0000
0010
0000
1010
0000
0000
0000
0000
0000
0100
0001
0100
0001
,
0100
0000
0010
0000
1000
1000
0001
0100
,
0110
0000
0000
0000
0010
0000
1010
0000
0000
0000
0000
0001
0100
0000
0000
0000
,
1001
0000
0000
0000
0001
0000
0011
0000
0000
0000
0000
0000
1000
0100
1000
0100
,
1000
0000
0000
0000
0010
0000
0101
0000
0000
0000
0000
0001
1000
0000
0000
0000
,
0010
1000
0100
1000
0001
1000
0100
0010
,
0001
0000
0100
0010
0000
1000
0000
0000
0000
0000
0100
0010
0000
0001
0000
0000
,
0000
0000
1000
0001
0000
0100
0000
0000
0000
0000
0010
0000
1000
0000
0010
0000
,
0100
0000
0001
1000
0000
0010
0000
0000
0000
0000
1000
0100
0000
0010
0000
0000
,
0011
0000
1010
0000
1000
0010
0001
0000
,
0100
0000
0001
1000
0000
0100
0000
0000
0000
0000
0010
0001
0000
0100
0000
0000
,
0000
0000
0001
1000
0000
0010
0000
0000
0000
0000
0100
0000
0001
0000
0100
0000
,
0010
0000
1000
0001
0000
1000
0000
0000
0100
0000
0010
0000
0001
0000
0100
0000
,
0101
1100
0101
1100
,
0002
0000
0000
0103
0000
0000
0020
0000
0000
1030
0000
0000
0100
0000
0000
0000
,
0020
0000
0000
0031
0000
0000
2000
0000
0000
3010
0000
0000
1000
0000
0001
0000
,
0020
0000
0000
0130
0000
0000
2000
0000
0000
3001
0000
0000
0100
0000
0000
0000
,
0001
0100
0010
1000
0000
0110
0000
0000
,
2000
0000
0000
3001
0000
0000
0200
0000
0000
0310
0000
0000
1000
0000
0000
0000
,
0200
0000
0000
0310
0000
0000
0002
0000
0000
1003
0000
0000
0001
0000
0100
0000
,
0010
1000
0010
1000
0000
0001
0010
0001
,
0100
0010
0100
0010
1000
0001
1001
0000
,
2010
0000
0000
3100
0000
0000
0011
0000
0000
0000
0000
0000
0000
0000
0000
0000
,
0002
0000
0000
2003
0000
0000
3020
0000
0000
0000
0000
0000
0030
0000
0000
0000
,
0102
0000
0000
0013
0000
0000
1100
0000
0000
0000
0000
0000
0000
0000
0000
0000
,
2000
0000
0000
3002
0000
0000
0203
0000
0000
0000
0310
0000
0000
0000
0000
0000
,
2010
0000
0000
3001
0000
0000
1001
0000
0000
0000
0000
0000
0000
0000
0000
0000
,
0200
0000
0000
0320
0000
0000
0032
0000
0000
0000
0000
0000
0003
0000
0000
0000
,
1000
0000
0000
0001
0000
0000
0010
0000
0000
0000
0001
0000
1000
0000
0100
0000
,
1100
0110
0011
1001
,
0110
0000
0000
0000
1000
0000
1001
0000
0000
0000
0000
0000
0010
0100
0010
0100
,
0010
0000
1000
0101
0000
0000
0001
0100
,
0110
0000
0000
0000
0001
0000
0011
0000
0000
0000
0000
0000
0100
0010
0100
0010
,
0100
0000
0010
0000
1000
1000
0001
0100
,
0110
0000
0000
0000
0100
0000
0101
0000
0000
0000
0000
1000
0001
0000
0000
0000
,
1010
0000
0000
0000
0001
0000
1100
0000
0000
0000
0000
0000
0001
0010
0001
0010
,
0001
0000
0000
0000
0100
0000
1001
0000
0000
0000
0000
0010
1000
0000
0000
0000
,
0100
1000
0010
1000
0001
1000
0100
0010
,
0011
0000
0000
0000
1000
0000
1100
0000
0000
0000
0000
0000
0010
0100
0010
0100
,
0010
0000
1000
1001
0000
0000
0001
0100
,
0101
0000
0000
0000
0010
0000
0000
0000
1010
0000
0000
0000
0100
0001
0100
0001
,
0100
0000
0010
0000
1000
1000
0001
0100
,
1001
0000
0000
0000
0010
0000
1010
0000
0000
0000
0000
1000
0100
0000
0000
0000
,
0110
0000
0000
0000
0001
0000
0101
0000
0000
0000
0000
0000
0010
0100
0010
0100
,
0010
0000
0000
0000
1000
0000
0110
0000
0000
0000
0000
0010
0100
0000
0000
0000
,
0001
0100
0001
1000
0001
0010
0100
1000
,
2002
0000
0000
0000
,
0000
0000
0000
0003
0000
0010
0000
0001
,
3001
0000
0000
0000
,
1010
0101
0011
1100
,
1000
0000
0000
0001
0000
0000
1000
0000
0000
0000
0010
0000
0100
0000
0001
0000
,
0010
0000
0000
0100
0000
0000
1000
0000
0000
0000
0001
0000
0000
0000
0000
0000
,
0100
0000
0000
0001
0000
0000
0010
0000
0000
0000
0001
0000
1000
0000
0100
0000
,
0010
0000
0000
0001
0000
0000
1000
0000
0000
0000
0001
0000
0100
0000
0010
0000
,
2002
0000
0000
0000
,
0000
0000
0000
0000
,
0003
3000
0000
0000
;

//---------------dance-single - ----------------
#NOTES:
     dance-single:
     :
     Hard:
     15:
     :
0000
0000
0000
0000
,
0000
0000
0000
0000
,
0000
0000
0000
0000
,
0000
0000
0000
0000
,
0010
0000
1000
0010
0000
1000
0010
0000
0000
0000
0100
0000
0001
0000
1000
0000
,
0100
0000
0010
0100
0000
0010
0100
0000
0000
0000
1000
0000
0001
0000
0100
0000
,
0001
0000
0010
0001
0000
0010
0001
0000
0000
0000
1000
0000
0100
0000
0010
0000
,
0011
1100
0011
1100
,
1000
0001
0000
0010
0000
0000
0001
1000
0000
0010
0000
0000
0100
0001
0100
0001
,
0100
0010
0000
1000
0000
0000
0100
0010
0000
0001
0000
0000
1000
0000
0000
0000
,
0001
1000
0000
0100
0000
0000
1000
0001
0000
0100
0000
0000
0010
1000
0010
1000
,
0010
0100
0000
0001
1000
0000
0000
0000
0110
0000
0110
0000
1001
0000
1001
0000
,
0100
1000
0000
0001
0000
0000
0010
0001
0000
1000
0000
0010
0100
0000
0000
0000
,
0001
0010
0000
0100
0000
0000
1000
0010
0000
0100
0000
0000
0001
1000
0001
1000
,
0001
0010
0000
0100
0000
0000
1000
0001
0000
0100
0000
0001
1000
0000
0000
0000
,
0010
1000
0000
0001
0100
0000
0010
0000
1000
0100
1000
0000
0001
0000
0100
0000
,
0001
0001
1000
1000
0100
0100
0010
0010
,
0001
0000
0001
0000
1000
0000
1000
0000
0010
0000
0100
0001
0100
0000
0100
0001
,
0100
0100
0010
0010
1000
1000
0001
0001
,
0010
0010
0001
0001
1000
0110
0001
0000
,
0100
0100
0001
0001
0010
0010
1000
1000
,
0100
0000
0100
0000
0010
0000
0010
0000
0001
0000
1000
0010
1000
0000
1000
0010
,
1000
0100
0010
0001
1000
0010
0100
0001
,
0101
1010
0101
1010
,
0100
1000
0000
0100
1000
0000
0010
0001
0000
0010
0001
0000
0100
0000
0010
0000
,
1000
0001
0000
1000
0001
0000
0010
0100
0000
0010
0100
0000
1000
0000
1001
0000
,
0010
1000
0000
0010
1000
0000
0001
0100
0000
0001
0100
0000
0001
0000
1000
0000
,
0100
0010
0000
0100
0010
0000
0001
1000
0000
0001
1000
0000
0100
0000
0010
0000
,
0001
0100
0000
0010
1000
0000
0001
0100
0000
0010
1000
0000
0100
0000
0000
0000
,
0010
0001
0000
1000
0100
0000
0010
0001
0000
1000
0100
0000
1000
0000
0010
0000
,
0100
0010
0000
1000
0001
0000
0100
0010
0000
1000
0001
0000
0010
0000
0100
0000
,
1000
0001
0000
0001
1000
0000
1000
0001
0000
0001
1000
0000
1000
0001
0000
0000
,
0012
0000
0000
0103
0000
0000
1020
0000
0000
0000
1030
0000
0001
0000
0010
0000
,
0002
0000
0000
2003
0000
0000
3200
0000
0000
0000
1000
0000
1300
0000
0001
0000
,
0201
0000
0000
0310
0000
0000
2010
0000
0000
0000
3001
0000
1000
0000
0100
0000
,
0020
0000
0000
0032
0000
0000
2003
0000
0000
0000
3010
0000
0100
0001
0100
0000
,
0102
0000
0000
1003
0000
0000
2001
0000
0000
0000
3100
0000
0010
0000
0001
0000
,
2000
0000
0000
3200
0000
0000
0320
0000
0000
0000
0001
0000
0031
0000
1000
0000
,
1200
0000
0000
0310
0000
0000
0021
0000
0000
0000
0031
0000
0100
0000
1000
0000
,
1100
0101
1100
0101
,
0010
0001
0000
0100
0000
0000
0001
1000
0000
0100
0000
0000
0010
0001
0100
0001
,
0010
0001
0000
1000
0000
0000
0100
0010
0000
0001
0000
0000
0100
0000
0000
0000
,
0010
1000
0000
0001
0000
0000
0100
0010
0000
1000
0000
0000
0100
1000
0001
1000
,
0100
0010
0001
1000
0110
0110
1001
1001
,
0100
0010
0000
1000
0000
0000
0100
1000
0000
0001
0000
0100
0010
0000
0000
0000
,
1000
0001
0000
0010
0000
0000
0001
1000
0000
0100
0000
0000
0010
0001
1000
0001
,
0010
0100
0000
1000
0000
0000
0010
0100
0000
0001
0000
1000
0001
0000
0100
0010
,
1000
0000
1000
0000
0001
0000
0001
0000
0010
0001
1000
0000
0010
0000
0100
0000
,
0001
0010
0000
1000
0000
0000
0100
1000
0000
0001
0000
0000
0010
0001
1000
0001
,
0100
0010
0000
1000
0000
0000
0001
0010
0000
1000
0000
0000
0100
0000
0010
0000
,
0100
1000
0000
0010
0000
0000
1000
0100
0000
0001
0000
0000
0010
0100
1000
0001
,
0100
0010
1000
0001
0011
0011
1100
1100
,
0010
0001
0000
1000
0000
0000
0010
1000
0000
0001
0000
0100
0010
0000
1000
0000
,
0100
0010
0000
0001
0000
0000
1000
0010
0000
0100
0000
0000
0001
1000
0010
0100
,
0001
1000
0000
0001
0000
0000
0100
0010
0000
0100
0000
0001
1000
0000
0100
0000
,
1000
0010
1000
0000
0001
0010
0001
0000
0100
0010
0100
0000
0001
0000
1000
0000
,
2001
0000
0000
0010
0000
0000
3001
0000
0000
0000
1000
0000
0001
0000
0100
0000
,
0010
0000
0000
1000
0000
0000
0001
0000
0000
0000
1010
0000
0000
0000
0101
0000
,
0101
0000
0000
0010
0000
0000
0001
0000
0000
0000
0100
0000
0010
0000
1000
0000
,
1100
0011
1100
0011
,
0010
0000
0001
1000
0000
0001
1000
0000
0000
0000
0100
0000
0010
0000
0001
0000
,
0100
0000
0010
1000
0000
0010
1000
0000
0000
0000
0001
0000
0100
0000
0010
0000
,
1000
0000
0001
0100
0000
0001
0100
0000
0000
0000
0010
0000
1000
0000
0001
0000
,
1000
0100
0000
1000
0100
0000
0110
0000
0000
0000
0001
0000
1000
0000
0001
0000
,
2002
0000
0000
0000
,
0000
0000
0000
0000
,
0003
3000
0000
0000
;

//---------------dance-single - ----------------
#NOTES:
     dance-single:
     :
     Challenge:
     17:
     :
0000
0000
0000
0000
,
0000
0000
0000
0000
,
0000
0000
0000
0000
,
0000
0000
0000
0000
,
0010
1000
0010
1000
0010
0000
0100
0001
0100
0001
0100
0000
0010
0000
0100
0000
,
0001
1000
0001
1000
0001
0000
0010
0100
0010
0100
0010
0000
0001
0000
0100
0000
,
0001
0010
0001
0010
0001
0000
1000
0100
1000
0100
1000
0000
0001
0000
0100
0000
,
0011
1100
0011
1100
,
1000
0010
0100
0001
0010
0000
0001
0100
0010
1000
0001
0000
1000
0100
1000
0100
,
1000
0010
0100
0001
0010
0000
0001
0100
0010
1000
0001
0000
0100
0000
0100
0000
,
0010
1000
0001
0100
0010
0000
1000
0001
0100
0010
1000
0000
0001
0100
0001
0100
,
0001
0010
0100
1000
0010
0000
1000
0100
0010
0001
0100
0000
0010
0000
1000
0000
,
0100
1000
0001
1000
0100
0000
0010
0001
1000
0001
0010
0001
0100
0000
0000
0000
,
0010
1000
0100
1000
0010
0000
0100
0001
0010
0001
0100
0000
0001
0010
0100
1000
,
0001
0010
0100
1000
0010
0000
1000
0001
0010
0100
1000
0010
0100
0000
0001
0000
,
1000
0100
1000
0100
0010
0001
0010
0001
0100
0010
1000
0000
0001
0000
0100
0000
,
0010
0000
1000
0100
0000
1000
0100
0000
0010
0000
0001
0100
0000
0001
0100
0000
,
0010
0000
1000
0001
0000
1000
0001
0000
0010
0000
0100
1000
0001
0000
0100
0001
,
1000
0000
0010
0100
0000
0010
0100
0000
0001
0000
0010
0100
0000
0010
0100
0000
,
1100
1100
0110
0110
0011
0101
1001
0000
,
0010
0000
1000
0001
0000
0010
0100
0000
1000
0000
0010
0100
0000
0001
1000
0000
,
0100
0000
0010
0001
0000
1000
0100
0000
0010
0000
0001
0100
0001
0000
1000
0100
,
1000
0010
0100
0010
1000
0000
0001
0100
0010
0100
0001
0000
1000
0001
0100
0001
,
1000
1100
1010
1001
,
0010
1000
0100
1000
0100
1000
0010
0100
0001
0100
0001
0100
0010
0000
1000
0000
,
0100
0010
0001
0010
0001
0010
0100
1000
0010
1000
0010
1000
0100
0000
0010
0000
,
1000
0001
0100
0001
0100
0001
1000
0100
0010
0100
0010
0100
1000
0000
0010
0000
,
0100
0001
1000
0001
1000
0001
0100
0010
1000
0010
1000
0010
0100
0000
0001
0000
,
0010
0001
1000
0001
1000
0001
0010
0100
1000
0100
1000
0100
0010
0000
0001
0000
,
0100
0010
1000
0010
1000
0010
0100
0001
1000
0001
1000
0001
0100
0000
0010
0000
,
1000
0100
0010
0100
0010
0100
1000
0001
0100
0001
0100
0001
0100
0000
0010
0000
,
1000
0100
0000
0100
0001
0000
1000
0010
0000
0010
0001
0000
0100
0010
0000
0000
,
1010
0000
0000
0101
0000
0000
1100
0000
0000
0000
0001
0000
1000
0000
0010
0000
,
0100
0000
0000
0001
0000
0000
1000
0000
0000
0100
1000
0000
0010
0000
0100
0001
,
0100
0000
0000
0110
0000
0000
1001
0000
0000
0000
1000
0000
0100
0000
0010
0000
,
0001
0000
0100
0010
0000
0100
0010
0000
0000
0000
1000
0001
0000
1000
0001
0000
,
0011
0000
0000
0110
0000
0000
1100
0000
0000
0000
0010
0000
1000
0000
0001
0000
,
0100
0000
0000
0010
0000
0000
1000
0001
0000
0001
1000
0000
0100
0010
0000
0010
,
0100
0000
1000
0010
1000
0000
0001
0100
0001
0000
1000
0100
1000
0000
0001
0010
,
0001
0000
0100
0010
1000
0000
0100
0010
0001
0000
1000
0001
0100
0000
0000
0000
,
0010
1000
0100
1000
0010
0000
0100
0001
1000
0001
0100
0000
0010
0100
0010
0100
,
0010
1000
0001
0010
0100
0000
1000
0010
1000
0001
0100
0000
0010
0000
1000
0000
,
0100
0010
0001
0100
0001
0000
0010
0100
1000
0001
1000
0000
0001
0100
0001
0100
,
0001
0000
0010
0100
1000
0000
0010
0100
0001
0000
1000
0000
0001
0000
0100
0000
,
0010
0100
0001
1000
0010
0000
0100
0001
1000
0010
0100
0001
1000
0000
0100
0000
,
0010
0001
1000
0010
0100
0000
0010
1000
0100
0010
0001
0000
1000
0100
1000
0100
,
1000
0001
0010
0001
0100
0000
0010
1000
0100
0010
0001
0100
0010
0000
1000
0000
,
0100
1000
0001
1000
0100
0000
0010
0001
1000
0001
0010
0000
0100
1000
0001
0000
,
1000
0100
0001
0100
1000
0000
0001
0100
1000
0100
0001
0000
0010
0001
1000
0001
,
0100
1000
0100
0001
0100
0000
0010
1000
0010
0001
0010
0100
0001
0000
1000
0000
,
0001
0010
1000
0010
0001
0000
1000
0010
0001
0010
1000
0000
0100
1000
0001
0100
,
0010
0001
0010
1000
0010
0000
0100
1000
0100
0001
0100
0000
0010
0000
0001
0000
,
1000
0100
0001
0100
1000
0000
0001
0010
1000
0010
0001
0100
0010
0000
1000
0000
,
0001
0100
1000
0100
0001
0000
1000
0010
0001
0010
1000
0000
0001
0010
0100
1000
,
0010
1000
0100
0001
0100
0000
1000
0010
0001
0010
0100
0010
1000
0000
0001
0000
,
0010
0100
0010
0100
1000
0010
1000
0010
0100
0001
0100
0001
1000
0001
1000
0001
,
0010
0000
0000
0001
0000
0000
1000
0000
0000
0000
0100
0000
1000
0000
0001
0000
,
0100
0000
0000
0010
0000
0000
1000
0000
0000
0000
1100
0000
0000
0000
0101
0000
,
0101
0000
0000
0010
0000
0000
0100
0000
0000
0000
0001
0000
1000
0000
0001
0000
,
1000
0100
0000
0100
0001
0000
1000
0010
0000
0010
0001
0000
0100
0010
0000
0000
,
1000
0001
1000
0001
1000
0000
0100
0010
0100
0010
0100
0000
1000
0000
0010
0000
,
0100
0001
0100
0001
0100
0000
0010
1000
0010
1000
0010
1000
0001
0000
0010
0000
,
0100
1000
0100
1000
0100
1000
0100
1000
0001
0010
0001
0010
0001
0010
0001
0010
,
0001
0010
0100
1000
0100
0010
0001
0010
0100
1000
0100
0010
0001
0010
0100
0000
,
2002
0000
0000
0000
,
0000
0000
0000
0000
,
0003
3000
0000
0000
;
