#TITLE:TO DESERVE YOU;
#SUBTITLE:(Almighty 12" Definitive Mix);
#ARTIST:DÉJÀ VU featuring TASMIN;
#TITLETRANSLIT:;
#SUBTITLETRANSLIT:;
#ARTISTTRANSLIT:;
#GENRE:;
#CREDIT:;
#BANNER:TO DESERVE YOU (Almighty 12'' Definitive Mix)-bn.png;
#BACKGROUND:TO DESERVE YOU (Almighty 12'' Definitive Mix)-bg.png;
#LYRICSPATH:;
#CDTITLE:;
#MUSIC:TO DESERVE YOU (Almighty 12'' Definitive Mix).ogg;
#OFFSET:0.000000;
#SAMPLESTART:96.033333;
#SAMPLELENGTH:20.000000;
#SELECTABLE:YES;
#DISPLAYBPM:130.000000;
#BPMS:0.000000=130.000000
;
#STOPS:
;
#BGCHANGES:;
#KEYSOUNDS:;
#ATTACKS:;

//---------------dance-single - ----------------
#NOTES:
     dance-single:
     :
     Medium:
     10:
     0.368399,0.423758,0.250910,0.397273,0.243940,370.000000,334.000000,36.000000,57.000000,0.000000,0.000000,0.368399,0.423758,0.250910,0.397273,0.243940,370.000000,334.000000,36.000000,57.000000,0.000000,0.000000:
0000
0000
0000
0000
,
0000
0000
0000
0000
,
0000
0000
0000
0000
,
0000
0000
0000
0000
,
1001
0000
0000
0000
0010
0000
0000
0100
0000
0000
0001
0000
0000
0000
1000
0000
,
0001
0000
0000
0000
0100
0000
0000
0010
0000
0000
1000
0000
0000
0000
0100
0000
,
0010
0000
0000
0000
0001
0000
0000
0100
0000
0000
0001
0000
0000
1000
0000
0000
,
0220
0000
0000
0330
,
0202
0000
0000
0000
,
0000
0000
0000
0303
,
2200
0000
0000
0000
,
0000
0000
0000
3300
,
2020
0000
0000
0000
0000
0000
0000
0000
0000
0000
3030
0000
0000
0001
1000
0001
,
2000
0010
0200
3300
,
0022
0000
0000
0000
0000
0000
0000
0033
0000
0000
0001
0000
0100
0000
0010
0000
,
2000
0000
3001
0010
0200
0000
1300
0010
,
0200
0000
0001
0001
,
0001
0000
0010
0000
1000
0000
0301
0100
,
0020
1000
1000
1030
,
0110
0000
0000
0000
0001
0000
1000
0000
0000
0000
0010
0000
0000
0100
0000
0000
,
0001
0000
0000
1000
0001
0000
0200
0000
0000
0000
0000
0000
0000
0000
0000
0000
,
0000
0000
0000
0000
0000
0000
0000
0000
0000
0000
0010
0000
0000
0310
0000
0000
,
2020
0000
0000
0000
0000
0000
0000
3000
0000
0000
1000
0000
0000
1000
0000
0000
,
1030
0001
0010
0002
0000
0000
0103
0010
,
2000
0000
0000
0000
0000
0000
0000
3001
,
0010
0000
0001
0100
0010
0000
1000
0001
,
0200
0000
0000
0000
0000
0000
0000
0310
,
2000
0000
0000
0000
3100
0000
0010
0000
0000
0000
0001
0000
0000
1000
0000
0000
,
1100
0000
0000
0000
0001
0000
0000
0100
0000
0000
0010
0000
0000
0000
1000
0000
,
0010
0000
0100
0000
0010
0000
0000
1000
0000
0000
0001
0000
0100
0000
0010
0000
,
2000
0000
0000
0000
3001
0000
0000
0010
0000
0000
0001
0000
0000
0100
0000
0000
,
0202
0000
0000
0000
0303
0000
1000
0001
1000
0000
0020
0000
0000
0030
0000
0000
,
1001
0000
0000
0000
0001
0000
0000
1000
0000
0000
0010
0000
0000
0100
0000
0000
,
0001
0000
0000
1000
0000
0000
0001
0000
0000
0000
0100
0000
0000
0010
0000
0000
,
1000
0000
0000
0100
0000
0000
0010
0000
0000
0000
0010
0000
0000
0001
0000
0000
,
0011
0000
0000
0001
0000
0000
1000
0000
0000
0000
0100
0000
0000
0010
0000
0000
,
2002
0000
0000
0000
3003
0001
1000
0010
,
1000
0100
0010
0001
0100
0010
1000
0000
,
2200
0000
0000
0000
0000
0000
0000
0300
0000
0000
0001
0000
0000
3001
0000
0000
,
1000
0000
0000
0001
0000
0000
0022
0000
0000
0000
0003
0000
0130
0000
0010
0000
,
0000
0001
2000
0000
0000
0000
0000
0000
0000
0000
0000
0000
3000
0000
0000
0000
,
0010
0000
0000
0000
1000
0000
0000
0001
0000
0000
1000
0000
0000
0100
0000
0000
,
0110
0000
0000
0000
0001
0000
0000
0010
0000
0000
1000
0000
0000
0100
0000
0000
,
1000
0010
0100
0002
0000
0000
0013
0100
,
2000
0000
0000
0001
0000
0000
3001
0000
0000
0000
1000
0000
0010
0000
0100
0000
,
0001
0000
1000
0000
0001
0000
0100
0000
0010
2000
0000
0000
3000
0000
0000
0000
,
2010
0000
0000
0010
0000
0000
0010
0000
0000
0000
3002
0000
0000
1003
0001
0000
,
0020
0000
0000
0000
0031
0100
0001
0000
0000
0000
1000
0000
0000
0000
0010
0000
,
0000
0100
0002
0000
0000
0000
0003
0000
,
0101
0000
0000
0000
1000
0000
0000
0001
0000
0000
0100
0000
0000
0010
0000
0000
,
1010
0000
0000
0000
0001
0000
0000
0100
0000
0000
0010
0000
0000
1000
0000
0000
,
0101
0000
0100
0000
0010
0000
2000
0000
0000
0000
0000
3001
0100
0000
0010
0000
,
1002
0000
0000
0000
0100
0000
0000
0000
0010
0000
0000
0000
1003
0001
1000
0000
,
0010
0000
0000
0100
0000
0000
0001
0000
1000
0000
0000
0001
0000
0000
0100
0000
,
0210
0000
1000
0000
0010
0000
0301
0100
,
0020
0000
0000
0000
1030
0100
2000
0000
0000
0000
0001
0000
0000
3001
0000
0000
,
0011
0000
0000
0001
1000
0000
0020
0000
0000
0000
0000
0000
0000
0000
0000
0000
,
1030
0000
0000
0001
0000
0000
0100
0000
0000
0000
0010
0000
0000
1000
0000
0000
,
1100
0000
0000
0000
0001
0000
0000
0100
0000
0000
1000
0000
0000
0010
0000
0000
,
0100
0001
1000
0200
0000
0000
0310
0001
,
0201
0000
0000
0000
0010
0000
0000
0000
1000
0000
0000
0000
0301
0100
0001
0000
,
0010
0000
0000
0100
0000
0000
1000
0000
0001
0000
0000
0000
0001
0000
0100
0000
,
0020
0000
1000
0000
0001
0000
0130
0001
,
2000
0000
0000
0000
3001
0010
0002
0000
0000
0000
0100
0000
0000
0103
0000
0000
,
0011
0000
0000
0001
1000
0000
0200
0000
0000
0000
0000
0000
0300
0000
0000
0000
,
1100
0000
0000
0010
0000
0000
2000
0000
0000
0000
3001
0000
0100
0000
0010
0000
,
1010
0000
0001
2000
0000
3100
0010
0001
,
0200
0000
0000
0000
0300
0000
0001
1000
0001
0000
0020
0000
0000
0030
0000
0000
,
1001
0000
0000
0000
1000
0000
0000
0010
0000
0000
0100
0000
0000
0000
0001
0000
,
0110
0000
0000
0000
0010
0000
0000
0100
0000
0000
0001
0000
0000
0000
1000
0000
,
1100
0000
0000
0000
0010
0000
0000
1000
0000
0000
0100
0000
0000
0000
0001
0000
,
0011
0000
0000
0000
0100
0000
0000
0010
0000
0000
1000
0000
0000
0000
0001
0000
,
0101
0000
0000
0000
0010
0000
0000
1000
0000
0000
0100
0000
0000
0000
0001
0000
,
0010
0000
0000
0000
0001
0000
0000
0100
0000
0000
0010
0000
0000
0000
1000
0000
,
1010
0000
0000
0000
1000
0000
0000
0001
0000
0000
0010
0000
0000
0000
0100
0000
,
1000
0010
0100
0001
0010
0100
0110
0000
,
1001
0000
0000
0000
;

//---------------dance-single - ----------------
#NOTES:
     dance-single:
     :
     Hard:
     12:
     0.485888,0.529698,0.250910,0.320607,0.407728,488.000000,452.000000,36.000000,46.000000,0.000000,0.000000,0.485888,0.529698,0.250910,0.320607,0.407728,488.000000,452.000000,36.000000,46.000000,0.000000,0.000000:
0000
0000
0000
0000
,
0000
0000
0000
0000
,
0000
0000
0000
0000
,
0000
0000
0000
0000
,
1001
0000
0000
0010
1000
0000
0100
0000
0000
0100
0010
0000
0001
0000
0100
0000
,
0010
0000
0000
1000
0001
0000
0100
0000
0000
0100
0010
0000
1000
0000
0001
0000
,
0110
0000
0000
0001
0100
0000
0010
0000
0000
0000
1000
0000
0000
0001
0000
0000
,
0200
0000
0000
0300
,
2020
0000
0000
0000
,
0000
0000
0000
3000
,
0002
0000
0000
0000
,
0000
0000
0000
0003
,
0200
0000
0000
0000
0000
0000
0330
1000
,
1000
0001
0010
0001
0200
0000
0300
0000
,
0202
0000
0000
0000
0003
0001
0301
0100
,
2000
0000
3010
0100
0001
0010
0100
1000
,
2200
0000
0000
0000
0300
0000
0000
0000
0020
0000
0000
0000
3030
0000
0001
1000
,
0001
0000
0000
0010
0000
0000
0001
0000
0100
0000
0000
0010
0000
0000
1000
0000
,
0002
0000
0000
0000
0000
0000
0003
0010
,
0011
0000
0000
0000
0001
1000
0001
0000
0000
0000
0200
0000
0000
0320
0000
0000
,
1030
0000
0000
0001
0010
0000
0000
0200
0000
0000
0000
0000
0000
0000
1000
0000
,
1300
0000
0000
0000
0000
0000
0001
0000
0000
0000
0200
0000
0000
0320
0000
0000
,
0130
0000
0000
0000
0000
0000
0000
0000
0000
0000
0002
0000
0000
2003
0000
0000
,
3001
0000
0000
0010
0100
0000
2000
0000
0000
0000
3010
0000
0100
0000
0001
0000
,
0022
0000
0000
0000
0000
0000
0000
0000
0000
0030
0000
0000
0000
1003
0001
0000
,
0100
0000
0000
0010
0000
0000
1000
0000
1100
0000
0000
0000
0001
0100
0001
0000
,
0202
0000
0000
0000
0000
0000
0300
0100
,
0203
0000
0000
0000
0310
1000
0010
0000
0000
0000
2000
0000
0000
3002
0000
0000
,
0013
0000
0000
0001
0100
0000
0010
0000
0000
0010
1000
0000
0100
0000
0010
0000
,
0001
0000
0100
0000
0010
0000
1000
0001
0000
1000
0001
0000
0010
0000
0100
0000
,
1001
0000
0000
0000
0001
0000
0010
0100
0000
0010
0100
0000
1000
0000
0001
0000
,
0100
0000
0010
0000
1000
0000
0001
0010
0001
0000
0100
0000
0010
0000
1000
0000
,
0110
0000
0000
1000
0010
0000
0100
0000
0000
0000
0001
0000
1000
0000
0100
0000
,
0010
0001
0000
0001
0100
0000
0010
0000
0000
0000
1000
0000
0001
0000
1000
0000
,
1010
0000
0000
0001
1000
0000
0100
0000
0000
0000
0100
0000
0010
0000
0001
0000
,
0100
0010
0000
0010
1000
0000
0001
0000
0000
0000
0010
0000
0100
0000
1000
0000
,
1001
0000
0000
0010
1000
0000
0000
1000
0010
0000
0100
0000
0001
0000
1000
0000
,
0100
0010
0000
0002
0000
0000
0100
0000
0103
0000
0010
0000
1000
0000
0001
0000
,
0011
0000
0000
0001
1000
0000
0000
1000
0001
0000
0020
0000
0000
0230
0000
0000
,
1300
0000
0000
0010
0000
0000
0200
0000
0001
0000
0000
0000
1300
0000
0100
0000
,
0001
0000
0000
0010
0100
0000
1000
0000
0000
1000
0010
0000
0100
0000
0001
0000
,
0010
0000
0000
0001
0100
0000
0010
1000
0000
0010
1000
0000
0000
0001
0000
0000
,
1010
0000
0000
1000
0100
0000
0000
0100
0010
0000
0001
0000
0000
1000
0000
0000
,
0101
0000
0000
0001
0010
0000
0200
0000
0000
0000
1300
0000
0001
0000
0100
0000
,
1100
0000
0000
0001
0100
0000
0000
0100
0001
0000
0010
0000
0100
0000
1000
0000
,
0010
0000
0100
0000
0010
0000
1000
0000
0001
0100
0001
0000
0010
0000
0100
0000
,
0110
0000
0000
0010
0001
0000
0100
0000
0000
0000
0020
0000
1030
0001
1000
0000
,
0100
0000
0000
0000
0100
1000
0100
0000
0000
0000
0010
0000
0000
0000
0001
0000
,
0101
0000
0000
0001
1000
0000
0100
1000
0000
0100
1000
0000
0010
0000
0100
0000
,
0001
1000
0000
0010
0100
0000
0001
0000
0000
0000
0100
0000
0000
0010
0000
0000
,
1010
0000
0000
0100
0010
0000
1000
0000
0000
0000
0001
0000
0000
1000
0000
0000
,
0011
0000
0000
0100
0010
0000
2000
0000
0000
0000
0000
3010
0100
0000
0001
0000
,
1001
0000
0000
1000
0010
0000
0100
0000
0000
0001
0000
0010
0000
0001
1000
0000
,
0010
0000
0000
0100
0000
0000
0001
0000
1000
0000
0000
0001
0000
0000
0100
0000
,
0110
0000
0000
0010
1000
0000
0001
0000
0000
1000
0000
0010
0000
0100
0001
0000
,
0020
0000
0000
0000
0031
1000
0002
0000
0000
0000
2003
0000
0000
3100
0000
0000
,
1100
0000
0000
0001
1000
0000
0010
0000
0100
0000
0000
0010
1000
0000
0100
0000
,
0010
0001
0000
0001
1000
0000
0010
0000
0100
0000
0001
0000
0000
1000
0000
0000
,
1100
0000
0000
0010
0100
0000
0001
0000
0000
0000
0020
0000
0000
0130
0000
0000
,
0011
0000
0000
0001
0100
0000
0020
0000
0000
1030
0001
0000
1000
0000
0100
0000
,
1000
0010
0000
0010
0100
0000
0001
0000
0000
0000
0000
0010
0000
0001
1000
0000
,
0010
0000
0000
1000
0000
0000
0001
0000
0101
0000
0000
0000
0100
0010
0100
0000
,
0001
0010
0000
0010
0100
0000
1000
0000
0000
0000
0000
1000
0010
0000
0100
0000
,
2010
0000
0000
0000
3001
0100
0002
0000
0000
0000
0023
0000
0000
0130
0000
0000
,
0110
0000
0000
0001
0100
0000
0010
0000
1000
0000
0000
0100
0010
0000
0001
0000
,
1000
0001
0000
0001
0100
0000
0020
0000
0000
0000
1030
0000
0001
0000
0100
0000
,
1001
0000
0000
0010
1000
0000
0001
0000
1000
0000
0000
0100
0010
0000
0001
0000
,
0200
0000
0000
0320
0000
0000
1030
0001
1000
0000
0010
0000
0100
0000
0001
0000
,
0011
0000
0000
0001
1000
0000
0010
0000
0000
0010
0100
0000
0001
0000
1000
0000
,
0100
0000
0000
0010
0001
0000
0100
0000
0000
0001
1000
0000
0010
0000
0100
0000
,
1010
0000
0000
0001
1000
0000
0100
0000
0000
0000
0100
0000
0010
0000
0001
0000
,
0100
0000
0000
0010
1000
0000
0001
0000
0000
0000
1000
0000
0010
0000
0100
0000
,
0110
0000
0000
0001
0010
0000
0100
0000
0000
0000
1000
0000
0000
0000
0001
0000
,
0000
0010
0000
0001
0000
0100
0000
1000
,
1100
0000
0000
0010
0100
0000
0001
0000
0000
0000
1000
0000
0000
0000
0001
0000
,
0000
0100
0010
1000
0000
0101
0000
0001
,
1001
0000
0000
0000
;

//---------------dance-single - ----------------
#NOTES:
     dance-single:
     :
     Easy:
     7:
     0.276797,0.344304,0.334546,0.223031,0.000000,278.000000,230.000000,48.000000,32.000000,0.000000,0.000000,0.276797,0.344304,0.334546,0.223031,0.000000,278.000000,230.000000,48.000000,32.000000,0.000000,0.000000:
0000
0000
0000
0000
,
0000
0000
0000
0000
,
0000
0000
0000
0000
,
0000
0000
0000
0000
,
1001
0010
0000
0100
,
0001
0010
0000
1000
,
0110
0001
0000
0100
,
0020
0000
0000
0030
,
2020
0000
0000
0000
,
0000
0000
0000
3030
,
0202
0000
0000
0000
,
0000
0000
0000
0303
,
2200
0000
0000
3300
,
0001
0010
2000
3000
,
0022
0000
0033
0100
,
0100
0010
1000
0001
,
0110
0000
0001
0000
,
0001
0010
0100
1000
,
1010
0000
0100
0000
,
1000
0010
0100
0001
,
0012
2000
0000
3003
,
0010
0100
0000
0001
,
0202
0000
0303
0100
,
0010
1000
0100
1100
,
2002
0000
0000
3003
,
0001
0100
0010
1000
,
2200
0000
0000
3300
,
0001
1000
0010
0100
,
0110
0010
1000
0001
,
0011
0100
1000
0001
,
0202
0300
2000
3003
,
2002
0003
0020
3030
,
1010
0001
0010
1000
,
0100
0010
0001
0100
,
0001
0010
1000
0100
,
1000
0010
0100
0001
,
0022
0000
0033
1000
,
0100
0001
0020
0030
,
0202
0000
0303
0100
,
0010
1000
0002
0013
,
1000
1001
0010
0100
,
0001
0010
1000
0100
,
1010
0001
1000
0100
,
1100
0001
0100
0110
,
1001
0010
0000
0100
,
0001
0010
2000
3000
,
0110
0010
0000
2000
,
3001
0100
1000
0010
,
1010
0100
0001
0010
,
0011
0001
1000
0100
,
1100
0010
0100
0001
,
0101
0100
0010
1000
,
0110
0001
0010
0100
,
1000
0010
1000
0001
,
0101
0010
1000
0100
,
1100
0010
1000
0001
,
1010
0001
1000
0100
,
0010
0001
0100
1000
,
0011
0100
0010
1000
,
1001
0100
0010
1000
,
1100
0010
1000
0100
,
0010
0001
0100
1000
,
1001
0001
0010
1000
,
0100
0010
0001
0100
,
0101
0010
1000
0001
,
1010
0010
0100
0010
,
0110
1000
0100
0010
,
0011
0001
1000
0100
,
0011
0100
0000
0010
,
1000
0001
0000
0010
,
1100
0010
0000
0100
,
0001
0010
0100
1000
,
1010
0010
0000
1000
,
0100
0010
0000
0001
,
0101
0010
0000
1000
,
0010
0100
0010
0110
,
1001
0000
0000
0000
;

//---------------dance-single - ----------------
#NOTES:
     dance-single:
     :
     Beginner:
     4:
     0.171256,0.211879,0.181212,0.000000,0.000000,172.000000,146.000000,26.000000,0.000000,0.000000,0.000000,0.171256,0.211879,0.181212,0.000000,0.000000,172.000000,146.000000,26.000000,0.000000,0.000000,0.000000:
// measure 0
0000
0000
0000
0000
,  // measure 1
0000
0000
0000
0000
,  // measure 2
0000
0000
0000
0000
,  // measure 3
0000
0000
0000
0000
,  // measure 4
1001
0000
0000
0000
,  // measure 5
0001
0001
0001
0000
,  // measure 6
0110
0000
0000
0000
,  // measure 7
1001
0000
0000
0000
,  // measure 8
0110
0000
0000
0000
,  // measure 9
0000
0000
0000
0000
,  // measure 10
0100
0000
0000
0000
,  // measure 11
0000
0000
0000
0000
,  // measure 12
1000
0000
0000
0000
,  // measure 13
0001
0001
0001
0000
,  // measure 14
1001
0000
0000
0000
,  // measure 15
0010
0000
0100
0000
,  // measure 16
0110
0000
0000
0000
,  // measure 17
0001
0000
1000
0000
,  // measure 18
0001
0000
0000
0000
,  // measure 19
0010
0000
0100
0000
,  // measure 20
1000
1000
0000
0000
,  // measure 21
0001
0000
0000
0100
,  // measure 22
0100
0000
0000
0010
,  // measure 23
0010
0000
1000
0000
,  // measure 24
0110
0000
0000
0000
,  // measure 25
0001
0000
0010
0000
,  // measure 26
1000
0000
0000
0000
,  // measure 27
0100
0000
0010
0000
,  // measure 28
0001
0001
0001
0000
,  // measure 29
0100
0100
0100
0000
,  // measure 30
0010
0000
0010
0000
,  // measure 31
1000
0000
0001
0000
,  // measure 32
1001
0000
0000
0000
,  // measure 33
0010
0010
0010
0000
,  // measure 34
0110
0000
0000
0000
,  // measure 35
1000
1000
1000
0000
,  // measure 36
1001
0000
0000
0000
,  // measure 37
0001
0001
0001
0000
,  // measure 38
1001
0000
0000
0000
,  // measure 39
1000
1000
1000
0000
,  // measure 40
0010
0010
0010
0000
,  // measure 41
0100
0100
0100
0000
,  // measure 42
0110
0000
0000
0001
,  // measure 43
0001
0000
1000
0000
,  // measure 44
1001
0000
0000
0000
,  // measure 45
0100
0100
0100
0000
,  // measure 46
1001
0000
0000
0000
,  // measure 47
0010
0010
0010
0000
,  // measure 48
1000
1000
1000
0000
,  // measure 49
0001
0001
0001
0000
,  // measure 50
0110
0000
0000
0100
,  // measure 51
0100
0000
0010
0000
,  // measure 52
0110
0000
0001
0000
,  // measure 53
0100
0100
0100
0000
,  // measure 54
0110
0000
1000
0000
,  // measure 55
0001
0001
0001
0000
,  // measure 56
0010
0010
0010
0000
,  // measure 57
0001
0001
0001
0000
,  // measure 58
1001
0000
0000
1000
,  // measure 59
1000
0000
0010
0000
,  // measure 60
0110
0000
0010
0000
,  // measure 61
0100
0100
0100
0000
,  // measure 62
1001
0000
0010
0000
,  // measure 63
1000
1000
1000
0000
,  // measure 64
0100
0100
0100
0000
,  // measure 65
0010
0010
0010
0000
,  // measure 66
0110
0000
0001
0000
,  // measure 67
0100
0000
0010
0000
,  // measure 68
1001
0000
0000
0000
,  // measure 69
0100
0100
0100
0000
,  // measure 70
0110
0000
0000
0000
,  // measure 71
0010
0010
0010
0000
,  // measure 72
1001
0000
0000
0000
,  // measure 73
1000
1000
1000
0000
,  // measure 74
0110
0000
0000
0000
,  // measure 75
0001
0001
0001
0000
,  // measure 76
1001
0000
0000
0000
;
